Printable Version of Topic

Click here to view this topic in its original format

Metal Area - Extreme Music Portal _ Lossless _ Goatcraft - Όλεθρος [ep] (2015)

Posted by: Velmi Feb 23 2016, 17:51:00

http://metalarea.org/images/audiocovers/2016_Feb/acov_tid262769.jpg

*Artist: Goatcraft
*Album: Όλεθρος [ep]
*Year: 2015
*Genre: Black/Death Metal
*Country: Slovakia
*Format: mp3@CBR320kbps
*Size: 64MB

Tracklist:
1. Isle of the Dead 02:20
2. Temples of the Underworld 04:52
3. Cataclysmic Monuments 00:42
4. Graveless 01:46
5. Abominations 01:06
6. At the Nightside Dawn 01:43
7. Morbid Call 00:21
8. Deathrite 03:11
9. Chthonic Crevices 00:42
10. Down Below 01:00
11. Invocation of Death 05:10
12. Dreadful Dimensions 00:26
13. Far from Elysian Fields 01:45
******************************
Total playing time: 25:04

https://ironboneheadproductions.bandcamp.com/album/goatcraft-olethros

Extended info
Great Slovakian stuff. As usually

Fvkk off!!!!


Technical info

Input File: 02. Temples Of Underworld.mp3
Channels : 2
Sample Rate : 44100
Precision : 16-bit
Duration : 00:04:52.11 = 12881831 samples = 21907.9 CDDA sectors
File Size : 12.0M
Bit Rate : 328k
Sample Encoding: MPEG audio (layer I, II or III)
Comments :
Title=Temples Of Underworld
Artist=Goatcraft
Album=ОЊО»ОµОёПЃОїП‚
Tracknumber=02/13
Year=2015
Genre=Black / Death Metal



[ Hidden Text ]

Posted by: MortSathynr Feb 25 2016, 06:47:09

"Ошибка - Внутренняя ошибка на сервере."

Please re-up using another server!

pray.gif

Posted by: YDV.SVARTVIND Mar 21 2016, 17:30:08

Same All:

[ Hidden Text ]

Posted by: luxxul Mar 29 2016, 08:04:30

отличный материал!!!

Posted by: titorrante Jun 3 2019, 01:45:49

Link Death!

Posted by: Borderline1991 Jun 3 2019, 06:38:24

[ Hidden Text ]

Posted by: titorrante Jun 16 2019, 15:21:08

320?++ hells!!!

QUOTE(Borderline1991 @ Jun 3 2019, 01:38:24) *


Posted by: satanist666 Apr 8 2021, 09:52:31

GOATCRAFT:
https://goatcraft13.bandcamp.com/album/olethros

HEXENCAVE Productions:
https://hexencave.bandcamp.com/album/-

Powered by Invision Power Board
© Invision Power Services