Printable Version of Topic

Click here to view this topic in its original format

Metal Area - Extreme Music Portal _ Lossless _ Raging Speedhorn - Lost Ritual (2016)

Posted by: aesteticvice Jul 14 2016, 19:57:29

https://metalarea.org/images/audiocovers/2016_Jul/acov_tid270719.jpg

*Artist: Raging Speedhorn
*Album: Lost Ritual
*Year: 2016
*Genre: Sludge/Stoner Metal
*Country: United Kingdom
*Format: mp3@CBR320kbps
*Size: 100MB

Tracklist:
01. Bring Out Your Dead
02. Halfway To Hell
03. Motörhead
04. Evil Or Mental
05. Ten Of Swords
06. Dogshit Blues
07. Hangman
08. Shit Outta Luck
09. Coming Home
10. Unleash The Serpent
******************************
Total playing time: 40:46

https://www.facebook.com/ragingspeedhorn/
http://ragingspeedhorn.bandcamp.com/

Extended info


Technical info

Input File: 03 - Motörhead.mp3
Channels : 2
Sample Rate : 44100
Precision : 16-bit
Duration : 00:02:57.94 = 7846978 samples = 13345.2 CDDA sectors
File Size : 7.25M
Bit Rate : 326k
Sample Encoding: MPEG audio (layer I, II or III)
Comments :
Title=Motörhead
Artist=Raging Speedhorn
Album=Lost Ritual
Tracknumber=03/10
Year=2016
Discnumber=1/1



[ Hidden Text ]

Posted by: Razorbladeswaltz Jul 14 2016, 20:53:55

ух, они ещё живы

Posted by: vosmidesijatye Jul 14 2016, 21:12:57

Напридумывал тэгов огульно

Posted by: aesteticvice Jul 14 2016, 21:14:34

ЦИТАТА(vosmidesijatye @ Jul 14 2016, 20:12:57) *
Напридумывал тэгов огульно

headcrab.png а ты че слышишь? и где тавой коммент тут?
https://metalarea.org/forum/index.php?showtopic=24834
ну-ка удиви эрудицией http://ragingspeedhorn.bandcamp.com/album/half-way-to-hell

Posted by: vosmidesijatye Jul 14 2016, 21:59:56



Если это то что в тэгах то facessspalm.png

Posted by: snot Jul 15 2016, 04:59:28

Тэгофилы normal_Homerdisgust3.png

Posted by: garmonbozia Jul 15 2016, 17:48:34

переходная стадия между сладжем и стоунером. или золотая середина, хз.
кому не хватает глубины и атмосферы первого и напрягает чрезмерная медитативность второго, бегом сюда.
думаю эти ребятки удовлетворят обе стороны аудитории. рокенролен посоны.

Posted by: old Aug 8 2016, 10:00:53

QUOTE(garmonbozia @ Jul 15 2016, 18:48:34) *
переходная стадия между сладжем и стоунером. или золотая середина, хз.
кому не хватает глубины и атмосферы первого и напрягает чрезмерная медитативность второго, бегом сюда.
думаю эти ребятки удовлетворят обе стороны аудитории. рокенролен посоны.

по превью мазафака какаято. ну да попробуем послушать

Posted by: orloff2000 Apr 10 2021, 07:04:57

Thank you very much, but unfortunately the link is no longer available 6.gif
Can anyone help?

Posted by: Borderline1991 Apr 11 2021, 10:12:26

[ Hidden Text ][ Hidden Text ]

Powered by Invision Power Board
© Invision Power Services