Printable Version of Topic

Click here to view this topic in its original format

Metal Area - Extreme Music Portal _ Lossless _ Cranial - Dark Towers, Bright Lights (2017)

Posted by: necroscum Feb 9 2017, 16:44:30

https://metalarea.org/images/audiocovers/2017_Feb/acov_tid283266.jpg

*Artist: Cranial
*Album: Dark Towers, Bright Lights
*Year: 2017
*Genre: Atmospheric Sludge/Doom Metal
*Country: Germany
*Format: mp3@CBR320kbps
*Size: 106MB

Tracklist:
01. Dark 11:24
02. Towers 10:45
03. Bright 11:43
04. Lights 10:54
******************************
Total playing time: 44:46

https://www.facebook.com/CRANIALBAND
https://momentofcollapserecords.bandcamp.com/album/dark-towers-bright-lights

Technical info

Input File: 02. Towers.mp3
Channels : 2
Sample Rate : 44100
Precision : 16-bit
Duration : 00:10:46.02 = 28489306 samples = 48451.2 CDDA sectors
File Size : 26.1M
Bit Rate : 324k
Sample Encoding: MPEG audio (layer I, II or III)
Comments :
Title=Towers
Artist=Cranial
Album=Dark Towers, Bright Lights
Tracknumber=2
Year=2017
Discnumber=1/1



[ Hidden Text ]

Posted by: bodyc Feb 9 2017, 20:34:45

alternative hardcore post-hardcore post-metal screamo
- ёклмн, разницу в стилях хоть чуть-чуть делай ... look.gif

Posted by: Moody17 Feb 9 2017, 21:01:16

ровнячком, со стилем всё впорядке

Posted by: orloff2000 Apr 8 2021, 05:12:38

Thank you very much, but unfortunately the link is no longer available 6.gif
Can anyone help?

Posted by: Borderline1991 Apr 11 2021, 10:09:54

[ Hidden Text ][ Hidden Text ]

Powered by Invision Power Board
© Invision Power Services