Printable Version of Topic

Click here to view this topic in its original format

Metal Area - Extreme Music Portal _ Lossless _ Fvneral Fvkk - Carnal Confessions (2019)

Posted by: necroscum Sep 26 2019, 12:32:10

http://metalarea.org/images/audiocovers/2019_Sep/acov_tid327991.jpg

*Artist: Fvneral Fvkk
*Album: Carnal Confessions
*Year: 2019
*Genre: Epic Doom Metal
*Country: Germany
*Format: mp3@CBR320kbps
*Size: 111MB

Tracklist:
01. Omnia ad Dei Gloriam 00:36
02. Chapel of Abuse 06:25
03. A Shadow in the Dormitory 08:00
04. Alone with the Cross 07:09
05. The Hallowed Leech 04:56
06. Poor Sisters of Nazareth 07:20
07. To Those in the Grave 06:06
08. When God Is Not Watching 07:37
******************************
Total playing time: 48:09

https://www.facebook.com/fvneralfvkk/
https://fvneralfvkk.bandcamp.com/album/carnal-confessions
https://www.youtube.com/watch?v=AbIbhU7JjOo

Technical info

Input File: 02. Chapel of Abuse.mp3
Channels : 2
Sample Rate : 44100
Precision : 16-bit
Duration : 00:06:26.37 = 17039005 samples = 28977.9 CDDA sectors
File Size : 15.6M
Bit Rate : 323k
Sample Encoding: MPEG audio (layer I, II or III)
Comments :
Title=Chapel of Abuse
Artist=Fvneral Fvkk
Album=Carnal Confessions
Tracknumber=2
Year=2019-09-27
Genre=Metal
Discnumber=1



[ Hidden Text ]

Posted by: Samaritianin Sep 27 2019, 14:47:15

Cloud Mail 320
[ Hidden Text ]

Posted by: Sigue Oct 9 2019, 06:43:01

Прекрасный релиз. А с учётом того, что дебютный, так и вовсе распрекрасный smile1.gif

Posted by: Borderline1991 Oct 9 2019, 07:42:02

[ Hidden Text ]

Posted by: asog Oct 17 2019, 12:31:10

Вот всё вроде бы хорошо, но вот если бы ещё чистый вокал перемежался бы с гроулом - я бы такое слушал, а так не... Жду NOVEMBERS DOOM свежий. А пока пошёл слушать THE 11TH HOUR.

Posted by: denver Oct 21 2019, 15:39:41

vinyl flac

[ Hidden Text ]

Posted by: Amadeus May 1 2020, 17:57:59

вот и подъехала подмога к Mirror of Deception, могут же немцы 20.gif

Powered by Invision Power Board
© Invision Power Services