Printable Version of Topic

Click here to view this topic in its original format

Metal Area - Extreme Music Portal _ Lossless _ Eye Of The Enemy - Titan (2019)

Posted by: necroscum Oct 10 2019, 11:58:03

https://metalarea.org/images/audiocovers/2019_Oct/acov_tid328580.jpg

*Artist: Eye Of The Enemy
*Album: Titan
*Year: 2019
*Genre: Modern/Melodic Death Metal
*Country: Australia
*Format: mp3@CBR320kbps
*Size: 106MB

Tracklist:
01. Clay
02. Empire
03. Of Blood and Wine
04. The Artist's Decay
05. Stress and Colours
06. Tabula Rasa
07. Titan
08. Cinders
09. Abrasive Turns of Phrases
10. Hooks and Wires
******************************
Total playing time: 46:08

https://myspace.com/eyeoftheenemy
https://www.facebook.com/EyeoftheEnemyBand
https://www.reverbnation.com/eyeoftheenemy
https://eyeoftheenemy.bandcamp.com/album/titan
https://www.youtube.com/watch?v=h5kJVF0KVpU

Technical info

Input File: 02 Empire.mp3
Channels : 2
Sample Rate : 44100
Precision : 16-bit
Duration : 00:05:07.50 = 13560926 samples = 23062.8 CDDA sectors
File Size : 12.3M
Bit Rate : 320k
Sample Encoding: MPEG audio (layer I, II or III)
Comments :
Title=Empire
Artist=Eye of the Enemy
Album=Titan
Tracknumber=02/10
Year=2019-19-20
Discnumber=1/1



[ Hidden Text ]

Posted by: Dreamtale Oct 10 2019, 13:18:36

Если учесть, что эволюционно рога у многих животных сформулировались как атрибут внутривидовой борьбы за доминирование, а не как средство нападения, на всяких рогатых чертей на обложках можно взглянуть с новой, неожиданной стороны...

Posted by: Slam91 Oct 10 2019, 14:55:07

Клип на "Clay" весьма любопытным показался. Заценим альбом.

Posted by: timteam88 Oct 11 2019, 10:08:20

FLAC:
[ Hidden Text ]

Powered by Invision Power Board
© Invision Power Services