Printable Version of Topic

Click here to view this topic in its original format

Metal Area - Extreme Music Portal _ Lossless _ Evildead - United $Tate$ Of Anarchy (2020)

Posted by: Samaritianin Oct 29 2020, 12:06:11

https://metalarea.org/images/audiocovers/2020_Oct/acov_tid343070.jpg

*Artist: https://metalarea.org/forum/index.php?showtopic=170468
*Album: United $Tate$ Of Anarchy
*Year: 2020
*Genre: Thrash Metal
*Country: United States
*Format: mp3@CBR320kbps
*Size: 91MB

Tracklist:
1. The Decending 03:12
2. Word of God 03:04
3. Napoleon Complex 03:08
4. Greenhouse 03:58
5. Without a Cause 03:05
6. No Difference 04:20
7. Blasphemy Divine 02:57
8. A.O.P. / War Dance 05:21
9. Seed of Doubt 05:27
10. Planet Claire 2020 (B-52's cover) 04:03
******************************
Total playing time: 38:35

https://www.facebook.com/Evildead.Official

Extended info
Rob Alaniz Drums
Juan Garcia Guitars
Phil Flores Vocals
Albert Gonzales Guitars
Karlos Medina Bass



Technical info

Input File: 06 - No Difference.mp3
Channels : 2
Sample Rate : 44100
Precision : 16-bit
Duration : 00:04:20.00 = 11466000 samples = 19500 CDDA sectors
File Size : 10.6M
Bit Rate : 328k
Sample Encoding: MPEG audio (layer I, II or III)
Comments :
Title=No Difference
Artist=Evildead
Album=United States of Anarchy
Tracknumber=6
Year=2020
Discnumber=1



[ Hidden Text ]

Posted by: vosmidesijatye Oct 29 2020, 18:56:44

Ну эт приятные новости, сии ветераны жгли напалмом в своё время. 27.gif

Posted by: noxspiritus Oct 29 2020, 19:03:19

Evildead в свое время были на задворках, сейчас они особо тоже не продвинулись. Шаблонный трешак и не более

Posted by: babanguida Oct 29 2020, 21:02:16

Polished anarchy with overmixed vocals. Nevertheless the good thing is that zZzzZzZZZzzzzz

Posted by: kessler Oct 29 2020, 22:01:30

О, йопт, сплошные камбэки. Слуханем.

Posted by: sadmannn Oct 29 2020, 22:15:14

по юности, да, вставляла группа
сейчас послушал..нет, на таком звуке и с таким материалом я это уже не воспринимаю

Posted by: troll_swamp Oct 30 2020, 08:20:06

Ждал и очень доволен, всё как надо, если учесть что прошло много времени и такое настроение многие уже растеряли, но не эти парни и это хорошо.
Для первого прослушивания очень хорошо, логический третий лонгплей, с наработками с первых двух, с фирменными фишками по которым слышно кто перед нами.
Тут писали о задворках), блин, скажу за себя, Evildead как были на одних из главных ролях так там и остаются по сей день и новый альбом тому подтверждение, лично для меня.
Как любили говорить раньше Фирмачи, Фирмачи и есть, отличный альбом.
Спасибо парням что собрались, нашли время и выдали хорошо, ну и Самаритянину кружечку, а то и три 9.gif 9.gif 9.gif
Ну и мне кружечку 9.gif

Posted by: todesser Oct 30 2020, 12:25:09

Ну, так... Третий сорт - не брак. Дебютник куда интереснее был, а тут все очень вымученно.

Posted by: quicksand Oct 30 2020, 16:52:27

Шикарный альбомище, прямо в самое сердце стрелу матерого треша мне засандалили pray.gif
Опус, о котором уже и не мечтал, оказался еще и передовым творением. Реюнион, каких мало, с лихвой оправдал свою пригодность.
Сохранив своё лицо, редкие коллективные подпевки, пластичные лид гитары, яркие соляки, они немного осовременили звучание, чуток утяжелились,
жирнючий саунд нарулили, и снабдили запоминающимися мелодиями альбом. Для меня как минимум, песни через одну на роль хитов тянут.
Даже на Rigor mortis местами похожи стали. Отчего я еще больше рад.
А роскошный кавер, так вообще одно удовольствие, как сыграли 20.gif
Это в топ года для меня, без вариантов!

Posted by: Brutal Oct 31 2020, 12:29:33

Радует наличие классических гитариста и вокалиста, остальное заменимо. Отличный альбом, конечно же, это не откровение, ведь за окном не 80е, но своего слушателя однозначно найдет музыка. да и старые фэны не будут огорчены.

Posted by: Aectan Oct 31 2020, 14:30:02

Очень неплохой трэшак.

Posted by: Pioniere Dec 6 2020, 12:18:04

FLAC tracks 300 MB
[ Hidden Text ]

Posted by: Marek Mar 20 2021, 21:09:13

Lossless reupload please? Thanks a lot.

Posted by: Borderline1991 Mar 21 2021, 19:09:26

[ Hidden Text ]

Posted by: Brutal Mar 23 2021, 20:02:55

ЦИТАТА(Brutal @ 31st October 2020 - 14:29:33) *
Радует наличие классических гитариста и вокалиста, остальное заменимо. Отличный альбом, конечно же, это не откровение, ведь за окном не 80е, но своего слушателя однозначно найдет музыка. да и старые фэны не будут огорчены.

я не прав, прикупив диск, понял, что почти классический состав с первого альбома, кроме басиста.

Posted by: Tarelka Apr 7 2021, 13:09:43

нехило однако

Powered by Invision Power Board
© Invision Power Services