Printable Version of Topic

Click here to view this topic in its original format

Metal Area - Extreme Music Portal _ Lossless _ Dooms Vain - Demo [demo] (2023)

Posted by: Necrokilldozer Feb 15 2023, 18:57:46

http://metalarea.org/images/audiocovers/2023_Feb/acov_tid376723.jpg

*Artist: Dooms Vain
*Album: Demo [demo]
*Year: 2023
*Genre: Blackened Gothic/Doom Metal
*Country: Norway
*Format: flac
*Size: 101MB

Tracklist:
1. Dooms Vain 07:03
2. Where All Is Dark 06:24
******************************
Total playing time: 13:27

https://doomsvain.bandcamp.com/album/demo?from=hp_metal
https://www.metal-archives.com/albums/Dooms_Vain/Demo/1115071

Extended info
Line - up:

Asgeir Holm - Drums (track 2)
Haavard Holm - Guitars (track 2)
Erlend Holm - Guitars, Bass (Legiones, ex-Vinterheim, ex-The Embraced (live), ex-Vandød, ex-Bloodthorn)
Cecilie Langlie - Vocals (track 2) (Caoimhín, Omit, Skumring, ex-Vagrant God, Dævvskævv, Havnatt, ex-Fallen, ex-Mandylion, ex-Glade)
Hallstein Wold - Drums, Piano (track 1)
R.H - Vocals (track 1) (Ilhalung, Legiones, ex-Vinterheim)

Track 1: Recorded in 2004.
Track 2: Recorded between 2006-2007.


Technical info

Input File: 01 Dooms Vain.flac
Channels : 2
Sample Rate : 44100
Precision : 16-bit
Duration : 00:07:03.65 = 18683136 samples = 31774 CDDA sectors
File Size : 51.7M
Bit Rate : 975k
Sample Encoding: 16-bit FLAC
Comments :
Album Artist=Dooms Vain
Date=2004
Artist=Dooms Vain
Title=Dooms Vain
TrackNumber=1
Album=Demo
Genre=Doom Metal
Description=



[ Hidden Text ]

Posted by: BlackArrow Jun 24 2024, 10:58:56

Согласно ВС

ЦИТАТА
released January 4, 2007

Powered by Invision Power Board
© Invision Power Services