Printable Version of Topic

Click here to view this topic in its original format

Metal Area - Extreme Music Portal _ Low Bitrate Archive (read only) _ Black Spirit - El Sueño De La Razón Produce Monstruos (2021)

Posted by: Cramloth May 12 2021, 22:45:39

https://metalarea.org/images/audiocovers/2021_May/acov_tid350793.jpg

*Artist: Black Spirit
*Album: El Sueño De La Razón Produce Monstruos
*Year: 2021
*Genre: Black Metal
*Country: Spain
*Format: mp3@CBR320kbps
*Size: 117MB

Tracklist:
1. El Sueño de la Razón Produce Monstruos 02:31
2. Ignorance and The Grotesque 05:13
3. Dream or a Nightmare 06:15
4. At the Edge of Conciousness 04:56
5. Disparate del miedo 01:50
6. Black Paintings 03:28
7. The Depths of Time 04:13
8. Disparate Funebre 02:29
9. The Fanatics of Oppresion 05:07
10. The Mystical Silence 04:43
11. There will Always be a yet Greater Horror 03:48
12. In the Vortex to Infinite Blackness 05:55
******************************
Total playing time: 50:28

https://www.metal-archives.com/albums/Black_Spirit/El_Sueño_de_la_Razón_Produce_Monstruos/947370
https://www.youtube.com/watch?v=xa-l--T6gpc

Technical info

Input File: Black Spirit - 02 - Ignorance and The Grotesque.mp3
Channels : 2
Sample Rate : 48000
Precision : 16-bit
Duration : 00:05:13.11 = 15029328 samples ~ 23483.3 CDDA sectors
File Size : 12.5M
Bit Rate : 320k
Sample Encoding: MPEG audio (layer I, II or III)
Comments :
Title=Ignorance and The Grotesque
Artist=Black Spirit
Album=El Sueño De La Razón Produce Monstruos
Tracknumber=2
Year=2021
Genre=Black Metal



[ Hidden Text ]

Powered by Invision Power Board
© Invision Power Services