Printable Version of Topic

Click here to view this topic in its original format

Metal Area - Extreme Music Portal _ Low Bitrate Archive (read only) _ Iskandr - Vergezicht (2021)

Posted by: Samaritianin Sep 23 2021, 16:15:15

https://metalarea.org/images/audiocovers/2021_Sep/acov_tid355827.jpg

*Artist: Iskandr
*Album: Vergezicht
*Year: 2021
*Genre: Black Metal
*Country: Netherlands
*Format: mp3@CBR320kbps
*Size: 146MB

Tracklist:
1. Gezag 10:50
2. Bloeddraad 08:22
3. Gewesten der tijd 13:05
4. Baken 07:31
5. Verbod 10:04
6. Het slot 13:54
******************************
Total playing time: 1:03:46

https://iskandr.bandcamp.com/album/vergezicht

Extended info
M. Koops Drums
See also: Fluisteraars, Galg, Knoest, Nusquama, Solar Temple, Bong Breaker
O Everything
See also: Galg, Imperial Cult, Lubbert Das, Nusquama, Solar Temple, Turia, ex-Heaven Denies, Dool, Eden to Ashes


Technical info

Input File: 03 - Gewesten der Tijd.mp3
Channels : 2
Sample Rate : 44100
Precision : 16-bit
Duration : 00:13:02.83 = 34522847 samples = 58712.3 CDDA sectors
File Size : 31.5M
Bit Rate : 322k
Sample Encoding: MPEG audio (layer I, II or III)
Comments :
Title=Gewesten der Tijd
Artist=Iskandr
Album=Vergezicht
Tracknumber=3
Year=2021



[ Hidden Text ]

Powered by Invision Power Board
© Invision Power Services