Welcome Guest ( Log In | Register )

История благодарностей участнику kefka ::: Спасибо сказали: 9827 раз(а)
Дата поста: В теме: За сообщение: Спасибо сказали:
Jun 21 2021, 12:37:21 Sulfuric Cautery & Cystgurgle - Sulfuric Cautery/Cystgurgle [split] (2021)


*Artist: Sulfuric Cautery & Cystgurgle
*Album: Sulfuric Cautery/Cystgurgle [split]
*Year: 2021
*Genre: Goregrind | Goregrind
*Country: United States | Thailand
*Format: mp3@CBR320kbps
*Size: 22MB

Tracklist:
Sulfuric Cautery:
1. Foul Smelling Urine 01:45
2.Exocrine Pancreatic Insufficiency 00:47
3.Avoidable Surgical Complications 01:24
Cystgurgle:
4. Salvation Versus Prolonged Suffering... 00:22
5. Radical Implementation... I 00:28
6. Radical Implementation... II 00:39
7. Radical Implementation... III 00:25
8. Radical Implementation... IV 00:34
9. Radical Implementation... V 00:51
10.Radical Implementation... VI 00:38
11.Radical Implementation... VII 00:35
12.Radical Implementation... VIII 00:32
13.Radical Implementation... IX 00:24
******************************
Total playing time: 9:24



[more=Technical info]
Input File: 01. Sulfuric Cautery - Foul Smelling Urine.mp3
Channels : 2
Sample Rate : 44100
Precision : 16-bit
Duration : 00:01:45.72 = 4662164 samples = 7928.85 CDDA sectors
File Size : 4.96M
Bit Rate : 376k
Sample Encoding: MPEG audio (layer I, II or III)
Comments :
Title=Foul Smelling Urine
Artist=Sulfuric Cautery
Album=Split 7''
Tracknumber=01
Year=2021
Genre=Goregrind

[/more]

Register
(6) caro, Cdub, coresh, infiltrator, varlam4, Wail,
Jun 19 2021, 16:48:57 Pharmacist & Charcuterie - Forensically Undetectable Waste [split] (2021)


*Artist: Pharmacist & Charcuterie
*Album: Forensically Undetectable Waste [split]
*Year: 2021
*Genre: Death Metal/Goregrind | Goregrind
*Country: Japan | United States
*Format: mp3@CBR320kbps
*Size: 45MB

Tracklist:
Pharmacist:
1.Mortification Of Septic Tissue 02:26
2.Spasmatic Regurgitation 01:46
3.Foaming Organs 02:42
4.Out Of Phlegma 02:08
5.When Organics Shrink 02:59
Charcuterie:
1.Cascade of Neuronal Cell Death 01:56
2.Caressing the Corpse 01:15
3.No Respect for Anatomical Boundaries or Structures 00:40
4.Turkey Baster Anal Blasting 00:25
5.Revenge of the Knuckle-Glazer 01:54
6.A Body So Severely Disfigured, the EMTs Won't Be Able to Make Sense of It 01:23
******************************
Total playing time: 19:34




[more=Technical info]
Input File: 04 - Turkey Baster Anal Blasting.mp3
Channels : 2
Sample Rate : 44100
Precision : 16-bit
Duration : 00:00:25.68 = 1132576 samples = 1926.15 CDDA sectors
File Size : 1.89M
Bit Rate : 588k
Sample Encoding: MPEG audio (layer I, II or III)
Comments :
Title=Turkey Baster Anal Blasting
Artist=Charcuterie
Album=Forensically Undetectable Waste
Tracknumber=04
Year=2021
Genre=Goregrind, Death Metal, Grindcore

[/more]

Register
(7) AHBAnep, caro, infiltrator, Occultas, varlam4, vyacheslav, Wail,
Jun 18 2021, 03:58:46 Egggore & Pharmacist - Paranoid Personality Disorder/Surgical Intervention [split] (2021)


*Artist: Egggore & Pharmacist
*Album: Paranoid Personality Disorder/Surgical Intervention [split]
*Year: 2021
*Genre: Goregrind | Death Metal/Goregrind
*Country: Czech Republic | Japan
*Format: mp3@CBR320kbps
*Size: 63MB

Tracklist:
Egggore:
1.Emotional Hysteria 01:44
2.Somatization Tendencies 01:26
3.Inability to Cope with Emotional Issues 01:18
4.Self-Righteous Insistence on One’s Own Rights 01:33
5.Passive and Active Aggression 00:56
6.Suicidal Tendencies 01:08
7.Unnatural Quickness to Take Offence for Extended Periods of Time 01:34
8.Hypercritical and Intolerant Nature 01:20
9.Extreme Jealousy and Suspiciousness 02:01
10.Red Hammer (Cerebral Turbulency cover) 01:00
Pharmacist:
11.Cyclothymic Uplift 04:42
12.Morgue Administration 03:40
13.Surgical Intervention 05:43
******************************
Total playing time: 28:05




[more=Technical info]
Input File: 02.Egggore - Somatization Tendencies.mp3
Channels : 2
Sample Rate : 44100
Precision : 16-bit
Duration : 00:01:26.36 = 3808652 samples = 6477.3 CDDA sectors
File Size : 3.45M
Bit Rate : 320k
Sample Encoding: MPEG audio (layer I, II or III)
Comments :
Title=Somatization Tendencies
Artist=Egggore
Album=Split
Tracknumber=02
Year=2021
Genre=Death Metal Goregrind

[/more]

Register
(8) infiltrator, lilf, Occultas, Taakeferd, varlam4, vyacheslav, Wail, wreak,
Jun 15 2021, 06:27:56 Regurgitate & Dead Infection - Yyyaaaaaah/Heartburn Result [split] (2009)
320 - 24MB
Register
(1) wreak,
Jun 11 2021, 03:29:08 General Surgery - Lay Down And Be Counted [ep] (2021)


*Artist: General Surgery
*Album: Lay Down And Be Counted [ep]
*Year: 2021
*Genre: Death Metal/Goregrind
*Country: Sweden
*Format: mp3@CBR320kbps
*Size: 48MB

Tracklist:
1.Effusive Opulent Decampment/Lay Down and Be Counted 05:02
2.(In the Realm of the) Thorax Embalmer 00:58
3.At Cut Throat Speed 03:58
4.Liquefactive Decay of Remnant Lung Tissue 03:43
5.Necrogore 00:53
6.Psychotic Cerebral Procedure 01:13
7.Sentenced to the Slab/Organ Failure 04:22
******************************
Total playing time: 20:09



[more=Technical info]
Input File: 02. (In the Realm of the) Thorax Embalmer.mp3
Channels : 2
Sample Rate : 44100
Precision : 16-bit
Duration : 00:00:58.57 = 2583025 samples = 4392.9 CDDA sectors
File Size : 2.67M
Bit Rate : 365k
Sample Encoding: MPEG audio (layer I, II or III)
Comments :
Title=(In the Realm of the) Thorax Embalmer
Artist=General Surgery
Album=Lay Down and Be Counted
Tracknumber=02
Year=2021
Genre=Death Metal/Goregrind

[/more]

Register
(22) caro, chipsgott, craP_cillA, ForzaMinardi1977, Infidel, infiltrator, METALHUNTER, Mucupurulence, Olethros, ripper33, spazm, stumpheavyrock, supremo, Taakeferd, thenecromancer, Tular, Unknown, VALERY, vyacheslav, Wail, wreak, wtk.412,
Jun 9 2021, 04:34:15 Insistent - Disease (2021)


*Artist: Insistent
*Album: Disease
*Year: 2021
*Genre: Grindcore
*Country: Czech Republic
*Format: mp3@CBR320kbps
*Size: 50MB

Tracklist:
1.Eyewashed 01:04
2.Last Farewell 01:11
3.Disease 02:38
4.Bad Blood 00:45
5.Werewolves 01:27
6.Parasite 01:35
7.Shredder 01:23
8.Friendly Fire 00:45
9.Traitor 02:35
10.To The Ground 00:56
11.Why? 01:53
12.Lords Of Chaos 01:10
13.Wolf Cult 04:13
******************************
Total playing time: 21:35



[more=Technical info]
Input File: 02. Last Farewell.mp3
Channels : 2
Sample Rate : 44100
Precision : 16-bit
Duration : 00:01:11.03 = 3132599 samples = 5327.55 CDDA sectors
File Size : 3.37M
Bit Rate : 380k
Sample Encoding: MPEG audio (layer I, II or III)
Comments :
Title=Last Farewell
Artist=Insistent
Album=Disease
Tracknumber=02
Year=2021
Genre=Grindcore

[/more]

Register
(11) djsema4, GorAtheist, infiltrator, METALHUNTER, Olethros, sludge666, StabWound, umnaxtet, varlam4, Wail, wreak,
Jun 8 2021, 14:24:41 Coprobaptized Cunthunter & Embryopathia & Purulent Jacuzzi & Sickcunt - Coprobaptized Cunthunter/Embryopathia/Purulent Jacuzzi/Sickcunt [split] (2012)
320Kbit/s - 86MB+scans
Register
(1) varlam4,
Jun 8 2021, 04:01:35 Negligent Collateral Collapse - Paranormal Nanodivision (2003)
320Kbit/s - 96MB
Register
(1) Mucupurulence,
Jun 7 2021, 05:04:12 Death SS - The Cursed Concert [live] (1992)
1997 reissue including the rare EP "Straight To Hell"
320Kbit/s - 173MB + Scans
Register
(1) thenecromancer,
Jun 5 2021, 15:59:14 Camphora Monobromata & Changoz! - Split [split] (2021)


*Artist: Camphora Monobromata & Changoz!
*Album: Split [split]
*Year: 2021
*Genre: Grindcore | Grindcore/Noisecore
*Country: Russian Federation | Paraguay
*Format: mp3@CBR320kbps
*Size: 37MB

Tracklist:
Camphora Monobromata:
1.Dismissal From Life 01:00
2.Mankind's Devastation 00:54
3.Massive Death 01:33
4.Bombslaughter 01:26
5.Birth From Wound 01:07
6.Human Suffer (Left In Torture) 00:40
7.Patterned Fates 01:24
Changoz!:
8.Morte ao Ditador 03:44
9.Vitun Sotaa 03:27
10.Anti-Nacionalidade 00:43
11.Abolición de Las Fronteras 00:11
******************************
Total playing time: 16:09



[more=Technical info]
Input File: 04.Camphora Monobromata - Bombslaughter.mp3
Channels : 2
Sample Rate : 44100
Precision : 16-bit
Duration : 00:01:26.81 = 3828409 samples = 6510.9 CDDA sectors
File Size : 3.63M
Bit Rate : 335k
Sample Encoding: MPEG audio (layer I, II or III)
Comments :
Title=Bombslaughter
Artist=Camphora Monobromata
Album=Split
Tracknumber=04
Year=2021
Genre=Grindcore

[/more]

Register
(6) djsema4, infiltrator, Lanceatum, varlam4, Wail, wreak,
Jun 5 2021, 04:02:08 Depressive Witches - Bad Flask (2021)
*Genre: Black'n'Roll

(2) infiltrator, rickzammuto,
Jun 4 2021, 13:26:45 Effluence - Ballistic Bloodspray [ep] (2021)


*Artist: Effluence
*Album: Ballistic Bloodspray [ep]
*Year: 2021
*Genre: Goregrind
*Country: United States
*Format: mp3@CBR320kbps
*Size: 30MB

Tracklist:
1.Spinal Exposure 02:16
2.Ballistic Bloodspray 01:16
3.Cascading Putrescent Waves 01:10
4.Unending Separation 01:20
5.Unholy Liquid 02:16
6.Miasma of Entrails 03:36
******************************
Total playing time: 11:54



[more=Technical info]
Input File: 02 Ballistic Bloodspray.mp3
Channels : 2
Sample Rate : 44100
Precision : 16-bit
Duration : 00:01:16.86 = 3389482 samples = 5764.43 CDDA sectors
File Size : 3.30M
Bit Rate : 343k
Sample Encoding: MPEG audio (layer I, II or III)
Comments :
Title=Ballistic Bloodspray
Artist=Effluence
Album=Ballistic Bloodspray
Tracknumber=02
Year=2021
Genre=Goregrind

[/more]

Register
(6) djsema4, infiltrator, Olethros, varlam4, Wail, wreak,
Jun 4 2021, 10:28:22 Sickrecy - First World Anxiety [ep] (2021)


*Artist: Sickrecy
*Album: First World Anxiety [ep]
*Year: 2021
*Genre: Grindcore/Death Metal
*Country: Sweden
*Format: mp3@CBR320kbps
*Size: 46MB

Tracklist:
1.Man´s The Leech 02:28
2.First World Anxiety 02:49
3.I Am Paty 02:29
4.Banner of Contempt 03:44
5.Liberty 01:45
6.Last in Line 03:27
******************************
Total playing time: 16:42



[more=Extended info]Sickrecy Is A Swedish Grindcore Unit Consisting Of Members Of Birdflesh, General Surgery, World In Ruins And Damned To Downfall.[/more]

[more=Technical info]
Input File: 01 Man`s The Leech.mp3
Channels : 2
Sample Rate : 44100
Precision : 16-bit
Duration : 00:02:28.39 = 6543823 samples = 11129 CDDA sectors
File Size : 6.16M
Bit Rate : 332k
Sample Encoding: MPEG audio (layer I, II or III)
Comments :
Title=Man`s The Leech
Artist=Sickrecy
Album=First World Anxiety
Tracknumber=01
Year=2021
Genre=Grindcore

[/more]

Register
(7) caro, infiltrator, Mucupurulence, Olethros, varlam4, Wail, wreak,
Jun 3 2021, 05:52:52 Arcturus - Aspera Hiems Symfonia (1996)
QUOTE(NathanSS @ Jun 3 2021, 01:25:38) *
FIRST PRESS CD WITH SCANS PLEASE!

320 - 107MB + Scans
Register

(3) NathanSS, Occultas, Wail,
May 31 2021, 03:53:43 Masacre - Requiem (1991)
320-122MB
Register
(1) Ingvar,
May 31 2021, 03:51:16 Ad Inferna - L'empire Des Sens (2002)
QUOTE(DomAugusto @ May 30 2021, 22:38:48) *
Reupload please?

320-129MB
Register
(1) varlam4,
May 30 2021, 13:31:47 Haemorrhage - The Forensick Files [compilation] (2019)
QUOTE(BrutalMan @ May 30 2021, 11:22:55) *
Please re up!


320/110MB
Register
(2) BrutalMan, xax,
May 30 2021, 03:24:37 Nistikko - Tuhannen Pasuunan Voimalla [ep] (2021)


*Artist: Nistikko
*Album: Tuhannen Pasuunan Voimalla [ep]
*Year: 2021
*Genre: Blackened Grindcore/Crust
*Country: Finland
*Format: mp3@CBR320kbps
*Size: 49MB

Tracklist:
1.Minulla On Tulta 01:13
2.Älä Pelkää 02:22
3.Te Ette Palvo Muita Jumalia 01:30
4.Puhtauden Aikakausi 01:50
5.Synnitön 01:22
6.Tule Mukaani 03:45
7.Antaudu Minulle 01:34
8.Hevonen On Silmien Valkoinen 01:35
9.Eutanasia Maailmalle 01:31
10.Omistan Sinut 01:24
11.Tuhannen Pasuunan Voimalla 03:03
******************************
Total playing time: 21:09



[more=Technical info]
Input File: 01 - Minulla On Tulta.mp3
Channels : 2
Sample Rate : 44100
Precision : 16-bit
Duration : 00:01:13.93 = 3260445 samples = 5544.97 CDDA sectors
File Size : 3.39M
Bit Rate : 367k
Sample Encoding: MPEG audio (layer I, II or III)
Comments :
Title=Minulla On Tulta
Artist=Nistikko
Album=Tuhannen Pasuunan Voimalla
Tracknumber=01
Year=2021
Genre=Grindcore

[/more]

Register
(9) infiltrator, Olethros, Ostinato, sludge666, Taakeferd, VALERY, varlam4, Wail, wreak,
May 28 2021, 16:46:12 Satyricon - The Shadowthrone (1994)
2021 Remastered Napalm Rex
Flac Tracks
Register

320
Register
(5) 666days, acerbus, Aresson, Occultas, sethurius,
May 27 2021, 06:24:49 Casket - Urn [ep] (2021)
Flac
Register
(3) Marek, Olethros, wreak,
May 27 2021, 04:04:10 Birdflesh - All The Miseries [ep] (2021)


*Artist: Birdflesh
*Album: All The Miseries [ep]
*Year: 2021
*Genre: Grindcore
*Country: Sweden
*Format: mp3@CBR320kbps
*Size: 63MB

Tracklist:
1.Gore Ensemble 01:11
2.High On Carnage 00:53
3.Radioactive Madness 00:47
4.The Head Of A Skull 01:17
5.Spinebreaker 00:15
6.People Of The Leprosy 01:09
7.Slaughterchild 00:57
8.Dying After Midnight 00:39
9.Pissboy 00:54
10.Kickstart My Ass 00:47
11.Sayonara Sensei 01:12
12.Inked Deth 00:30
13.Hell Satan Bro Stalker 01:27
14.Crazy Nights (Live) 00:41
15.Countless Mayhem (Live) 01:31
16.Milkshake Is Nice (Live) 01:42
17.Alive Autopsy (Live) 01:50
18.Caligoulash (Live) 01:27
19.Teenage Mutilator (Live) 01:44
20.Gut To Kill (Live) 00:55
21.Victim Of The Cat (Live) 00:35
22.Anal Misery (Live) 01:13
23.The Flying Penis (Live) 00:53
24.Coffinfucker (Live) 02:26
******************************
Total playing time: 26:55



[more=Technical info]
Input File: 02. High on Carnage.mp3
Channels : 2
Sample Rate : 44100
Precision : 16-bit
Duration : 00:00:53.22 = 2346870 samples = 3991.28 CDDA sectors
File Size : 2.64M
Bit Rate : 397k
Sample Encoding: MPEG audio (layer I, II or III)
Comments :
Title=High on Carnage
Artist=Birdflesh
Album=All the Miseries
Tracknumber=02
Year=2021
Genre=Grindcore

[/more]

Register
(20) DarkHorde, djsema4, ForzaMinardi1977, gav-gafi, infiltrator, JantoHadez, Lanceatum, Olethros, Ostinato, Paradayz, Pioniere, RotAnus, SadistikSlayer, satanist666, spazm, supremo, varlam4, Wail, wreak, yuratroll,
May 24 2021, 09:19:18 Sledgehammergenocide - Abortion Clitnic Bombing (2021)


*Artist: Sledgehammergenocide
*Album: Abortion Clitnic Bombing
*Year: 2021
*Genre: Brutal Death Metal/Goregrind
*Country: United States
*Format: mp3@CBR320kbps
*Size: 55MB

Tracklist:
1.Dirty Bomb 01:52
2.Aborted Fetus Shrapnel 01:55
3.Trapped And Burnt Alive 01:32
4.Force Feedin Whores Their Abortions 02:06
5.Dead Slut In A River 02:12
6.Mutilated With A Kitchen Knife 02:22
7.Murdered In A Massacre 02:02
8.Explosion Dismemberment 00:53
9.Killed For Meat 00:57
10.I Stabbed Myself In The Leg And Found A Mummified Rodent By The River 01:59
11.Goreuphoria 01:51
12.Baby Killer - Devourment Cover 04:30
******************************
Total playing time: 24:11



[more=Technical info]
Input File: 02. Aborted Fetus Shrapnel.mp3
Channels : 2
Sample Rate : 44100
Precision : 16-bit
Duration : 00:01:56.23 = 5125655 samples = 8717.1 CDDA sectors
File Size : 4.65M
Bit Rate : 320k
Sample Encoding: MPEG audio (layer I, II or III)
Comments :
Title=Aborted Fetus Shrapnel
Artist=SledgeHammerGenocide
Album=Abortion Clitnic Bombing
Tracknumber=02
Year=2021
Genre=Brutal Death Metal/Goregrind

[/more]

Register
(2) Olethros, satanist666,
May 24 2021, 05:46:32 Pro Septico - La Venganza De Los Cerdos 2 (2020)


*Artist: Pro Septico
*Album: La Venganza De Los Cerdos 2
*Year: 2020
*Genre: Death Metal/Grindcore
*Country: Spain
*Format: mp3@CBR320kbps
*Size: 100MB

Tracklist:
1.Medical pig 02:41
2.Sister dogs 02:43
3.Mutant gen pork 02:38
4.Osteoporkcrisis 02:30
5.Human flatulation 02:19
6.Hinchazon oink no mañana 01:45
7.Tomorrow a la plancha 01:48
8.Barbacue babytocin 01:47
9.Lechon Bukake 02:14
10.Fetal jamon 01:08
11.Visceral morcilla 02:29
12.Epical vagina sister 01:49
13.Lomo embutched 02:40
14.Crisis shit 01:50
15.Alien mutant pork 01:53
16.Post anal penetration 01:56
17.Pastel cookies 02:00
18.Bocamorciodin 02:34
19.Careta humana al vino tinto 02:01
20.Sex on the pig 02:52
21.Del cerdo me gustan hasta los andares 01:46
******************************
Total playing time: 45:23



[more=Technical info]
Input File: 04 Osteoporkcrisis.mp3
Channels : 2
Sample Rate : 44100
Precision : 16-bit
Duration : 00:02:30.60 = 6641416 samples = 11294.9 CDDA sectors
File Size : 6.02M
Bit Rate : 320k
Sample Encoding: MPEG audio (layer I, II or III)
Comments :
Title=Osteoporkcrisis
Artist=Pro Septico
Album=La venganza de los cerdos 2
Tracknumber=04
Year=2020
Genre=Goregrind Death Metal

[/more]

Register
(8) jollo, Olethros, satanist666, Taakeferd, varlam4, vyacheslav, Wail, wreak,
May 24 2021, 05:19:34 Tiamat - Sumerian Cry (1990)
QUOTE(NathanSS @ May 24 2021, 00:59:13) *
FIRST PRESS 320+SCANS PLEASE!!


LP scans
Register
(3) NathanSS, Occultas, Veggr,
May 21 2021, 04:41:40 New York Against The Belzebu & Sore Throat - Victims Of Human Violence [split] (2004)
320 - 74MB
Register
(1) wgs73,

36 Pages V   1 2 3 > » 
- Lo-Fi Version Support form
Copyrights and abuse reports form
Time is now: 23rd June 2021 - 20:01:42