Welcome Guest ( Log In | Register )

История благодарностей участнику kefka ::: Спасибо сказали: 47356 раз(а)
Дата поста: В теме: За сообщение: Спасибо сказали:
Yesterday, 04:42:29 Dwell In Doom - Songs From The Deadland (2022)


*Artist: Dwell In Doom
*Album: Songs From The Deadland
*Year: 2022
*Genre: Doom/Gothic Metal
*Country: Sweden
*Format: mp3@CBR320kbps
*Size: 106MB

Tracklist:
1.The Sign of Doom 11:05
2.The Witch in Me 04:10
3.They Can Kill Your Body But Not Your Soul 04:06
4.Mammon 04:48
5.The Prophet 04:46
6.Red Winter 03:51
7.Water to Wine 10:15
8.The Resurrection 03:46
******************************
Total playing time: 46:47



[more=Technical info]
Input File: 02-The Witch in Me.mp3
Channels : 2
Sample Rate : 44100
Precision : 16-bit
Duration : 00:04:10.09 = 11028837 samples = 18756.5 CDDA sectors
File Size : 10.0M
Bit Rate : 320k
Sample Encoding: MPEG audio (layer I, II or III)
Comments :
Title=The Witch in Me
Artist=Dwell in Doom
Album=Songs from the Deadland
Tracknumber=2/8
Year=2022-12-02
Genre=Metal

[/more]

Register
(13) aleon, Buregon, chipsgott, Grev, metala, postal67, quarantine, scorn33, sergsazan, Shadechaser, stumpheavyrock, ukatokrad, VALERY,
Yesterday, 04:28:25 Binding Ties - Diary Of A Dying World [ep] (2022)


*Artist: Binding Ties
*Album: Diary Of A Dying World [ep]
*Year: 2022
*Genre: Progressive Metal
*Country: United Kingdom
*Format: mp3@CBR320kbps
*Size: 53MB

Tracklist:
01.Dear Diary 00:50
02.Be Not Afraid (feat. Sithu Aye) 04:22
03.Nothing Lasts Forever 04:00
04.Phantom Dancer 03:36
05.Anti-Life Equation 05:36
06.Gehenna (feat. Suncinder) 04:10
******************************
Total playing time: 22:34



[more=Technical info]
Input File: 04 - Phantom Dancer.mp3
Channels : 2
Sample Rate : 44100
Precision : 16-bit
Duration : 00:03:36.00 = 9525600 samples = 16200 CDDA sectors
File Size : 8.89M
Bit Rate : 329k
Sample Encoding: MPEG audio (layer I, II or III)
Comments :
Title=Phantom Dancer
Artist=Binding Ties
Album=Diary of a Dying World
Tracknumber=4
Year=2022-11-28
Genre=Metal
Discnumber=1

[/more]

Register
(4) chipsgott, metala, stumpheavyrock, Wail,
Yesterday, 04:05:26 The Jasser Arafats - Into The Void (2022)


*Artist: The Jasser Arafats
*Album: Into The Void
*Year: 2022
*Genre: Death/Thrash Metal
*Country: Finland
*Format: mp3@CBR320kbps
*Size: 89MB

Tracklist:
1.I Want Blood 02:59
2.Into the Void 03:25
3.Rejected 03:03
4.Reek of War 03:32
5.Reign of Darkness 03:18
6.Legions of Putrefaction 04:08
7.Tortured 04:08
8.Hail Violence 02:56
9.Tartaros 03:38
10.Rising Hell, Rising Justice 07:45
******************************
Total playing time: 38:52



[more=Technical info]
Input File: 02-Into the Void.mp3
Channels : 2
Sample Rate : 44100
Precision : 16-bit
Duration : 00:03:25.08 = 9043808 samples = 15380.6 CDDA sectors
File Size : 8.21M
Bit Rate : 320k
Sample Encoding: MPEG audio (layer I, II or III)
Comments :
Title=Into the Void
Artist=The Jasser Arafats
Album=Into the Void
Tracknumber=2/10
Year=2022-12-01
Genre=Death Metal

[/more]

Register
(11) boby9052, chipsgott, Grev, jollo, Lord Of The Siths, metala, MMMMM, pabedit, sagratan, stumpheavyrock, WOLAND,
Yesterday, 03:43:33 Ceremonial Cryptorium - Only Ashes Shall Remains (2022)


*Artist: Ceremonial Cryptorium
*Album: Only Ashes Shall Remains
*Year: 2022
*Genre: Death Metal
*Country: Indonesia
*Format: mp3@CBR320kbps
*Size: 82MB

Tracklist:
1.Beginning of the Destruction of Mankind 01:15
2.Mortal Coil 03:34
3.Only Ashes Shall Remains 03:30
4.Millenia 03:43
5.Annihilation has Arrived 05:31
6.Half of the Destruction of Mankind 01:12
7.Surrounding by Emptiness 04:10
8.Echoes of Devastation 03:05
9.Rage 05:30
10.Silence and Fear 04:13
11.End of the Destruction of Mankind 01:17
******************************
Total playing time: 37:00



[more=Technical info]
Input File: 02. Mortal Coil.mp3
Channels : 2
Sample Rate : 44100
Precision : 16-bit
Duration : 00:03:39.57 = 9682861 samples = 16467.5 CDDA sectors
File Size : 8.78M
Bit Rate : 320k
Sample Encoding: MPEG audio (layer I, II or III)
Comments :
Title=Mortal Coil
Artist=Ceremonial Cryptorium
Album=Only Ashes Shall Remains
Tracknumber=2
Year=2022
Genre=Death Metal

[/more]

Register
(8) chipsgott, jollo, Marek, MMMMM, sagratan, VALERY, wanderer73, WOLAND,
Yesterday, 03:32:17 A Man Named Onigumo - Fluidic Reconstruction/Empty Vessels (2022)


*Artist: A Man Named Onigumo
*Album: Fluidic Reconstruction/Empty Vessels
*Year: 2022
*Genre: Brutal Death Metal/Jazz Fusion
*Country: United States
*Format: mp3@CBR320kbps
*Size: 98MB

Tracklist:
1.Absolution Through Stoic Expulsion 03:13
2.Psilocybophile 02:49
3.Quantum Sodomization 02:17
4.Forced Arrhythmia 02:35
5.Fluidic Reconstruction 03:45
6.The Coagula Confinement 04:02
7.Symbiote 05:00
8.Soft Cough in The Upper Loft 04:22
9.Desired Appendage 05:42
10.Empty Vessel 08:35
******************************
Total playing time: 42:20



[more=Extended info]6 tracks of slamming riffage, blast beats, and extreme inhales, followed by 4 tracks of keyboard driven jazz fusion ecstasy for a full spectrum of quality and emotionally evolving experimental brutal death metal.[/more]

[more=Technical info]
Input File: 02. a2. Psilocybophile.mp3
Channels : 2
Sample Rate : 44100
Precision : 16-bit
Duration : 00:02:49.00 = 7452900 samples = 12675 CDDA sectors
File Size : 7.01M
Bit Rate : 332k
Sample Encoding: MPEG audio (layer I, II or III)
Comments :
Title=a2. Psilocybophile
Artist=A Man Named Onigumo
Album=Fluidic Reconstruction / Empty Vessels
Tracknumber=2/2
Year=2022
Genre=Metal
Discnumber=1/1

[/more]

Register
(4) chipsgott, jollo, Lord Of The Siths, metala,
Yesterday, 03:04:49 Anhaguama - Formula Of Zos Vel Thanatos [ep] (2022)


*Artist: Anhaguama
*Album: Formula Of Zos Vel Thanatos [ep]
*Year: 2022
*Genre: Death/Black Metal
*Country: Brazil
*Format: mp3@CBR320kbps
*Size: 41MB

Tracklist:
1.Ra-Hoor-Khuit 03:56
2.N.O.X. 04:55
3.Formula of Zos Vel Thanatos 02:58
4.Aeon of Horus 03:21
5.Necromancy & Magick of Hecate 02:36
******************************
Total playing time: 17:46



[more=Technical info]
Input File: 03 - Formula of Zos Vel Thanatos.mp3
Channels : 2
Sample Rate : 44100
Precision : 16-bit
Duration : 00:02:57.49 = 7827089 samples = 13311.4 CDDA sectors
File Size : 7.17M
Bit Rate : 323k
Sample Encoding: MPEG audio (layer I, II or III)
Comments :
Title=Formula of Zos Vel Thanatos
Artist=Anhaguama
Album=Formula of Zos Vel Thanatos
Tracknumber=3
Year=2022

[/more]

Register
(3) Mencae77, VALERY, Wail,
Yesterday, 02:57:24 Unchristian Christian - Sulphurfeast (2022)


*Artist: Unchristian Christian
*Album: Sulphurfeast
*Year: 2022
*Genre: Death Metal
*Country: Sweden
*Format: mp3@CBR320kbps
*Size: 112MB

Tracklist:
1.Rabid 04:29
2.Hatevoid 04:01
3.Xul 05:22
4.Mongrel 03:02
5.Nails & Electrodes 03:36
6.Deadhead 03:52
7.Voidhealer 04:52
8.Spirit & Flesh 03:41
9.Vermincode 02:56
10.Mausoleum 02:46
11.Dead Dull Eyes 06:38
******************************
Total playing time: 45:15



[more=Technical info]
Input File: 10. Mausoleum.mp3
Channels : 2
Sample Rate : 44100
Precision : 16-bit
Duration : 00:02:46.52 = 7343356 samples = 12488.7 CDDA sectors
File Size : 7.18M
Bit Rate : 345k
Sample Encoding: MPEG audio (layer I, II or III)
Comments :
Title=Mausoleum
Artist=Unchristian Christian
Album=Sulphurfeast
Tracknumber=10
Year=2022
Genre=Metal

[/more]

Register
(13) andreikun, chipsgott, hell_armageddon, jollo, Lord Of The Siths, MMMMM, older68, sagratan, scorn33, stumpheavyrock, SyncestrA, tim47, VALERY,
Yesterday, 02:48:09 Habitual Slaughter - Ravenous Undead [ep] (2022)


*Artist: Habitual Slaughter
*Album: Ravenous Undead [ep]
*Year: 2022
*Genre: Death Metal
*Country: United Kingdom
*Format: mp3@CBR320kbps
*Size: 40MB

Tracklist:
1.Ravenous Undead 03:10
2.Crush Their Bones 02:32
3.Ice Cold Burial 03:43
4.Psychotic Satisfaction 02:20
5.Bestial 03:28
******************************
Total playing time: 15:13



[more=Technical info]
Input File: 02. Crush Their Bones.mp3
Channels : 2
Sample Rate : 44100
Precision : 16-bit
Duration : 00:02:32.23 = 6713211 samples = 11417 CDDA sectors
File Size : 6.57M
Bit Rate : 345k
Sample Encoding: MPEG audio (layer I, II or III)
Comments :
Title=Crush Their Bones
Artist=Habitual Slaughter
Album=Ravenous Undead
Tracknumber=02
Year=2022
Genre=Metal

[/more]

Register
(5) Marek, sagratan, VALERY, Wail, wanderer73,
Yesterday, 02:37:52 Karmian - Live At Slaughter Club [live] (2022)


*Artist: Karmian
*Album: Live At Slaughter Club [live]
*Year: 2022
*Genre: Death Metal
*Country: Italy
*Format: mp3@CBR320kbps
*Size: 84MB

Tracklist:
1.The Alliance (Live) 04:53
2.Conquering the Plain (Live) 04:30
3.The Gaul (Live) 04:55
4.Shadow of the Eagles (Live) 04:16
5.See No Evil (Live) 05:54
6.Total War (Live) 04:59
7.Druids in the Forest (Live) 06:39
******************************
Total playing time: 36:06



[more=Technical info]
Input File: 04. Shadow of the Eagles.mp3
Channels : 2
Sample Rate : 44100
Precision : 16-bit
Duration : 00:04:16.98 = 11332818 samples = 19273.5 CDDA sectors
File Size : 10.4M
Bit Rate : 325k
Sample Encoding: MPEG audio (layer I, II or III)
Comments :
Title=Shadow of the Eagles
Artist=Karmian
Album=Live at Slaughter Club
Tracknumber=4/4
Year=2022
Genre=22
Discnumber=1/1

[/more]

Register
(2) VALERY, Wail,
Yesterday, 02:26:39 Nocturnal Desecration - Liberation Through Death [ep] (2022)


*Artist: Nocturnal Desecration
*Album: Liberation Through Death [ep]
*Year: 2022
*Genre: Blackened Death Metal
*Country: Argentina
*Format: mp3@CBR320kbps
*Size: 49MB

Tracklist:
1.Fallen Seraphim 03:35
2.Prophet of Lies 03:02
3.Chaos Invocation 04:14
4.Rotting Grave 03:21
5.Dark Mist 02:53
6.Black Mass Desecration (Necros Christos cover) 03:53
******************************
Total playing time: 20:58



[more=Technical info]
Input File: 02. Prophet of Lies.mp3
Channels : 2
Sample Rate : 44100
Precision : 16-bit
Duration : 00:03:02.61 = 8053057 samples = 13695.7 CDDA sectors
File Size : 7.54M
Bit Rate : 330k
Sample Encoding: MPEG audio (layer I, II or III)
Comments :
Title=Prophet of Lies
Artist=Nocturnal Desecration
Album=Liberation Through Death
Tracknumber=02
Year=2022
Genre=Metal

[/more]

Register
(1) VALERY,
Dec 2 2022, 15:12:19 Astral Experience - Friends Of Astral [ep] (2022)


*Artist: Astral Experience
*Album: Friends Of Astral [ep]
*Year: 2022
*Genre: Progressive Power Metal
*Country: Spain
*Format: mp3@CBR320kbps
*Size: 33MB

Tracklist:
1.Eterna juventud 04:11
2.El momento de volar 04:56
3.Grita 05:18
******************************
Total playing time: 14:25



[more=Technical info]
Input File: 01 - Eterna Juventud (feat. Nacho Ruiz, Adrián Salcido).mp3
Channels : 2
Sample Rate : 44100
Precision : 16-bit
Duration : 00:04:11.00 = 11069100 samples = 18825 CDDA sectors
File Size : 10.2M
Bit Rate : 326k
Sample Encoding: MPEG audio (layer I, II or III)
Comments :
Title=Eterna Juventud (feat. Nacho Ruiz, Adrián Salcido)
Artist=Astral Experience
Album=Friends of Astral
Tracknumber=1
Year=2022-03-21
Genre=Progressive Power Metal

[/more]

Register
(4) boby9052, Marek, Rover, stumpheavyrock,
Dec 2 2022, 14:41:40 Vis Mystica - Celestial Wisdom [ep] (2022)


*Artist: Vis Mystica
*Album: Celestial Wisdom [ep]
*Year: 2022
*Genre: Power Metal
*Country: United States
*Format: mp3@CBR320kbps
*Size: 55MB

Tracklist:
1.Whispering Winds of Fate 03:58
2.Legacy of the Builders 05:29
3.The Plains of Silence 04:42
4.Lux Et Veritas 05:43
5.Beyond the Gates of Fury 04:04
******************************
Total playing time: 23:56




[more=Technical info]
Input File: 03-The Plains of Silence.mp3
Channels : 2
Sample Rate : 44100
Precision : 16-bit
Duration : 00:04:42.09 = 12440125 samples = 21156.7 CDDA sectors
File Size : 11.5M
Bit Rate : 326k
Sample Encoding: MPEG audio (layer I, II or III)
Comments :
Title=The Plains of Silence
Artist=Vis Mystica
Album=Celestial Wisdom
Tracknumber=03
Year=2022
Genre=Metal

[/more]

Register
(6) boby9052, gwar, Marek, Rover, stumpheavyrock, Veggr,
Dec 2 2022, 13:38:23 Nighnacht - Asking To Be Killed [ep] (2022)


*Artist: Nighnacht
*Album: Asking To Be Killed [ep]
*Year: 2022
*Genre: Black/Death Metal
*Country: United States
*Format: mp3@CBR320kbps
*Size: 32MB

Tracklist:
1.Defiling Your Corpse 01:50
2.Asking To Be Killed 01:31
3.Auto Euthanasia 01:41
4.Dealing With Grief 02:35
5.Existence Is Futile 02:35
6.Chopping Up The Dead 01:36
7.In The Woods At Halloween 01:27
******************************
Total playing time: 13:15



[more=Extended info]Chris (Acrid) Bass
See also: Barbaric Hatred, Mirk, Sulphurous Burial
Keoni Drums
Paul Guitars
Don of the Dead Vocals
See also: Nunslaughter, Tondra, ex-Born from Fear, ex-Death Sentence, Flap Jack, Satanic Threat, ex-Gravewürm, ex-Derkéta (live)[/more]

[more=Technical info]
Input File: 02. Asking to Be Killed.mp3
Channels : 2
Sample Rate : 44100
Precision : 16-bit
Duration : 00:01:31.18 = 4020818 samples = 6838.13 CDDA sectors
File Size : 3.75M
Bit Rate : 329k
Sample Encoding: MPEG audio (layer I, II or III)
Comments :
Title=Asking to Be Killed
Artist=Nighnacht
Album=Asking to Be Killed
Tracknumber=2
Year=2022
Genre=Death Metal, Black Metal

[/more]

Register
(2) desekrator, VALERY,
Dec 2 2022, 13:28:45 Honor Bound - Honor Bound (2022)


*Artist: Honor Bound
*Album: Honor Bound
*Year: 2022
*Genre: Power Metal
*Country: United States
*Format: mp3@CBR320kbps
*Size: 101MB

Tracklist:
01.Angel 03:26
02.Honor Bound 05:05
03.An Oath in Blood 04:35
04.Loud and Clear 03:11
05.In Your Wildest Dreams 04:02
06.Witching Hour 03:43
07.Blackened Power 06:22
08.Voice of the Cosmos 09:12
09.Necropolis 03:58
******************************
Total playing time: 43:34



[more=Technical info]
Input File: 03 - An Oath in Blood.mp3
Channels : 2
Sample Rate : 44100
Precision : 16-bit
Duration : 00:04:35.00 = 12127500 samples = 20625 CDDA sectors
File Size : 11.2M
Bit Rate : 325k
Sample Encoding: MPEG audio (layer I, II or III)
Comments :
Title=An Oath in Blood
Artist=Honor Bound
Album=Honor Bound
Tracknumber=3
Year=2022-11-30
Genre=Metal
Discnumber=1

[/more]

Register
(6) boby9052, gwar, Marek, metala, Rover, stumpheavyrock,
Dec 2 2022, 11:52:17 Die With Fear - Sonata Di Morte (2022)


*Artist: Die With Fear
*Album: Sonata Di Morte
*Year: 2022
*Genre: Melodic Death/Groove Metal
*Country: Sweden
*Format: mp3@CBR320kbps
*Size: 81MB

Tracklist:
01.To The Wolves 04:24
02.(I) Favor The Brave 04:48
03.Sonata Di Morte 04:42
04.Endless Waves 02:02
05.The War Agians You 04:37
06.Before You Confess 04:54
07.What I Have Become 04:23
08.My Darkened Heart 04:08
******************************
Total playing time: 33:58




[more=Technical info]
Input File: 05 - The War Agians You.mp3
Channels : 2
Sample Rate : 44100
Precision : 16-bit
Duration : 00:04:36.00 = 12171600 samples = 20700 CDDA sectors
File Size : 11.5M
Bit Rate : 333k
Sample Encoding: MPEG audio (layer I, II or III)
Comments :
Title=The War Agians You
Artist=Die With Fear
Album=Sonata Di Morte
Tracknumber=5
Year=2022-12-02
Genre=Metal
Discnumber=1

[/more]

Register
(5) hell_armageddon, sergsazan, stumpheavyrock, VALERY, zhol,
Dec 2 2022, 10:33:51 Чёрный Кофе - Слёзы Дождя (2022)


*Artist: Чёрный Кофе
*Album: Слёзы Дождя
*Year: 2022
*Genre: Heavy Metal/Hard Rock
*Country: Russian Federation
*Format: mp3@CBR320kbps
*Size: 84MB

Tracklist:
01.Матерь София 04:37
02.Вера 03:47
03.Надежда 05:07
04.Любовь 02:59
05.Глаза 03:08
06.Дождь 02:49
07.Уходим 05:02
08.Купола 05:20
09.Песня О Друге (Высоцкий Cover) 03:45
******************************
Total playing time: 36:34

Preview 1

[more=Technical info]
Input File: 02 Вера.mp3
Channels : 2
Sample Rate : 44100
Precision : 16-bit
Duration : 00:03:47.41 = 10028781 samples = 17055.8 CDDA sectors
File Size : 9.10M
Bit Rate : 320k
Sample Encoding: MPEG audio (layer I, II or III)
Comments :
Title=Вера
Artist=Чёрный Кофе
Album=Слёзы Дождя
Tracknumber=02
Year=2022
Genre=Heavy Metal

[/more]

Register
(12) ALEXSATHANAS, Bloodline Christian, Brutal, gwar, metala, sadmannn, Slam91, VALERY, Veggr, WOLAND, zaqxsw, Сварог Барг,
Dec 2 2022, 10:11:55 Gaunt - Dethcrust [ep] (2022)


*Artist: Gaunt
*Album: Dethcrust [ep]
*Year: 2022
*Genre: Black Metal/Crust
*Country: United States
*Format: mp3@CBR320kbps
*Size: 29MB

Tracklist:
1.Void 02:34
2.Rot In Piss 03:42
3.Bayonet 01:40
4.In the Attic 04:06
******************************
Total playing time: 12:02



[more=Technical info]
Input File: 01 - Void.mp3
Channels : 2
Sample Rate : 44100
Precision : 16-bit
Duration : 00:02:35.07 = 6838763 samples = 11630.5 CDDA sectors
File Size : 6.51M
Bit Rate : 336k
Sample Encoding: MPEG audio (layer I, II or III)
Comments :
Title=Void
Artist=Gaunt
Album=Dethcrust
Tracknumber=01
Year=2022
Genre=Black Metal/Crust

[/more]

Register
(2) sludge666, VALERY,
Dec 2 2022, 10:03:42 Ignis - Malum (2022)


*Artist: Ignis
*Album: Malum
*Year: 2022
*Genre: Black Metal
*Country: Russian Federation
*Format: mp3@CBR320kbps
*Size: 78MB

Tracklist:
1.Север 04:54
2.Котёл 15:54
3.Ветер 05:43
4.Черви 08:34
******************************
Total playing time: 35:05



[more=Technical info]
Input File: 01. Север.mp3
Channels : 2
Sample Rate : 44100
Precision : 16-bit
Duration : 00:04:54.08 = 12969060 samples = 22056.2 CDDA sectors
File Size : 11.8M
Bit Rate : 320k
Sample Encoding: MPEG audio (layer I, II or III)
Comments :
Title=Север
Artist=Ignis
Album=Malum
Tracknumber=01
Year=2022
Genre=Black Metal

[/more]

Register
(10) Ainar, AlexSmith, kim666, Marek, Mencae77, murian, robertho777, squall8fr, VALERY, vasiljev_sergej,
Dec 2 2022, 09:52:30 Termination Force - Netherworld [ep] (2022)


*Artist: Termination Force
*Album: Netherworld [ep]
*Year: 2022
*Genre: Heavy/Thrash Metal
*Country: United Kingdom
*Format: mp3@CBR320kbps
*Size: 45MB

Tracklist:
1.After The Fall 03:20
2.Termination Force 03:48
3.Target Locked 03:53
4.Heart Racer 03:14
5.Netherworld 04:40
******************************
Total playing time: 18:55



[more=Technical info]
Input File: 02 - Termination Force.mp3
Channels : 2
Sample Rate : 44100
Precision : 16-bit
Duration : 00:03:48.00 = 10054800 samples = 17100 CDDA sectors
File Size : 9.43M
Bit Rate : 331k
Sample Encoding: MPEG audio (layer I, II or III)
Comments :
Title=Termination Force
Artist=Termination Force
Album=Netherworld
Tracknumber=2
Year=2022-12-02
Genre=Metal
Discnumber=1

[/more]

Register
(7) amiroo, boby9052, coldandterrible, Marek, Rover, sergsazan, stumpheavyrock,
Dec 2 2022, 09:45:06 Messoara - Burn (2022)


*Artist: Messoara
*Album: Burn
*Year: 2022
*Genre: Progressive Death Metal
*Country: Canada
*Format: mp3@CBR320kbps
*Size: 89MB

Tracklist:
01.Seed 05:00
02.Leeches 05:36
03.Waking 02:24
04.Burning 03:44
05.Respite 04:48
06.Ashes 06:17
07.Chasm 02:23
08.Calling 04:49
09.Winter 06:05
******************************
Total playing time: 41:06



[more=Technical info]
Input File: 04. Burning.mp3
Channels : 2
Sample Rate : 44100
Precision : 16-bit
Duration : 00:03:45.23 = 9932511 samples = 16892 CDDA sectors
File Size : 9.00M
Bit Rate : 320k
Sample Encoding: MPEG audio (layer I, II or III)
Comments :
Title=Burning
Artist=Messora
Album=Burn
Tracknumber=04
Year=2022
Genre=Progressive Metal

[/more]

Register
(4) metala, VALERY, WOLAND, yuratroll,
Dec 2 2022, 08:17:31 Myrvandrer - Salt (2022)


*Artist: Myrvandrer
*Album: Salt
*Year: 2022
*Genre: Atmospheric Black/Post Metal
*Country: Norway
*Format: mp3@CBR320kbps
*Size: 90MB

Tracklist:
01.Dypet 04:14
02.Kunsten A Forsvinne 06:28
03.Tapets Generasjon 03:44
04.Taiga 04:29
05.Under Nye Skyer, Pt. 1 01:30
06.Under Nye Skyer, Pt. 2 04:39
07.Morgendag (feat. Bizarrekult) 03:50
08.Dugg 03:34
09.Tidevannets Profet 06:30
******************************
Total playing time: 38:58



[more=Technical info]
Input File: 03 - Tapets Generasjon.mp3
Channels : 2
Sample Rate : 44100
Precision : 16-bit
Duration : 00:03:44.00 = 9878400 samples = 16800 CDDA sectors
File Size : 9.09M
Bit Rate : 325k
Sample Encoding: MPEG audio (layer I, II or III)
Comments :
Title=Tapets Generasjon
Artist=Myrvandrer
Album=Salt
Tracknumber=3
Year=2022-12-02
Genre=Metal
Discnumber=1

[/more]

Register
(9) AlexSmith, kim666, Kwaad, robertho777, sergsazan, VALERY, vasiljev_sergej, WOLAND, yuratroll,
Dec 2 2022, 07:57:18 Kres - Alchemia Pustki (2022)


*Artist: Kres
*Album: Alchemia Pustki
*Year: 2022
*Genre: Atmospheric Black Metal/Depressive Rock
*Country: Poland
*Format: mp3@CBR320kbps
*Size: 108MB

Tracklist:
1.W Labiryntach 06:55
2.Ciernie 05:38
3.Miraże 06:59
4.Otruty Skonał Czas 04:30
5.Alchemia Pustki 05:09
6.Burza Przed Ciszą 07:01
7.Pokruszone Filary Nieba 04:15
8.Ślepe Światło 05:30
9.Czarna Róża 01:33
******************************
Total playing time: 47:30



[more=Technical info]
Input File: 04-Otruty Skonal Czas.mp3
Channels : 2
Sample Rate : 44100
Precision : 16-bit
Duration : 00:04:30.52 = 11929756 samples = 20288.7 CDDA sectors
File Size : 10.8M
Bit Rate : 320k
Sample Encoding: MPEG audio (layer I, II or III)
Comments :
Title=Otruty Skonal Czas
Artist=Kres
Album=Alchemia Pustki
Tracknumber=4/9
Year=2022-12-01
Genre=Black Metal

[/more]

Register
(12) ALEXSATHANAS, AlexSmith, Angeldemon617, Condehate, kim666, Korpse, murian, robertho777, smes, VALERY, vasiljev_sergej, yuratroll,
Dec 2 2022, 07:40:12 Клада - False Gnosis (2022)


*Artist: Клада
*Album: False Gnosis
*Year: 2022
*Genre: Black Metal
*Country: Bulgaria
*Format: mp3@CBR320kbps
*Size: 71MB

Tracklist:
1.Onset of Winter 04:29
2.Sea of Disbelief 05:25
3.Breath of a Dying God 05:25
4.Soothing Silence 05:16
5.Subtle Satire 05:14
6.Forms of Evening Mist 04:59
******************************
Total playing time: 30:48



[more=Technical info]
Input File: 01-Onset of Winter.mp3
Channels : 2
Sample Rate : 44100
Precision : 16-bit
Duration : 00:04:29.58 = 11888258 samples = 20218.1 CDDA sectors
File Size : 10.8M
Bit Rate : 320k
Sample Encoding: MPEG audio (layer I, II or III)
Comments :
Title=Onset of Winter
Artist=Klada
Album=False Gnosis
Tracknumber=1/6
Year=2022-12-01
Genre=Black Metal

[/more]

Register
(9) AlexSmith, Condehate, kim666, Lord Of The Siths, Raw1488, robertho777, VALERY, vasiljev_sergej, WOLAND,
Dec 2 2022, 07:07:55 Frostnatt - Dette Stedet Kjenner Bare Kulden [ep] (2022)


*Artist: Frostnatt
*Album: Dette Stedet Kjenner Bare Kulden [ep]
*Year: 2022
*Genre: Black Metal
*Country: Russian Federation
*Format: mp3@CBR320kbps
*Size: 64MB

Tracklist:
1.Dette Stedet Kjenner Bare Kulden 06:05
2.Jeg Venter Fortsatt På Snøstormen 04:58
3.Vintervindens Første Pust 04:57
4.Gjennom Vintertåka 06:23
5.Vinterskogens Drøm 05:34
******************************
Total playing time: 27:57



[more=Extended info]Instrumental[/more]

[more=Technical info]
Input File: 02-Jeg Venter Fortsatt På Snøstormen.mp3
Channels : 2
Sample Rate : 44100
Precision : 16-bit
Duration : 00:04:58.55 = 13165923 samples = 22391 CDDA sectors
File Size : 11.9M
Bit Rate : 320k
Sample Encoding: MPEG audio (layer I, II or III)
Comments :
Title=Jeg Venter Fortsatt På Snøstormen
Artist=Frostnatt
Album=Dette Stedet Kjenner Bare Kulden
Tracknumber=2/5
Year=2022-11-27
Genre=Black Metal

[/more]

Register
(6) AlexSmith, Condehate, kim666, Marek, VALERY, vasiljev_sergej,
Dec 2 2022, 06:47:53 Ånder - Nattehimmelens Fortellinger (2022)


*Artist: Ånder
*Album: Nattehimmelens Fortellinger
*Year: 2022
*Genre: Atmospheric Black Metal
*Country: Norway
*Format: mp3@CBR320kbps
*Size: 93MB

Tracklist:
1.Nattehimmelens Fortellinger 01:31
2.Min Sjel River Løs I Evigheten 05:43
3.Forkledd I Nattens Farger, Ivaretatt Av Tapte Masker 06:57
4.Tomrommets Kall 03:02
5.Kulde Skjærer I Hennes Øyne 04:01
6.Ferden Langs Stjerne 01:32
7.Sweet Illness Of Mine 03:08
8.Dunkelheit 06:17
9.Eventyret Om Stjernene 02:22
10.Tinsjaa (Outro) 06:17
******************************
Total playing time: 40:50



[more=Technical info]
Input File: 02-Min Sjel River Løs i Evigheten.mp3
Channels : 2
Sample Rate : 44100
Precision : 16-bit
Duration : 00:05:43.22 = 15135914 samples = 25741.4 CDDA sectors
File Size : 13.7M
Bit Rate : 320k
Sample Encoding: MPEG audio (layer I, II or III)
Comments :
Title=Min Sjel River Løs i Evigheten
Artist=Ånder
Album=Nattehimmelens fortellinger
Tracknumber=2/10
Year=2022-12-01
Genre=Black Metal

[/more]

Register
(11) AlexSmith, cancer1974, Condehate, kim666, Lord Of The Siths, Marek, metala, robertho777, sergsazan, VALERY, vasiljev_sergej,

144 Pages V   1 2 3 > » 
- Lo-Fi Version Support form
Copyrights and abuse reports form
Time is now: 4th December 2022 - 07:16:55