Welcome Guest ( Log In | Register )

История благодарностей участнику kefka ::: Спасибо сказали: 13791 раз(а)
Дата поста: В теме: За сообщение: Спасибо сказали:
Yesterday, 09:07:17 Laruam - Succubus Of The Gods (2022)


*Artist: Laruam
*Album: Succubus Of The Gods
*Year: 2022
*Genre: Death/Black Metal
*Country: United States
*Format: mp3@CBR320kbps
*Size: 70MB

Tracklist:
1.Foreplay 00:56
2.Succubus Of The Gods 02:22
3.Bleak Pleasure 03:59
4.Monoascendant 03:27
5.Pantheon Obliteration 02:09
6.Cast Among The Mortals 03:09
7.Self Consumption 02:14
8.Resurrection Through The Holy Whore 03:42
9.Drawing Down The Son 03:13
10.BDSM 02:59
11.Clarity 01:47
******************************
Total playing time: 29:57



[more=Technical info]
Input File: 02 Succubus Of The Gods.mp3
Channels : 2
Sample Rate : 44100
Precision : 16-bit
Duration : 00:02:22.14 = 6268506 samples = 10660.7 CDDA sectors
File Size : 5.81M
Bit Rate : 327k
Sample Encoding: MPEG audio (layer I, II or III)
Comments :
Title=Succubus Of The Gods
Artist=Laruam
Album=Succubus Of The Gods
Tracknumber=02
Year=2022
Genre=Death/Black Metal

[/more]

Register
(3) andreikun, stumpheavyrock, varlam4,
Yesterday, 06:18:01 Fragda - Damnation Is Inevitable (2022)


*Artist: Fragda
*Album: Damnation Is Inevitable
*Year: 2022
*Genre: Extreme Progressive Metal
*Country: Hungary
*Format: mp3@CBR320kbps
*Size: 84MB

Tracklist:
1.The Happening 01:33
2.Five Pointed Symmetry 03:29
3.Wendigo 03:42
4.Thalassophobia 05:50
5.Cult 05:08
6.Black Sun 04:28
7.Earthquake 03:34
8.Surface of Abyss 04:23
9.Burning Legion 04:32
******************************
Total playing time: 36:39



[more=Technical info]
Input File: 03. Wendigo.mp3
Channels : 2
Sample Rate : 44100
Precision : 16-bit
Duration : 00:03:42.24 = 9800740 samples = 16667.9 CDDA sectors
File Size : 8.98M
Bit Rate : 323k
Sample Encoding: MPEG audio (layer I, II or III)
Comments :
Title=Wendigo
Artist=Fragda
Album=Damnation Is Inevitable
Tracknumber=03
Year=2022
Genre=Extreme Progressive Metal

[/more]

Register
(2) metala, yuratroll,
Jan 17 2022, 06:44:31 Cryptic Realms - Enraptured By Horror (2016)
QUOTE(tyguy94 @ Jan 17 2022, 06:33:20) *
Hey guys can anybody re-upload? Thanks

Same properties
Register
(1) tyguy94,
Jan 16 2022, 14:37:54 Plague Rages - Hecatombe (2021)


*Artist: Plague Rages
*Album: Hecatombe
*Year: 2021
*Genre: Grindcore
*Country: Brazil
*Format: mp3@CBR320kbps
*Size: 65MB

Tracklist:
1.Intro 02:00
2.O Câncer Eleito 00:51
3.Justiça Divina 00:38
4.Escuridão Total 01:04
5.Auto-Crítica Constante e Obrigatória 00:35
6.Paralisia 01:04
7.Coligação Nazi-Evangélica, Pt.2 00:37
8.(Des)Informação Para Confundir 00:32
9.Sangue Real 00:08
10.Constante Cativeiro 00:50
11.Barril de Pólvora 00:55
12.Engodo Virtual 00:32
13.Povo Sofrido 00:50
14.Legalize 00:58
15.Aborto Paterno 00:37
16.Ratoeira 00:24
17.Privilégio Ofusca Empatia 01:05
18.Hecatombe 00:15
19.Sistema de Regalia 01:32
20.Nos Bastidores do Chiqueiro 00:44
21.Homofobia Assassina 00:31
22.De Bem À Pior 00:55
23.Apatia 00:11
24.Ovo da Serpente 00:49
25.Quadrilha da Privatização 00:45
26.Conservadorismo Contagioso 01:25
27.Planeta Cinza 00:43
28.Falso Protesto 00:10
29.Explorar Para Lucrar 00:45
30.Supremacia do Distintivo 00:55
31.Idiotocracia 00:35
32.Discursos de Ódio 01:14
33.Ciclo Mentiroso 00:08
34.Falácia dos Irrecuperáveis 00:36
35.Hecatombe, Pt.2 01:55
******************************
Total playing time: 27:48



[more=Technical info]
Input File: 04 Escuridão Total.mp3
Channels : 2
Sample Rate : 44100
Precision : 16-bit
Duration : 00:01:04.42 = 2841098 samples = 4831.8 CDDA sectors
File Size : 2.81M
Bit Rate : 349k
Sample Encoding: MPEG audio (layer I, II or III)
Comments :
Title=Escuridão Total
Artist=Plague Rages
Album=Hecatombe
Tracknumber=04
Year=2021
Genre=Grindcore

[/more]

Register
(1) varlam4,
Jan 16 2022, 14:33:01 Plague Rages - Stress, Ansiedade, Depressão [ep] (2021)


*Artist: Plague Rages
*Album: Stress, Ansiedade, Depressão [ep]
*Year: 2021
*Genre: Grindcore
*Country: Brazil
*Format: mp3@CBR320kbps
*Size: 8MB

Tracklist:
1.Epidemia Minimizada 00:48
2.Milícia Presidencial 00:17
3.Negação Governamental 00:21
4.Placebo 00:22
5.Medo do Futuro 00:32
6.Cegos Pela Fé 00:24
7.Negacionismo Idiota 00:27
8.Contagem Regressiva da Morte 00:09
******************************
Total playing time: 3:20



[more=Technical info]
Input File: 04 Placebo.mp3
Channels : 2
Sample Rate : 44100
Precision : 16-bit
Duration : 00:00:23.07 = 1017387 samples = 1730.25 CDDA sectors
File Size : 1.15M
Bit Rate : 400k
Sample Encoding: MPEG audio (layer I, II or III)
Comments :
Title=Placebo
Artist=Plague Rages
Album=Hecatombe
Tracknumber=04
Year=2021
Genre=Grindcore

[/more]

Register
(1) varlam4,
Jan 16 2022, 10:12:15 Grinding - Hecatombe (2021)


*Artist: Grinding
*Album: Hecatombe
*Year: 2021
*Genre: Grindcore
*Country: Colombia
*Format: mp3@CBR320kbps
*Size: 55MB

Tracklist:
1.Hecatombe 01:50
2.Cenizas 01:25
3.Olvido 01:19
4.Cautivo 01:27
5.Apellidos 01:30
6.Tapete De Craneos 00:53
7.Depravación 01:30
8.Cadenas y Engranajes 02:30
9.Epitome Del Dolor 02:17
10.La Servitud 01:54
11.Colateral 01:45
12.Exclusion 01:13
13.Repudio 00:44
14.Declive 03:37
******************************
Total playing time: 23:54



[more=Technical info]
Input File: 07 Depravación.mp3
Channels : 2
Sample Rate : 44100
Precision : 16-bit
Duration : 00:01:30.78 = 4003530 samples = 6808.72 CDDA sectors
File Size : 3.80M
Bit Rate : 335k
Sample Encoding: MPEG audio (layer I, II or III)
Comments :
Title=Depravación
Artist=Grinding
Album=Hecatombe
Tracknumber=07
Year=2021
Genre=Grindcore

[/more]

Register
(2) jollo, SadistikSlayer,
Jan 16 2022, 05:43:25 Belphegor - The Last Supper (1994)
2021 Remastered 320/90MB
Register

Preview
(1) Occultas,
Jan 16 2022, 05:09:54 Belphegor - Blutsabbath (1997)
2021 Remastered - 320/82MB
Register

Preview
(1) Occultas,
Jan 15 2022, 16:23:54 Blood Upon Thorns - The Sanguinarian Oath [demo] (2022)


*Artist: Blood Upon Thorns
*Album: The Sanguinarian Oath [demo]
*Year: 2022
*Genre: Death Metal
*Country: United States
*Format: mp3@CBR320kbps
*Size: 19MB

Tracklist:
1.The Sanguinarian Oath 02:26
2.Abolishing Serenity 02:33
3.Daemoneum 03:27
******************************
Total playing time: 8:26



[more=Technical info]
Input File: 02. Abolishing Serenity.mp3
Channels : 2
Sample Rate : 44100
Precision : 16-bit
Duration : 00:02:33.56 = 6771952 samples = 11516.9 CDDA sectors
File Size : 6.14M
Bit Rate : 320k
Sample Encoding: MPEG audio (layer I, II or III)
Comments :
Title=Abolishing Serenity
Artist=Blood Upon Thorns
Album=The Sanguinarian Oath
Tracknumber=02
Year=2022
Genre=Death Metal

[/more]

Register
(4) artscald, Marek, varlam4, wanderer73,
Jan 15 2022, 08:26:03 Today Needed
QUOTE(spazm @ Jan 14 2022, 13:27:04) *

Both links refreshed
(1) spazm,
Jan 15 2022, 06:48:06 Vixen
320-105MB
Register
(1) thenecromancer,
Jan 15 2022, 05:50:53 Сивый Яр - Золотые Нити (2022)


*Artist: Сивый Яр
*Album: Золотые Нити
*Year: 2022
*Genre: Neofolk
*Country: Russian Federation
*Format: mp3@CBR320kbps
*Size: 84MB

Tracklist:
1.Кто-то тихо пропел за полями 04:53
2.В весеннем ветре слушай голос мой 03:51
3.Русалии 08:52
4.Сквозь туман чернеют села 08:16
5.Корений горький сок во злаке медом стал 05:44
6.В росе серебрятся следы... 05:01
******************************
Total playing time: 36:37




[more=Technical info]
Input File: 02. Hear My Voice In The Spring Breeze.mp3
Channels : 2
Sample Rate : 44100
Precision : 16-bit
Duration : 00:03:51.36 = 10202800 samples = 17351.7 CDDA sectors
File Size : 9.26M
Bit Rate : 320k
Sample Encoding: MPEG audio (layer I, II or III)
Comments :
Title=Hear My Voice In The Spring Breeze
Artist=Сивый Яр
Album=Золотые Нити
Tracknumber=02
Year=2022
Genre=Neofolk/Ambient

[/more]

Register
(13) Aresson, Branis, Cartman223, Diflock, Hexer, Infidel, judaz, maxxxy, Raw1488, recber, SyncestrA, varlam4, Абигор,
Jan 14 2022, 06:26:17 Fecal Body Incorporated - Tales From The Spermswamp (2022)


*Artist: Fecal Body Incorporated
*Album: Tales From The Spermswamp
*Year: 2022
*Genre: Goregrind
*Country: Bulgaria
*Format: mp3@CBR320kbps
*Size: 134MB

Tracklist:
01.Legend For The Spermswamp 04:02
02.Woman Like A Fetish 03:17
03.Adventures Of Don Coyote In The Valley Of Anal 04:19
04.Fairy Divine And Deadly Vaginosis 04:10
05.The Fisherman And Golden Transexual Mermaid 06:38
06.Superman And The 40 Whores 03:02
07.Filthy Passions 03:38
08.Frog Time In Pussyland 03:01
09.Uncle Dick In The Kingdom Of Tight Anals 03:22
10.Prayer For The Spermswamp 02:47
11.Rectal Kaviar Sludge 03:22
12.Female S(H)It Terror 03:02
13.Bizarre Body Modification 02:26
14.Something Rotten For Dinner 03:32
15.Maggots And Rancid Meat 02:17
16.Removal Of Rotting Fetus From The Womb 01:33
17.Cold Turkey (Ahumado Granujo Cover) 01:33
18.King Anus III (Cock And Ball Torture Cover) 00:57
19.Pathogenesis 02:00
******************************
Total playing time: 58:58



[more=Extended info]Recorded, mixed and mastered January-August 2021 in Slaughterhouse Studio, Pleven, Bulgaria.
Tracks 11-19 recorded live at Club VLC, 26.05.2012, Sofia, Bulgaria.[/more]

[more=Technical info]
Input File: 06. Superman And The 40 Whores.mp3
Channels : 2
Sample Rate : 44100
Precision : 16-bit
Duration : 00:03:02.87 = 8064567 samples = 13715.2 CDDA sectors
File Size : 7.51M
Bit Rate : 329k
Sample Encoding: MPEG audio (layer I, II or III)
Comments :
Title=Superman And The 40 Whores
Artist=Fecal Body Incorporated
Album=Tales From The Spermswamp
Tracknumber=06
Year=2021
Genre=Goregrind

[/more]

Register
(6) A.L.Rapsod, alikkon, andreikun, dcatagua, jollo, supremo,
Jan 14 2022, 06:06:48 Nullification - Kingdoms To Hovel (2022)


*Artist: Nullification
*Album: Kingdoms To Hovel
*Year: 2022
*Genre: Old-School Death Metal
*Country: Philippines
*Format: mp3@CBR320kbps
*Size: 84MB

Tracklist:
1. Intro To Annihilation 02:48
2. The Sledgehammer 05:02
3. Calamity From The Skies 04:26
4. Kingdoms Reduced To Hovel 04:29
5. Deliverance From Chaos 03:31
6. Negated Fields 04:11
7. Inside The Surreal 04:09
8. Everything... and Everyone (Nullified) 03:39
9. I, The Nullifier 04:09
******************************
Total playing time: 36:24



[more=Technical info]
Input File: 09 I, The Nullifier.mp3
Channels : 2
Sample Rate : 44100
Precision : 16-bit
Duration : 00:04:09.17 = 10988485 samples = 18687.9 CDDA sectors
File Size : 10.2M
Bit Rate : 328k
Sample Encoding: MPEG audio (layer I, II or III)
Comments :
Title=I, The Nullifier
Artist=Nullification
Album=Kingdoms To Hovel
Tracknumber=9
Year=2022
Genre=Old-School Death Metal

[/more]

Register

Register
(10) andreikun, artscald, dcatagua, jollo, sergsazan, StabWound, stumpheavyrock, supremo, VALERY, vyacheslav,
Jan 13 2022, 07:27:17 Vomit Remnants - Hyper Groove Brutality (2017)
QUOTE(sume7 @ Jan 12 2022, 21:16:38) *
Can someone re-up?

Reup same properties
Register
(1) sume7,
Jan 12 2022, 13:38:16 Today Needed
QUOTE(Grzechu @ Jan 12 2022, 12:39:18) *
I can't use it

Depressive Witches - Bad Flask (2021) 100MB/320
Register
(2) GorAtheist, Grzechu,
Jan 12 2022, 05:00:05 Expression Of Pain - Expression Of Pain [ep] (2021)


*Artist: Expression Of Pain
*Album: Expression Of Pain [ep]
*Year: 2021
*Genre: Grindcore
*Country: Canada
*Format: mp3@CBR320kbps
*Size: 41MB

Tracklist:
1.Unfed 01:09
2.Incorrigible 01:04
3.Dementia 00:52
4.Retch 00:52
5.Astray 00:25
6.Deficit 01:09
7.Lesion 00:40
8.Drown 00:46
9.Torsion Trap 02:06
10.Cyst 00:40
11.Gssp 01:08
12.01:24
13.Wring 00:30
14.Scorched 00:59
15.Transgression 01:33
16.Detained 01:40
******************************
Total playing time: 16:57



[more=Technical info]
Input File: 02. Incorregible.mp3
Channels : 2
Sample Rate : 44100
Precision : 16-bit
Duration : 00:01:04.29 = 2835145 samples = 4821.68 CDDA sectors
File Size : 2.86M
Bit Rate : 356k
Sample Encoding: MPEG audio (layer I, II or III)
Comments :
Title=Incorregible
Artist=Expression Of Pain
Album=Expression Of Pain
Tracknumber=02
Year=2021
Genre=Grindcore

[/more]

Register
(9) artscald, Carcharoth, chickenfucker, Hell_Is_Here, METALHUNTER, sacrut, sludge666, StabWound, Storky,
Jan 11 2022, 15:26:25 Frostgrave - Hymn Of The Dead (2008)
QUOTE(Weltenfeind666 @ Jan 11 2022, 00:45:59) *
pls reup, thx!

From the web - 320/71MB
Register
(4) sacramentary, thenecromancer, tyguy94, Weltenfeind666,
Jan 11 2022, 12:22:41 Caveman Attack - Caveman . Unga . Bunga [ep] (2021)


*Artist: Caveman Attack
*Album: Caveman . Unga . Bunga [ep]
*Year: 2021
*Genre: Goregrind
*Country: Germany
*Format: mp3@CBR320kbps
*Size: 25MB

Tracklist:
1.Caveman . Unga . Bunga 01:41
2.Trve Vampyric Caveman Wargoregrind 02:29
3.Groove . Dance . Death 00:55
4.Neanderthal Leather Jacked 02:23
5.Horned Terror (Bonus) 02:15
6.Fifty Million Years Of Shit (Bonus) 01:12
******************************
Total playing time: 10:55



[more=Technical info]
Input File: 02. Trve Vampyric Caveman Wargoregrind.mp3
Channels : 2
Sample Rate : 44100
Precision : 16-bit
Duration : 00:02:29.79 = 6605783 samples = 11234.3 CDDA sectors
File Size : 6.04M
Bit Rate : 323k
Sample Encoding: MPEG audio (layer I, II or III)
Comments :
Title=Trve Vampyric Caveman Wargoregrind
Artist=Caveman Attack
Album=Caveman . Unga . Bunga
Tracknumber=02
Year=2021
Genre=Goregrind

[/more]

Register
(2) caro, GorAtheist,
Jan 11 2022, 12:07:44 Capsaicin Stitch Rupture & First Days Of Humanity - Effectus Capsici Conscientia Hominis & Murderous Fantasies [split] (2020)


*Artist: Capsaicin Stitch Rupture & First Days Of Humanity
*Album: Effectus Capsici Conscientia Hominis & Murderous Fantasies [split]
*Year: 2020
*Genre: Goregrind | Goregrind
*Country: Czech Republic | United States
*Format: mp3@CBR320kbps
*Size: 43MB

Tracklist:
Capsaicin Stitch Rupture:
1.Treatment Of Usher's Syndrome Of Blindness With Capsicum Alkaloids (Radim Rehurek's prescription) 00:39
2.Craniofacial Cleft Caused By Capsaicin Ingestion During Pregnancy 01:12
3.We Are The Morugore 01:03
4.Chilli-Culinary Orgastical Testicular Spasm 01:04
5.Vagina Stimulation With The Carolina Reaper Extract 02:00
6.Ghost Pepper Butt Plug 01:03
7.Sriracha Colostomy Bag 01:01
8.The Greatest Possible Burning In Rectum 00:11
9.Capsaicin-Induced Abortion 01:27
10.Faekalic Hydroxide (Ahumado Granujo cover) 00:30
First Days Of Humanity:
11.Brains Squirting Out like Curdled Milk 02:05
12.Squeezing On Your Internal Jugular Vein 01:07
13.As I Gargle Your Lime-Flavoured Malignant Bile (Hey, NX5) 01:07
14.37 Throat Slices 01:08
15.Jacuzzi of Vomitous Froth 00:59
16.Urethral Stabbing 01:20
17.Clogged with Odorous Phlegm 00:52
******************************
Total playing time: 18:48




[more=Technical info]
Input File: 04. Chilli-Culinary Orgastical Testicular Spasm.mp3
Channels : 2
Sample Rate : 44100
Precision : 16-bit
Duration : 00:01:04.95 = 2864163 samples = 4871.03 CDDA sectors
File Size : 2.77M
Bit Rate : 341k
Sample Encoding: MPEG audio (layer I, II or III)
Comments :
Title=Chilli-Culinary Orgastical Testicular Spasm
Artist=Capsaicin Stitch Rupture
Album=Effectus Capsici Conscientia Hominis
Tracknumber=04
Year=2021
Genre=Goregrind

[/more]

Register
(1) caro,
Jan 11 2022, 10:58:52 Unleashed - Dawn Of The Nine (2015)
320+Scans/125MB
Register
(2) Storky, wreak,
Jan 11 2022, 10:55:53 Today Needed
QUOTE(LazarShadow @ Jan 11 2022, 10:19:18) *
Does anyone have Kapala Doomsday Requiem from 2021 ? pray.gif pray.gif pray.gif

only 128-20MB
Register
(2) LazarShadow, sacrut,
Jan 10 2022, 11:49:08 Vomit Remnants - Collecting The Remnants [best of/compilation] (2017)
QUOTE(sume7 @ Jan 10 2022, 06:06:03) *
Can anyone re-upload this?

Reup same properties
Register
(2) sume7, wreak,
Jan 10 2022, 06:53:12 Nocturnal Breed - Face Your Aggressor (25 Years In The Bunker) [compilation] (2021)


*Artist: Nocturnal Breed
*Album: Face Your Aggressor (25 Years In The Bunker) [compilation]
*Year: 2021
*Genre: Thrash/Black Metal
*Country: Norway
*Format: mp3@CBR320kbps
*Size: 247MB

Tracklist:
1.Rape the Angels 04:30
2.Maggot Master 05:36
3.Alcoholic Rites 03:16
4.Triumph of the Blasphemer 04:56
5.Screaming for a Leather Bitch 05:50
6.No Retreat…No Surrender 05:02
7.Warhorse 03:41
8.Thrash The Redeemer 03:13
9.Give’em Hell 05:19
10.Wicked Vicious and Violent 04:11
11.Iron Bitch 03:14
12.Speedkrieg 04:46
13.Sharks of the Wehrmacht 04:39
14.Steel Dawn Coming 00:52
15.Nunsploitation 05:14
16.Vatical Reapout 05:38
17.Vivisectoria (Teenage Girls With Machine Guns) 01:49
18.Havoc Rose (T.J.H.T.) 05:01
19.Shadow of the Iron Cross 04:11
20.Cold Bones… Cold Iron – Trench Fever Pt.3 03:58
21.Heavy Mental (The Devil Made Me Do It) 06:01
22.Monolithen Aus Fleisch 01:50
23.Thrashiac - Demo 2003 04:38
24.Armageddon Nights - Demo 1998 05:44
25.Raping the Angels - Prod. Demo 1996 05:27
******************************
Total playing time: 1:48:36



[more=Extended info]Disc 1 (25 Years In The Bunker) will feature an absolute ‘best off’ collection, picked by the Speed Metal Legions fan club members.
Disc 2
Contains old renovated songs (some are 25 years old), recorded from scratch again and unreleased material.[/more]

[more=Technical info]
Input File: 03. Alcoholic Rites.mp3
Channels : 2
Sample Rate : 44100
Precision : 16-bit
Duration : 00:03:16.87 = 8682055 samples = 14765.4 CDDA sectors
File Size : 8.08M
Bit Rate : 328k
Sample Encoding: MPEG audio (layer I, II or III)
Comments :
Title=Alcoholic Rites
Artist=Nocturnal Breed
Album=Face Your Aggressor (25 Years In The Bunker)
Tracknumber=03
Year=2021
Genre=Thrash/Black Metal

[/more]

Register
(13) artscald, Asketto, autumnwood, boby9052, caro, gwar, kryptor, METALHUNTER, recber, stumpheavyrock, supremo, varlam4, Vitald,
Jan 10 2022, 05:55:00 Legion Of Doom - Ceremony Of Domination [compilation] (2018)
Track 1: Unreleased
Tracks 2-3: "The Tyrant with the Seven Heads" EP 2014
Track 4: "Crossing the Bloodlines of Left Hand Path" split with Stutthof 2007
Track 5: "Ilman arvoa ja arkkua / Κιναιδος" split with Horna 2006
Track 6: "Grif of the Universe / Spinning Galaxies" split with Hate Forest 2008
Tracks 7-8: "Chariots of Thunder" EP 2004
(3) andivi, Occultas, thenecromancer,

60 Pages V   1 2 3 > » 
- Lo-Fi Version Support form
Copyrights and abuse reports form
Time is now: 19th January 2022 - 03:31:59