Welcome Guest ( Log In | Register )

История благодарностей участнику kefka ::: Спасибо сказали: 10333 раз(а)
Дата поста: В теме: За сообщение: Спасибо сказали:
Yesterday, 14:17:16 Forest - Forest (1996)
2008 Reissue by mighty Stellar Winter Prod with Full scans (NOT remastered)
Register
(1) Chasm,
Sep 21 2021, 07:28:02 Veni Domine - Spiritual Wasteland (1998)
320+Scans
Register
(1) thenecromancer,
Sep 19 2021, 06:30:40 Baxaxa - Hard Attack 96 [compilation] (2014)
QUOTE(Wail @ Sep 19 2021, 05:45:15) *
Any chance 320 or flac

it's free to download here:
(2) thenecromancer, Wail,
Sep 19 2021, 04:51:52 Napalm Death - The World Keeps Turning EP [ep] (1992)
320 + Scans 25MB
Register
(1) Ingvar,
Sep 18 2021, 05:41:30 Morgue Dweller - Necrophile Ii [ep] (2021)


*Artist: Morgue Dweller
*Album: Necrophile Ii [ep]
*Year: 2021
*Genre: Goregrind
*Country: United States
*Format: mp3@CBR320kbps
*Size: 39MB

Tracklist:
1.Ed Gein 04:53
2.Prep Room Malpractice 01:41
3.Rogue Autopsy 01:52
4.The Corpse Bride of Carl Tanzler 03:00
5.Jancsó Ladányi Piroska 02:22
6.Jeffery Dahmer 03:07
******************************
Total playing time: 16:55



[more=Technical info]
Input File: 02 Prep Room Malpractice.mp3
Channels : 2
Sample Rate : 44100
Precision : 16-bit
Duration : 00:01:41.63 = 4481663 samples = 7621.88 CDDA sectors
File Size : 4.22M
Bit Rate : 332k
Sample Encoding: MPEG audio (layer I, II or III)
Comments :
Title=Prep Room Malpractice
Artist=Morgue Dweller
Album=Necrophile II
Tracknumber=02
Year=2021
Genre=Goregrind

[/more]

Register
(6) chipsgott, cist, Olethros, vyacheslav, Wail, wreak,
Sep 13 2021, 04:30:33 Dead Head - The Feast Begins At Dawn (1991)
2CD Reissue 2019 + Scans
Register
(2) Samogon, Wail,
Sep 12 2021, 04:07:31 Toi Toi - Thriller [ep] (2021)


*Artist: Toi Toi
*Album: Thriller [ep]
*Year: 2021
*Genre: Death Metal/Goregrind
*Country: Sweden
*Format: mp3@CBR320kbps
*Size: 56MB

Tracklist:
1.They Made the Movie the Human Centipede, Based on My Life as the Middle One 01:30
2.I Hate Pregnant People 00:22
3.Necrococks in Upright Position 01:15
4.I Heard It Through the Rape Whine 01:23
5.Deepfried Children 01:19
6.Whoratory (Your Eyes Say Yes, But Your Ass Says Aids) 01:13
7.Even Though Your Lips Makes Me Horny, You Still Sound Retarded, Which I Love 00:06
8.The Phlegminist 01:32
9.Strangled with a Virgin's Entrails 01:32
10.Craptopsy (Brown Bowel Bonanza) 01:23
11.Fucked with a Rusty Nail 01:08
12.Circle of Dead Mongoloid Children 01:23
13.Inc'est la vie! 01:30
14.Mandatory Sewerslide 01:06
15.Random Medical Dictionary Words 00:44
16.The Obscene Extreme Anthem 01:47
17.Diarrhea of a Madman 00:43
18.Gresera 00:07
19.This Is Shit! 01:43
20.I Ate Myself and I Want to Die 01:03
21.I Cut Off Your Head Just to Use Your Spine as a Dildo 01:36
******************************
Total playing time: 24:25



[more=Technical info]
Input File: 01 They Made the Movie The Human Centipede, Based On My Life As The Middle One.mp3
Channels : 2
Sample Rate : 44100
Precision : 16-bit
Duration : 00:01:31.04 = 4015040 samples = 6828.3 CDDA sectors
File Size : 3.81M
Bit Rate : 335k
Sample Encoding: MPEG audio (layer I, II or III)
Comments :
Title=They Made the Movie The Human Centipede, Based On My Life As The Middle One
Artist=Toi Toi
Album=Thriller
Tracknumber=01
Year=2021
Genre=Death Metal, Goregrind

[/more]

Register
(5) caro, Olethros, Taakeferd, Wail, wreak,
Sep 10 2021, 13:23:46 Various Artists - Bllleeeeaaauuurrrrgghhh! The Cd [compilation] (2003)


*Artist: Various Artists
*Album: Bllleeeeaaauuurrrrgghhh! The Cd [compilation]
*Year: 2003
*Genre: Grindcore/Noisecore
*Country: Many
*Format: mp3@CBR320kbps
*Size: 112MB

Tracklist:
01.Bllleeeeaaauuurrrrgghhh! The Record Side A 06:43
02.Bllleeeeaaauuurrrrgghhh! The Record Side B 06:31
03.Son of Bllleeeeaaauuurrrrgghhh! Side A 07:38
04.Son of Bllleeeeaaauuurrrrgghhh! Side B 08:05
05.Bllleeeeaaauuurrrrgghhh! A Music War! Side A 07:02
06.Bllleeeeaaauuurrrrgghhh! A Music War! Side B 06:57
******************************
Total playing time: 42:56

Preview 1

[more=Extended info]+ Scans[/more]

[more=Technical info]
Input File: 01 - Bllleeeeaaauuurrrrgghhh! The Record Side A.mp3
Channels : 2
Sample Rate : 44100
Precision : 16-bit
Duration : 00:06:45.63 = 17888195 samples = 30422.1 CDDA sectors
File Size : 16.2M
Bit Rate : 320k
Sample Encoding: MPEG audio (layer I, II or III)
Comments :
Title=Bllleeeeaaauuurrrrgghhh! The Record Side A
Artist=V/A
Album=Bllleeeeaaauuurrrrgghhh! The CD
Tracknumber=01
Year=2003
Genre=Crust/Grindcore/Fastcore/Noisecore

[/more]

Register
(7) caro, dcatagua, FUDEDOR, p4B10, Svafrlami, Wail, wreak,
Sep 10 2021, 03:28:10 Absu - The Third Storm Of Cythraul (1997)
QUOTE(titorrante @ Sep 10 2021, 03:40:56) *
Link 320 ?


320
Register
(1) titorrante,
Sep 8 2021, 15:39:09 Aryan Blood & Eisenwinter - Aryan Blood/Eisenwinter [split] (2001)
QUOTE(Heidentum17 @ Sep 8 2021, 16:09:03) *
Re-up for mega or Yandex?


Reup same file
Register
(1) Heidentum17,
Sep 7 2021, 04:28:08 Insider - Land Of Crystals (1998)
320 + Scans
Register
(1) stumpheavyrock,
Sep 6 2021, 06:10:09 Decoryah - Fall Dark Waters (1996)
Reup 320 105MB
Register
(1) deathclaw,
Sep 6 2021, 03:46:29 Xenospawn - Eternal Bloodlust [ep] (2021)


*Artist: Xenospawn
*Album: Eternal Bloodlust [ep]
*Year: 2021
*Genre: Death Metal
*Country: United States
*Format: mp3@CBR320kbps
*Size: 30MB

Tracklist:
1.Eternal Bloodlust 04:11
2.Bagh Nakh 04:33
3.Machete Season 04:05
******************************
Total playing time: 12:49



[more=Technical info]
Input File: 01. Eternal Bloodlust.mp3
Channels : 2
Sample Rate : 44100
Precision : 16-bit
Duration : 00:04:11.00 = 11069100 samples = 18825 CDDA sectors
File Size : 10.2M
Bit Rate : 326k
Sample Encoding: MPEG audio (layer I, II or III)
Comments :
Title=Eternal Bloodlust
Artist=Xenospawn
Album=Eternal Bloodlust
Tracknumber=01
Year=2021
Genre=Metal

[/more]

Register
(10) 380661176558, caro, chipsgott, Marek, Olethros, Taakeferd, VALERY, vyacheslav, Wail, wreak,
Sep 5 2021, 04:06:35 Napalm Death - The Peel Sessions [compilation] (1989)
First press CD 50MB + Scans
Register
(1) Mucupurulence,
Sep 5 2021, 03:56:57 Graveworm - Underneath The Crescent Moon [ep] (1998)
320-55MB +Scans
Register
(3) Chasm, kimkayoung, thenecromancer,
Sep 1 2021, 05:36:49 Tanvarpmenkv - Goatizm (2012)
Flac - 266MB
Register
(1) SyncestrA,
Sep 1 2021, 05:32:19 اكوان - آتش زاده [demo] (2015)
QUOTE(Wail @ Sep 1 2021, 00:55:33) *
Please can you reup


Free download on
(1) Wail,
Aug 31 2021, 10:56:25 Suša - Velike Zvijeri (2021)
Preview
(1) rickzammuto,
Aug 31 2021, 09:15:46 Catachrest - Ruiner [demo] (2021)
FLAC
Register
(2) Olethros, wreak,
Aug 31 2021, 04:45:24 Catachrest - Ruiner [demo] (2021)


*Artist: Catachrest
*Album: Ruiner [demo]
*Year: 2021
*Genre: Death Metal/Crust
*Country: Sweden
*Format: mp3@CBR320kbps
*Size: 27MB

Tracklist:
1.Monuments 02:55
2.Firestorms! 02:50
3.Into the Vault 03:10
4.Killing Fields 02:44
******************************
Total playing time: 11:39



[more=Technical info]
Input File: 02 Firestorms!.mp3
Channels : 2
Sample Rate : 44100
Precision : 16-bit
Duration : 00:02:50.17 = 7504673 samples = 12763 CDDA sectors
File Size : 7.03M
Bit Rate : 330k
Sample Encoding: MPEG audio (layer I, II or III)
Comments :
Title=Firestorms!
Artist=Catachrest
Album=Ruiner
Tracknumber=02
Year=2021
Genre=Death Metal/Crust

[/more]

Register
(7) caro, hell_armageddon, Olethros, stumpheavyrock, Taakeferd, VALERY, wreak,
Aug 29 2021, 04:28:26 Saprogenous - Festering In Putrid Spoilage [ep] (2021)
Flac
Register
(2) Olethros, wreak,
Aug 26 2021, 04:26:25 Gorefest - The Eindhoven Insanity [live] (1993)
From the web
320-102MB
Register

(2) thenecromancer, Xtohar,
Aug 24 2021, 10:38:47 Death SS - Zombie/Terror [single] (1982)
Same properties
Register
(2) thenecromancer, Xtohar,
Aug 24 2021, 10:37:51 Death SS - Profanation [single] (1983)
same properties-no password
Register
(2) thenecromancer, Xtohar,
Aug 24 2021, 10:36:38 Death SS - The Night Of The Witch [single] (1982)
re up with no password
Register
(2) thenecromancer, Xtohar,

40 Pages V   1 2 3 > » 
- Lo-Fi Version Support form
Copyrights and abuse reports form
Time is now: 23rd September 2021 - 19:56:28