Welcome Guest ( Log In | Register )

История благодарностей участнику kefka ::: Спасибо сказали: 114346 раз(а)
Дата поста: В теме: За сообщение: Спасибо сказали:
Today, 11:23:05 Epileptica - Reign Of Enticement (2024)


*Artist: Epileptica
*Album: Reign Of Enticement
*Year: 2024
*Genre: Symphonic Power Metal
*Country: Finland
*Format: mp3@CBR320kbps
*Size: 150MB

Tracklist:
01.Enticement 01:47
02.Two Kingdoms War 04:38
03.Northern Shine 05:22
04.War Of Death 05:48
05.Nightfall 06:26
06.From The Rise Of Machines 04:14
07.Hollow Madness Of The Night 04:35
08.Scytheman 03:49
09.Pain Immortal 03:45
10.The Darkest Tower Of The Lost Cathedral 05:19
11.Always By Your Side 05:44
12.Deathcount 03:48
13.The Dream Of Eternal Dawn 02:48
14.Powerdragon 06:11
******************************
Total playing time: 1:04:14




[more=Technical info]
Input File: 9.Pain Immortal.mp3
Channels : 2
Sample Rate : 44100
Precision : 16-bit
Duration : 00:03:45.24 = 9933216 samples = 16893.2 CDDA sectors
File Size : 9.70M
Bit Rate : 345k
Sample Encoding: MPEG audio (layer I, II or III)
Comments :
Title=Pain Immortal
Artist=Epileptica
Album=Reign Of Enticement
Tracknumber=9/14
Year=2024
Discnumber=1/1

[/more]

Register
(3) infozahist, valera67, Weikai,
Today, 11:01:57 Scarlet Bullet - Viacruxis (2024)


*Artist: Scarlet Bullet
*Album: Viacruxis
*Year: 2024
*Genre: Heavy Metal
*Country: Colombia
*Format: mp3@CBR320kbps
*Size: 134MB

Tracklist:
01.Intro (Oración Inicial) 01:45
02.Condena 03:14
03.Patíbulo 02:47
04.Cae 03:33
05.Dolorosa Madre 03:09
06.Cirineo 03:22
07.Veronica 03:58
08.El Precio de mi alma 04:12
09.Hijas de Jesusalén 03:29
10.Por amor 03:44
11.Amense Así 05:26
12.Perdonalos, Padre 01:50
13.Mirad el Arbol 03:28
14.Al caer la tarde 06:30
15.A tu nombre 06:24
******************************
Total playing time: 56:51



[more=Technical info]
Input File: 7.Veronica.mp3
Channels : 2
Sample Rate : 44100
Precision : 16-bit
Duration : 00:03:58.38 = 10512690 samples = 17878.7 CDDA sectors
File Size : 9.83M
Bit Rate : 330k
Sample Encoding: MPEG audio (layer I, II or III)
Comments :
Title=Veronica
Artist=Scarlet Bullet
Album=Viacruxis
Tracknumber=7/15
Year=2024
Discnumber=1/1

[/more]

Register
(1) infozahist,
Today, 10:30:15 Noctu - Super Illius Specula (2024)


*Artist: Noctu
*Album: Super Illius Specula
*Year: 2024
*Genre: Blackened Funeral Doom Metal
*Country: Italy
*Format: mp3@CBR320kbps
*Size: 114MB

Tracklist:
1.Sotto i Colpi dell'Accusa 09:16
2.Verdetto Senza Pietà 08:53
3.Oscura Spirale di Paura 06:15
4.Lacrime di Agonia 07:34
5.La Profana Sacralità del Male 06:12
6.I Neri Cieli dell'Umano Errore 11:08
******************************
Total playing time: 49:18




[more=Technical info]
Input File: 4.Lacrime di Agonia.mp3
Channels : 2
Sample Rate : 44100
Precision : 16-bit
Duration : 00:07:35.00 = 20065632 samples = 34125.2 CDDA sectors
File Size : 18.5M
Bit Rate : 326k
Sample Encoding: MPEG audio (layer I, II or III)
Comments :
Title=Lacrime di Agonia
Artist=Noctu
Album=Super Illius Specula
Tracknumber=4/6
Year=2024
Discnumber=1/1

[/more]

Register
(4) infozahist, smysl, thenecromancer, valera67,
Today, 09:36:18 Absolon - The Blood Seed (2024)


*Artist: Absolon
*Album: The Blood Seed
*Year: 2024
*Genre: Heavy/Power Metal
*Country: United States
*Format: mp3@CBR320kbps
*Size: 88MB

Tracklist:
1.Destroyer 05:09
2.Darkness Calls 04:27
3.My Shadow 04:27
4.Anger Unconfined 04:13
5.The Blood Seed 05:30
6.The Time Has Come 04:18
7.Gates of Hell 04:13
8.War of Angels 05:21
******************************
Total playing time: 37:38



[more=Technical info]
Input File: 6.The Time Has Come.mp3
Channels : 2
Sample Rate : 44100
Precision : 16-bit
Duration : 00:04:18.24 = 11388252 samples = 19367.8 CDDA sectors
File Size : 10.6M
Bit Rate : 328k
Sample Encoding: MPEG audio (layer I, II or III)
Comments :
Title=The Time Has Come
Artist=Absolon
Album=The Blood Seed
Tracknumber=6/8
Year=2024
Discnumber=1/1

[/more]

Register
(2) gwar, infozahist,
Today, 09:25:40 Hands Of Goro - Hands Of Goro (2024)


*Artist: Hands Of Goro
*Album: Hands Of Goro
*Year: 2024
*Genre: Heavy Metal
*Country: United States
*Format: mp3@CBR320kbps
*Size: 85MB

Tracklist:
1.Prince of Shokan 03:13
2.Demonizer 03:51
3.Uncanny 05:37
4.21st Century Plague 05:09
5.You Have No Face 03:00
6.Waste of Blood 04:04
7.End to End 04:30
8.Archduke of Fear 06:30
******************************
Total playing time: 35:54



[more=Technical info]
Input File: 2.Demonizer.mp3
Channels : 2
Sample Rate : 44100
Precision : 16-bit
Duration : 00:03:51.33 = 10201653 samples = 17349.8 CDDA sectors
File Size : 9.60M
Bit Rate : 332k
Sample Encoding: MPEG audio (layer I, II or III)
Comments :
Title=Demonizer
Artist=Hands of Goro
Album=Hands of Goro
Tracknumber=2/8
Year=2024
Discnumber=1/1

[/more]

Register
(2) gwar, infozahist,
Today, 08:54:04 Dirus - Caste Beneath The Firmament (2024)


*Artist: Dirus
*Album: Caste Beneath The Firmament
*Year: 2024
*Genre: Psychedelic Black Metal
*Country: United States
*Format: mp3@CBR320kbps
*Size: 83MB

Tracklist:
01.Ultima Ratio 04:09
02.Cast Beneath the Firmament 03:31
03.Mazzaroth 03:11
04.Dispatcher 03:45
05.A Faithless Sedition 04:16
06.Bone Breccia 05:44
07.Pinions in the Lake 04:48
08.Heir Essorant 04:49
******************************
Total playing time: 34:13



[more=Technical info]
Input File: 2.Cast Beneath the Firmament.mp3
Channels : 2
Sample Rate : 44100
Precision : 16-bit
Duration : 00:03:31.35 = 9320315 samples = 15850.9 CDDA sectors
File Size : 9.13M
Bit Rate : 345k
Sample Encoding: MPEG audio (layer I, II or III)
Comments :
Title=Cast Beneath the Firmament
Artist=Dirus
Album=Caste Beneath the Firmament
Tracknumber=2/8
Year=2024
Discnumber=1/1

[/more]

Register
(3) Mencae77, stormhatt, Weikai,
Today, 08:39:59 Celestial Sword - Nocturnal Divinity (2024)


*Artist: Celestial Sword
*Album: Nocturnal Divinity
*Year: 2024
*Genre: Raw Black Metal/Dungeon Synth
*Country: United States
*Format: mp3@CBR320kbps
*Size: 103MB

Tracklist:
01.Lugubrious Entrance of the Vampyric Entity (by Nightshade) 01:30
02.Blood Moon Elegy 06:03
03.Waves of Deafening Soliloquy (feat. Drugoth) 04:50
04.Interlude (Whispers Amongst the Thorns of Desolation) 02:27
05.Scarlet Moon Enchantment I & II (feat. Zofie Siege) 07:29
06.Crimson Embrace of the Nightborne Serpent 04:17
07.Interlude (To Relinquish The Divine Light (by Ancient Iron) 02:00
08.Amidst the Cold Winds of Despair and Solitude 05:02
09.Le Sang De La Nuit (by Zofie Siege) 02:20
10.Last Dance of the Night God 05:03
11.Tattered Banners of The Dark Order (by Ancient Iron) 01:24
******************************
Total playing time: 42:25



[more=Technical info]
Input File: 10.Last Dance of the Night God.mp3
Channels : 2
Sample Rate : 44100
Precision : 16-bit
Duration : 00:05:03.33 = 13376721 samples = 22749.5 CDDA sectors
File Size : 12.6M
Bit Rate : 333k
Sample Encoding: MPEG audio (layer I, II or III)
Comments :
Title=Last Dance of the Night God
Artist=Celestial Sword
Album=Nocturnal Divinity
Tracknumber=10/11
Year=2024
Discnumber=1/1

[/more]

Register
(4) Carcharoth, judaz, stormhatt, Weikai,
Today, 08:04:11 Unholyscent - Endless Torment [ep] (2024)


*Artist: Unholyscent
*Album: Endless Torment [ep]
*Year: 2024
*Genre: Black/Death Metal
*Country: Italy
*Format: mp3@CBR320kbps
*Size: 36MB

Tracklist:
01.Carnage Unleashed 03:47
02.Sacrilege's Embrace 02:16
03.Eternal Darkness 04:08
04.Malevolent Rapture 02:15
05.Tortured Existence 02:47
******************************
Total playing time: 15:13



[more=Technical info]
Input File: 3.Eternal Darkness.mp3
Channels : 2
Sample Rate : 44100
Precision : 16-bit
Duration : 00:04:08.02 = 10937814 samples = 18601.7 CDDA sectors
File Size : 10.2M
Bit Rate : 330k
Sample Encoding: MPEG audio (layer I, II or III)
Comments :
Title=Eternal Darkness
Artist=Unholyscent
Album=Endless Torment
Tracknumber=3/5
Year=2024
Discnumber=1/1

[/more]

Register
(1) infozahist,
Today, 07:14:37 Skull Servant - Summon Sorceress [ep] (2024)


*Artist: Skull Servant
*Album: Summon Sorceress [ep]
*Year: 2024
*Genre: Psychedelic Heavy/Doom Metal
*Country: United States
*Format: mp3@CBR320kbps
*Size: 35MB

Tracklist:
1.Satan's Broomstick 05:10
2.Poison the Unwell 03:30
3.Pray for Blood 06:08
******************************
Total playing time: 14:48



[more=Technical info]
Input File: 3.Pray for Blood.mp3
Channels : 2
Sample Rate : 44100
Precision : 16-bit
Duration : 00:06:08.35 = 16244235 samples = 27626.3 CDDA sectors
File Size : 15.0M
Bit Rate : 327k
Sample Encoding: MPEG audio (layer I, II or III)
Comments :
Title=Pray for Blood
Artist=Skull Servant
Album=Summon Sorceress
Tracknumber=3/3
Year=2024
Discnumber=1/1

[/more]

Register
(1) infozahist,
Today, 06:25:35 Sacrilege - The Closing Irony [compilation] (2024)


*Artist: Sacrilege
*Album: The Closing Irony [compilation]
*Year: 2024
*Genre: Thrash Metal/Crust Punk
*Country: United Kingdom
*Format: mp3@CBR320kbps
*Size: 91MB

Tracklist:
1.Dig Your Own Grave 02:03
2.A Violation of Something Sacred 02:50
3.At Death's Door 05:01
4.The Closing Irony 04:13
5.The Captive 04:19
6.Flight of the Nazgul 06:22
7.Key to Nirvana 07:27
8.Equinox 06:45
******************************
Total playing time: 39:00



[more=Extended info]This release features tracks from the early demos and the studio albums[/more]

[more=Technical info]
Input File: 5.The Captive.mp3
Channels : 2
Sample Rate : 44100
Precision : 16-bit
Duration : 00:04:19.07 = 11425119 samples = 19430.5 CDDA sectors
File Size : 10.8M
Bit Rate : 332k
Sample Encoding: MPEG audio (layer I, II or III)
Comments :
Title=The Captive
Artist=Sacrilege
Album=The Closing Irony
Tracknumber=5/8
Year=2024
Discnumber=1/1

[/more]

Register
(3) amiroo, gwar, infozahist,
Today, 05:56:33 Alfa Eridano Akhernar - Into The Path Of The Gods (2024)


*Artist: Alfa Eridano Akhernar
*Album: Into The Path Of The Gods
*Year: 2024
*Genre: Death/Black Metal
*Country: Mexico
*Format: mp3@CBR320kbps
*Size: 99MB

Tracklist:
1.Tzizimimeh 02:05
2.Second Heaven's Monsters 03:13
3.Into the Path of the Gods 06:22
4.Mouth of War 03:59
5.The Blood That Feeds 03:27
6.Seething Madness! 03:40
7.Thorned Terror 04:30
8.I, Underworld Warrior 03:33
9.Águila de sangre 03:33
10.Sursum Corda 04:39
11.Satan (War cover) 01:34
******************************
Total playing time: 40:35



[more=Technical info]
Input File: 2.Second Heaven\'s Monsters.mp3
Channels : 2
Sample Rate : 44100
Precision : 16-bit
Duration : 00:03:13.29 = 8524221 samples = 14497 CDDA sectors
File Size : 7.85M
Bit Rate : 325k
Sample Encoding: MPEG audio (layer I, II or III)
Comments :
Title=Second Heaven's Monsters
Artist=Alfa Eridano Akhernar
Album=Into the Path of the Gods
Tracknumber=02/11
Year=2024
Genre=Black/Death Metal
Discnumber=1/1

[/more]

Register
(1) infozahist,
Today, 05:42:15 Гран-Куражъ - Легенды Мира Из Огня (2024)


*Artist: Гран-Куражъ
*Album: Легенды Мира Из Огня
*Year: 2024
*Genre: Heavy/Power Metal
*Country: Russian Federation
*Format: mp3@CBR320kbps
*Size: 161MB

Tracklist:
1.Предвестие Мира из огня 01:23
2.Где правит пламя 04:41
3.Багровые реки 04:17
4.Станем вместе 05:50
5.Лети 04:25
6.Все твои печали 04:37
7.Чёрный лебедь 05:17
8.Замок забвенья 04:56
9.Время 05:03
10.Моргана 05:13
11.В петле судьбы 03:57
12.Последняя глава 10:21
13.Камелот 04:05
14.Не отпускай меня 04:57
******************************
Total playing time: 1:09:02


Preview 2

[more=Technical info]
Input File: 11.В петле судьбы.mp3
Channels : 2
Sample Rate : 44100
Precision : 16-bit
Duration : 00:03:57.03 = 10452803 samples = 17776.9 CDDA sectors
File Size : 9.78M
Bit Rate : 330k
Sample Encoding: MPEG audio (layer I, II or III)
Comments :
Title=В петле судьбы
Artist=Гран-КуражЪ / Влад Паутов
Album=Легенды Мира из огня
Tracknumber=11
Year=2024

[/more]

Register
(4) cesar, Druidir, gwar, Rhoads,
Today, 05:02:28 Amyr Abadawn - Apocalyptic Triumph (2024)


*Artist: Amyr Abadawn
*Album: Apocalyptic Triumph
*Year: 2024
*Genre: Symphonic/Progressive Metal
*Country: Singapore
*Format: mp3@CBR320kbps
*Size: 86MB

Tracklist:
1.Into The Unknown 04:18
2.Eternal Resonance 04:00
3.The Hunter 03:13
4.The Mirage of Destruction 03:36
5.Sands of Time 03:52
6.Echoes of Nakba (feat. Vlada Bojic Bojketic) 03:41
7.Prisoner Of Your Own Mind 03:27
8.Apocalyptic Triumph 03:37
9.Throne of Deception 03:14
10.Infinite Horizons (feat. Diamond Wav x Shaman Beatz) 03:51
******************************
Total playing time: 36:49



[more=Technical info]
Input File: 4.The Mirage of Destruction.mp3
Channels : 2
Sample Rate : 44100
Precision : 16-bit
Duration : 00:03:36.36 = 9541520 samples = 16227.1 CDDA sectors
File Size : 8.89M
Bit Rate : 329k
Sample Encoding: MPEG audio (layer I, II or III)
Comments :
Title=The Mirage of Destruction
Artist=Amyr Abadawn
Album=Apocalyptic Triumph
Tracknumber=4/10
Year=2024
Discnumber=1/1

[/more]

Register
(6) artscald, gwar, infozahist, Lugia010719d1, metala, Weikai,
Yesterday, 12:58:14 Terror Machine - A Mountain Of Death [ep] (2024)


*Artist: Terror Machine
*Album: A Mountain Of Death [ep]
*Year: 2024
*Genre: Black/Death Metal
*Country: Norway
*Format: mp3@CBR320kbps
*Size: 26MB

Tracklist:
1.A Mountain of Death 02:57
2.Shed the Blood 03:51
3.Touch of Death 04:37
******************************
Total playing time: 11:25



[more=Technical info]
Input File: 1.A Mountain of Death.mp3
Channels : 2
Sample Rate : 44100
Precision : 16-bit
Duration : 00:02:57.25 = 7816857 samples = 13294 CDDA sectors
File Size : 7.19M
Bit Rate : 325k
Sample Encoding: MPEG audio (layer I, II or III)
Comments :
Title=A Mountain of Death
Artist=Terror Machine
Album=A Mountain of Death
Tracknumber=1/3
Year=2024
Genre=Black/Death
Discnumber=1/1

[/more]

Register
(6) infozahist, Marek, sacrut, smysl, stumpheavyrock, suicidalrampage,
Yesterday, 12:43:43 Soma Plume - In The Black Water (2023)


*Artist: Soma Plume
*Album: In The Black Water
*Year: 2023
*Genre: Sludge/Doom/Post-Metal
*Country: Australia
*Format: mp3@CBR320kbps
*Size: 96MB

Tracklist:
1.The Waters 01:28
2.Trauma 06:55
3.Bait the Vultures 04:51
4.The Bottom of the Well 04:24
5.Dissent 03:52
6.Ophelia 06:52
7.Death Process 08:30
8.Castle of Glass 04:51
******************************
Total playing time: 41:43



[more=Technical info]
Input File: 4.The Bottom of the Well.mp3
Channels : 2
Sample Rate : 44100
Precision : 16-bit
Duration : 00:04:24.27 = 11654395 samples = 19820.4 CDDA sectors
File Size : 10.9M
Bit Rate : 329k
Sample Encoding: MPEG audio (layer I, II or III)
Comments :
Title=The Bottom of the Well
Artist=Soma Plume
Album=In The Black Water
Tracknumber=4/8
Year=2023
Discnumber=1/1

[/more]

Register
(6) HMHamster, infozahist, stumpheavyrock, yuratroll, ZamanFu, дивин,
Yesterday, 07:05:59 Deadlife - A Cold And Lonely Death [ep] (2024)


*Artist: Deadlife
*Album: A Cold And Lonely Death [ep]
*Year: 2024
*Genre: Depressive Black Metal
*Country: Sweden
*Format: mp3@CBR320kbps
*Size: 49MB

Tracklist:
1.Will You Share This Pain With Me 07:11
2.A Cold And Lonely Death 05:42
3.The Tide is Rising 08:24
******************************
Total playing time: 21:17



[more=Technical info]
Input File: 2.A Cold And Lonely Death.mp3
Channels : 2
Sample Rate : 44100
Precision : 16-bit
Duration : 00:05:43.06 = 15129034 samples = 25729.6 CDDA sectors
File Size : 13.9M
Bit Rate : 325k
Sample Encoding: MPEG audio (layer I, II or III)
Comments :
Title=A Cold And Lonely Death
Artist=DEADLIFE
Album=A Cold And Lonely Death
Tracknumber=2/3
Year=2024
Discnumber=1/1

[/more]

Register
(5) Carcharoth, kim666, smysl, vasiljev_sergej, Velemysl,
Yesterday, 06:14:40 Slow Goat - Common Enemy [ep] (2024)


*Artist: Slow Goat
*Album: Common Enemy [ep]
*Year: 2024
*Genre: Stoner/Doom Metal
*Country: United States
*Format: mp3@CBR320kbps
*Size: 65MB

Tracklist:
01. Faithful of the Grind 06:51
02. Cruel Communion 05:59
03. Heat of the Blaze (Serpentine Cosmic Nightmare) 04:13
04. Common Enemy 08:45
05. Regicide 01:51
******************************
Total playing time: 27:39




[more=Extended info]Female vox[/more]

[more=Technical info]
Input File: 2.Cruel Communion.mp3
Channels : 2
Sample Rate : 44100
Precision : 16-bit
Duration : 00:05:59.34 = 15846762 samples = 26950.3 CDDA sectors
File Size : 14.7M
Bit Rate : 326k
Sample Encoding: MPEG audio (layer I, II or III)
Comments :
Title=Cruel Communion
Artist=Slow Goat
Album=Common Enemy - EP
Tracknumber=2/5
Year=2024
Discnumber=1/1

[/more]

Register
(5) Grev, HMHamster, LiarOfAngmar, marilin, stumpheavyrock,
Yesterday, 05:55:01 The Lumbar Endeavor - Mahātattva [ep] (2024)


*Artist: The Lumbar Endeavor
*Album: Mahātattva [ep]
*Year: 2024
*Genre: Doom/Sludge Metal
*Country: United States
*Format: mp3@CBR320kbps
*Size: 64MB

Tracklist:
01.Bhūmi (Earth) 05:36
02.Agní (Fire) 05:55
03.Vāyu (Air) 06:06
04.Āpas (Water) 03:49
05.Ākāśa (Aether) 05:13
******************************
Total playing time: 26:39





[more=Technical info]
Input File: 1.Bhūmi (Earth).mp3
Channels : 2
Sample Rate : 44100
Precision : 16-bit
Duration : 00:05:36.90 = 14857114 samples = 25267.2 CDDA sectors
File Size : 14.0M
Bit Rate : 332k
Sample Encoding: MPEG audio (layer I, II or III)
Comments :
Title=Bhūmi (Earth)
Artist=The Lumbar Endeavor
Album=Mahātattva
Tracknumber=1/5
Year=2024
Discnumber=1/1

[/more]

Register
(5) Grev, HMHamster, LiarOfAngmar, marilin, stumpheavyrock,
Yesterday, 05:37:38 Aegir - Brennu​-​Nj​á​l (2024)


*Artist: Aegir
*Album: Brennu​-​Nj​á​l
*Year: 2024
*Genre: Folk/Death/Black Metal
*Country: Sweden
*Format: mp3@CBR320kbps
*Size: 100MB

Tracklist:
1.Ättemäns tidender 06:48
2.Rökomringlad 06:11
3.Eftermäle 03:24
4.Ljusvatningar 05:09
5.Broder, vapenfallen 01:28
6.Aska 06:38
7.Blott järnet biter 05:37
8.Trenne tider 05:24
9.Förgäten 01:59
******************************
Total playing time: 42:38



[more=Technical info]
Input File: 1.Ättemäns tidender.mp3
Channels : 2
Sample Rate : 44100
Precision : 16-bit
Duration : 00:06:48.08 = 17996504 samples = 30606.3 CDDA sectors
File Size : 18.3M
Bit Rate : 359k
Sample Encoding: MPEG audio (layer I, II or III)
Comments :
Title=Ättemäns tidender
Artist=Aegír
Album=Brennu-Njál
Tracknumber=1/9
Year=2024
Discnumber=1/1

[/more]

Register
(12) AlexSmith, Altkiller, Buregon, Carcharoth, dermarsoran, Grev, Ildjarn, kimkayoung, LiarOfAngmar, smysl, zhol, Сварог Барг,
Yesterday, 05:07:38 Stone Cold Black - Superloud (2024)


*Artist: Stone Cold Black
*Album: Superloud
*Year: 2024
*Genre: Thrash Metal
*Country: Germany
*Format: mp3@CBR320kbps
*Size: 105MB

Tracklist:
01.Song for a Bitch (Vocals Vorbidden) 01:28
02.Born Evil 03:45
03.Beyond Reason 03:51
04.Dead Boys 04:53
05.Metal Ear Infection 04:26
06.On the Run 03:03
07.Sandman 03:45
08.Superlaut 04:19
09.Wait for Me at the Gates of Hell 03:21
10.Scourge 04:12
11.Change the Flag 05:39
******************************
Total playing time: 42:42



[more=Technical info]
Input File: 6.On the Run.mp3
Channels : 2
Sample Rate : 44100
Precision : 16-bit
Duration : 00:03:03.99 = 8114091 samples = 13799.5 CDDA sectors
File Size : 8.03M
Bit Rate : 349k
Sample Encoding: MPEG audio (layer I, II or III)
Comments :
Title=On the Run
Artist=Stone Cold Black
Album=Superloud
Tracknumber=6/11
Year=2024
Discnumber=1/1

[/more]

Register
(17) 747metaller, andreikun, artscald, boby9052, CORPSEMIKA, gwar, hellraiser69, HMHamster, infozahist, Marek, metala, postal67, sergsazan, stumpheavyrock, suicidalrampage, syntexid, XxNachtmahRxX,
Yesterday, 04:53:58 Triton Project - Messenger's Quest (2024)


*Artist: Triton Project
*Album: Messenger's Quest
*Year: 2024
*Genre: Progressive Metal
*Country: Thailand
*Format: mp3@CBR320kbps
*Size: 179MB

Tracklist:
1.Messenger's Quest 09:19
2.The Key 05:55
3.Everdream 13:30
4.Beyond The Mazes 20:29
5.Lighthouse of The World 28:12
******************************
Total playing time: 1:17:25



[more=Technical info]
Input File: 2.The Key.mp3
Channels : 2
Sample Rate : 44100
Precision : 16-bit
Duration : 00:05:55.65 = 15684297 samples = 26674 CDDA sectors
File Size : 14.5M
Bit Rate : 327k
Sample Encoding: MPEG audio (layer I, II or III)
Comments :
Title=The Key
Artist=Triton Project
Album=Messenger's Quest
Tracknumber=2/5
Year=2024
Discnumber=1/1

[/more]

Register
(6) 747metaller, artscald, infozahist, LiarOfAngmar, rainbow83, stumpheavyrock,
Feb 28 2024, 09:07:32 Wipper - Meddle With Metal (2023)


*Artist: Wipper
*Album: Meddle With Metal
*Year: 2023
*Genre: Heavy Metal
*Country: United States
*Format: mp3@CBR320kbps
*Size: 101MB

Tracklist:
01.Strange Case 03:04
02.Double Dragon 04:42
03.Demon Mermaid 03:52
04.Nazgul 02:47
05.Sea Hunter 06:08
06.Headless Horseman 03:30
07.The Shadows Revive 05:37
08.Why Not Lars 05:55
09.The Barbarian 04:31
10.Dark Wizard Dance Mix 01:58
******************************
Total playing time: 42:04



[more=Technical info]
Input File: 1.Strange Case.mp3
Channels : 2
Sample Rate : 44100
Precision : 16-bit
Duration : 00:03:04.73 = 8146373 samples = 13854.4 CDDA sectors
File Size : 7.90M
Bit Rate : 342k
Sample Encoding: MPEG audio (layer I, II or III)
Comments :
Title=Strange Case
Artist=Wipper
Album=Meddle With Metal
Tracknumber=1/10
Year=2023
Discnumber=1/1

[/more]

Register
(12) andreikun, artscald, Bloodline Christian, gwar, infozahist, Marek, metala, postal67, Rover, sergsazan, stumpheavyrock, vir2al,
Feb 28 2024, 08:54:39 Mediera - Storytellers Of The Middle Age (2024)


*Artist: Mediera
*Album: Storytellers Of The Middle Age
*Year: 2024
*Genre: Epic/Symphonic Power Metal
*Country: Italy
*Format: mp3@CBR320kbps
*Size: 111MB

Tracklist:
01.Forsaken Land 01:53
02.The Storytellers 05:09
03.In Quest For 03:45
04.Enchanted Forest 04:29
05.The Lost Sword (feat. Tomi Fooler) 07:35
06.May The Dragon Fall In Eternal Sleep 04:15
07.The Magic Kingdom 05:49
08.Lady Of The Lake 04:18
09.King Of Albion 04:13
10.Mediera 05:13
******************************
Total playing time: 46:39




[more=Technical info]
Input File: 3.In Quest For.mp3
Channels : 2
Sample Rate : 44100
Precision : 16-bit
Duration : 00:03:45.09 = 9926293 samples = 16881.5 CDDA sectors
File Size : 9.49M
Bit Rate : 337k
Sample Encoding: MPEG audio (layer I, II or III)
Comments :
Title=In Quest For
Artist=Mediera
Album=Storytellers Of The Middle Age
Tracknumber=3/10
Year=2024
Discnumber=1/1

[/more]

Register
(14) 747metaller, Alpha_Prime, artscald, boby9052, gwar, Herrant, infozahist, LiarOfAngmar, metala, postal67, Rover, sergsazan, zhol, Сварог Барг,
Feb 28 2024, 07:32:42 Vastness - Entire Mortal Race (2023)


*Artist: Vastness
*Album: Entire Mortal Race
*Year: 2023
*Genre: Death/Thrash Metal
*Country: Poland
*Format: mp3@CBR320kbps
*Size: 53MB

Tracklist:
1.Purgatory 03:36
2.Worship Demons 04:32
3.Desolation 02:14
4.Poisoned Tongues 03:15
5.Between the Lines 04:15
6.Servants to the None 03:02
7.Tej Ziemi (This Land) 01:12
******************************
Total playing time: 22:06




[more=Technical info]
Input File: 1.Purgatory.mp3
Channels : 2
Sample Rate : 44100
Precision : 16-bit
Duration : 00:03:36.57 = 9550737 samples = 16242.8 CDDA sectors
File Size : 9.14M
Bit Rate : 338k
Sample Encoding: MPEG audio (layer I, II or III)
Comments :
Title=Purgatory
Artist=Vastness
Album=Entire Mortal Race
Tracknumber=1/7
Year=2024
Discnumber=1/1

[/more]

Register
(14) alikkon, amiroo, artscald, boby9052, cast_iron, infozahist, jollo, Marek, metala, sergsazan, stumpheavyrock, suicidalrampage, umnaxtet, vyacheslav,
Feb 28 2024, 05:34:01 Xánatos - Condenado (2023)


*Artist: Xánatos
*Album: Condenado
*Year: 2023
*Genre: Heavy/Power Metal
*Country: Uruguay
*Format: mp3@CBR320kbps
*Size: 140MB

Tracklist:
1.El Oásis 04:37
2.La Resurrección del Metal 03:00
3.Mujer de Negro 04:01
4.La Danza de la Cobra 03:58
5.La Noche Sin Memoria 04:52
6.Lobo 05:34
7.La Llorona 02:39
8.El Llamado de los Condenados 21:52
9.Suite Animada 09:50
******************************
Total playing time: 1:00:23



[more=Technical info]
Input File: 2.La Resurrección del Metal.mp3
Channels : 2
Sample Rate : 44100
Precision : 16-bit
Duration : 00:03:00.89 = 7977029 samples = 13566.4 CDDA sectors
File Size : 7.43M
Bit Rate : 329k
Sample Encoding: MPEG audio (layer I, II or III)
Comments :
Title=La Resurrección del Metal
Artist=Xánatos
Album=Condenado
Tracknumber=2/9
Year=2023
Discnumber=1/1

[/more]

Register
(8) artscald, Bloodline Christian, boby9052, gwar, metalwoman, Rover, stumpheavyrock, Сварог Барг,

308 Pages V   1 2 3 > » 
- Lo-Fi Version Support form
Copyrights and abuse reports form
Time is now: 1st March 2024 - 13:15:09