Welcome Guest ( Log In | Register )

История благодарностей участнику Requiescat ::: Спасибо сказали: 796 раз(а)
Дата поста: В теме: За сообщение: Спасибо сказали:
Feb 23 2020, 17:12:01 Unmerciful - Unmercifully Beaten (2006)
320
Register
(3) babanguida, Corpuscul, infiltrator,
Nov 27 2019, 16:10:19 Morbius - Trismegistus [best of/compilation] (2013)
320
Register
(3) AHBAnep, stumpheavyrock, varlam4,
Oct 28 2019, 19:35:04 Obliteration & Evisceration & Disencumbrance & Oblation & Flesh Walker - Chords Of The Grave [split] (1997)
ЦИТАТА(troll_swamp @ 29th October 2019 - 00:45:58) *
пишет архив повреждён

Скачал, архив цел.
ЦИТАТА(troll_swamp @ 29th October 2019 - 01:22:41) *
перелейте пожалуйста на что ни будь другое

320
Register
(2) troll_swamp, varlam4,
Oct 24 2019, 17:16:29 Ketha - Magnaminus [ep] (2018)
320
Register
(4) AHBAnep, mirotvorets, Ogidni, yuratroll,
Oct 5 2019, 09:26:44 Wicked Innocence - Opium Empire (2001)
Редкий альбом, немного похожий на сабж
Register

Lifebleed - A Wardrobe Full Of Bodies (1998) 160kbps
Death metal/Hardcore from New York
(1) SyncestrA,
Oct 5 2019, 07:49:06 Wicked Innocence - Opium Empire (2001)
CD-Rip 320

Register
(3) Corpuscul, SyncestrA, THROWER666,
Jul 21 2019, 22:18:01 !T.O.O.H.!
ЦИТАТА(Tular @ 28th May 2019 - 19:59:28) *
разыскивается

320
Register
(4) Evilded, kimkayoung, Tular, Язва,
Jul 15 2019, 11:36:04 Beastmaker - Coven Born [ep] (2018)
ЦИТАТА(vosmidesijatye @ 15th July 2019 - 16:55:21) *
А вот енто бы зацепить было бы здоровски

320
Register
(3) autumnwood, infiltrator, vosmidesijatye,
Jun 30 2019, 00:53:43 The Creator Of - Dust To Dust (2007)
V2
Register
(1) Lanceatum,
Jun 3 2019, 16:00:51 Discordance Axis - Ulterior (1995)
320
Register
(3) Evilded, stumpheavyrock, Герб,
Jun 2 2019, 10:19:22 Section 8 - Nine Ways To Say I Love You (1997)
320
Register
(1) themethmetaller,
Jun 2 2019, 10:18:49 Section 8 - Pain Is Truth (1995)
320
Register
(1) themethmetaller,
May 29 2019, 10:27:15 Scumfuck - The Dead Is Coming (2002)
128
Register
(2) Lanceatum, satanist666,
May 1 2019, 18:13:18 Black River - Humanoid (2019)


*Artist: Black River
*Album: Humanoid
*Year: 2019
*Genre: Stoner/Groove Heavy Metal
*Country: Poland
*Format: mp3@CBR320kbps
*Size: 92MB

Tracklist:
01. Flying High (3:34)
02. Revolution (3:08)
03. Humanoid (3:23)
04. H.T. Angel (3:21)
05. Q (4:37)
06. The Rebel (3:58)
07. Abyss (2:25)
08. World In Black (4:07)
09. Monster (3:50)
10. "7" (3:18)
11. R'n'R Hell (3:45)
******************************
Total playing time: 39:26

[more=Extended info][youtube]yGng5JHxavI[/youtube][/more]

[more=Technical info]
Input File: 01. Flying High.mp3
Channels : 2
Sample Rate : 44100
Precision : 16-bit
Duration : 00:03:34.45 = 9457421 samples = 16084 CDDA sectors
File Size : 8.77M
Bit Rate : 327k
Sample Encoding: MPEG audio (layer I, II or III)
Comments :
Title=Flying High
Artist=Black River
Album=Humanoid
Tracknumber=1/11
Year=2019
Genre=Heavy Metal/Stoner Rock
Discnumber=1/1

[/more]

Register
(12) avkruchinin, Emhyr var Emreis, hammer, lortz, Mplast, Paradayz, pooka, Rosen, SAPOGi, SatanicPanzer, Tino, zyklon,
Apr 28 2019, 08:37:04 Demiurg - Signed By Evil (2010)
320
Register
(1) Evilded,
Apr 28 2019, 08:15:33 Demiurg - Webs Of Life (2015)


*Artist: Demiurg
*Album: Webs Of Life
*Year: 2015
*Genre: Progressive Death Metal
*Country: Czech Republic
*Format: mp3@CBR320kbps
*Size: 106MB

Tracklist:
01. Divide et Impera (4:02)
02. Human Isolation (4:23)
03. Fatal Moment (4:04)
04. Under Pressure (4:13)
05. Message (4:05)
06. Messiah (4:36)
07. Door to Truth (4:28)
08. Salvation (3:45)
09. Slaves of the Future (3:44)
10. Soporific (4:28)
11. Emotional Vampire (4:17)
******************************
Total playing time: 46:05

Preview 1

[more=Technical info]
Input File: 01.Divide et Impera.mp3
Channels : 2
Sample Rate : 44100
Precision : 16-bit
Duration : 00:04:01.54 = 10652090 samples = 18115.8 CDDA sectors
File Size : 9.66M
Bit Rate : 320k
Sample Encoding: MPEG audio (layer I, II or III)
Comments :
Title=Divide et Impera
Artist=Demiurg
Album=Webs of life
Tracknumber=01
Year=2015
Genre=Neznr

[/more]

Register
(5) andreikun, Corpuscul, Evilded, Olethros, Rosen,
Apr 28 2019, 08:13:02 Demiurg - Attack From The Other Side (2005)


*Artist: Demiurg
*Album: Attack From The Other Side
*Year: 2005
*Genre: Progressive Death Metal
*Country: Czech Republic
*Format: mp3@CBR320kbps
*Size: 98MB

Tracklist:
01. The Murderer 04:29
02. Death 04:54
03. Beast 04:25
04. Remorse 06:27
05. Pain 05:59
06. The way 02:27
07. Psychological labyrinth 07:01
08. Attack from the order side 06:58
******************************
Total playing time: 42:40

Preview 1

[more=Technical info]
Input File: 06 The way.mp3
Channels : 2
Sample Rate : 44100
Precision : 16-bit
Duration : 00:02:26.92 = 6479304 samples = 11019.2 CDDA sectors
File Size : 5.88M
Bit Rate : 320k
Sample Encoding: MPEG audio (layer I, II or III)
Comments :
Title=The way
Artist=Demiurg
Album=Attack from the other side
Tracknumber=6
Year=2005
Genre=Heavy Metal

[/more]

Register
(7) AHBAnep, andreikun, Corpuscul, Evilded, Olethros, Rosen, Svafrlami,
Feb 17 2019, 18:06:05 Cocobat - Posi-Traction (1995) (7) analbleeding, cancer1974, METALHUNTER, pichileon, Proteus_666, Tino, varlam4,
Sep 27 2018, 07:17:17 Rottrevore - Iniquitous (1993) (1) Leshiy666,
Jan 22 2018, 21:21:03 Corporate Deathburger - We're Just In Hell For Fun (1992)
Register
(8) Alfredoelruso, avkruchinin, cesar, Corpuscul, METALHUNTER, slack, warrr, wgs73,
Jan 1 2018, 17:02:59 Главная страница
Шрифт сделан будто для 27 дюймовых 4к мониторов. Что за гонорея блт.
(2) infiltrator, MeatWolf,
Dec 17 2017, 22:27:02 Morbosidad - Corona de Epidemia (2017)
V0

Register
(3) babanguida, Chasm, xiuhcoatl075,
Nov 18 2017, 09:09:24 Spaceboy - The Force That Hold Together A Heart Torn To Pieces [ep] (2000)
320
Register
(3) Borderline1991, Buregon, varlam4,
Oct 17 2017, 23:50:11 Logic Of Denial - Aftermath (2017)
Scene-Rip V0
Register
(3) cesar, METALHUNTER, mittal,
Oct 6 2017, 19:24:09 Gigan - Undulating Waves Of Rainbiotic Iridescence (2017)
Правильный рип 320
Register
(10) acerbus, Aresson, babanguida, Dirt_ORFEY, RichardAmadeyGere, sarcophagus, serb1976, Tino, yuratroll, Язва,

7 Pages V   1 2 3 > » 
- Lo-Fi Version Support form
Copyrights and abuse reports form
Time is now: 28th February 2020 - 03:43:24