Welcome Guest ( Log In | Register )

История благодарностей участнику Daale ::: Спасибо сказали: 10950 раз(а)
Дата поста: В теме: За сообщение: Спасибо сказали:
Mar 19 2020, 19:07:25 Grift - Budet (2020)
Очень крутой альбом
(1) judaz,
Mar 1 2020, 11:00:44 Новости Black-направления
Лейбл Knife Vision, судя по Instagram, закрывается.
(2) infiltrator, Occultas,
Feb 27 2020, 15:57:32 Assassination - Preparing Lucifers Arrival (2020)


*Artist: Assassination
*Album: Preparing Lucifers Arrival
*Year: 2020
*Genre: Psychedelic Rock
*Country: Germany
*Format: mp3@CBR320kbps
*Size: 44MB

Tracklist:
01. The Bloodline 04:50
02. The Wish 05:02
03. The Darkness 05:56
04. S.A.T.A.N. 01:44
******************************
Total playing time: 17:32



[more=Extended info]Personal purchase[/more]

[more=Technical info]
Input File: Assassination - Preparing Lucifers Arrival - 02 The Wish.mp3
Channels : 2
Sample Rate : 44100
Precision : 16-bit
Duration : 00:05:02.96 = 13360448 samples = 22721.9 CDDA sectors
File Size : 12.3M
Bit Rate : 326k
Sample Encoding: MPEG audio (layer I, II or III)
Comments :
Title=The Wish
Artist=Assassination
Album=Preparing Lucifers Arrival
Tracknumber=2
Year=2020

[/more]

Register
(18) abob, Angry_Chair, atom72, Boozer, Der_Hexer, DMIYUR, gena, horss, lucifix, makkara123, marilin, oldvarg, Olethros, Raw1488, stub888, Vraithee, Wail, xska,
Feb 24 2020, 09:27:37 Лучший советчик МА - Часть 6 (Хеви) - Тур 1, Общий сбор
ЦИТАТА(Nemez @ 24th February 2020 - 11:32:42) *
что-что? с каких пор?


Ну вся первая волная классического краста, по сути, так и делала. От Amebix к даже Axegrinder'у, у которых самый metal-саунд наверное был в той среде.
(2) atom72, infiltrator,
Feb 23 2020, 17:05:09 Лучший советчик МА - Часть 5 (Прог) - Тур 2, Рейтингование
Заранее извиняюсь, что не могу расписать по альбомам также, как в блэк-метале. Нет ни время, ни возможности (оче не оче чувствую себя сегодня). Но чтобы закрыть оценки окончательно, я думаю, нужно их проставить хотя бы:


House Of Spirits — Turn Of The Tide: 1

Vauxdvihl — To Dimension Logic: Без оценки (ибо мой релиз, а если бы и было можно, то тут однозначно 3)

Kobong — Kobong: 1

Annon Vin — A New Gate: 2

End Zone — Thalatta et Thanatos: 1

Ens Cogitans — Heart of the Way: 1

Sync — Variations About Themes of Evil: 1

Korova — Dead Like an Angel: 2

Magnitude 9 — Chaos To Control: 1

Seer's Tear — Precious: 2

Ebonylake — On The Eve Of The Grimly Inventive: 1

Forgotten Silence — KaBaAch: 1

Koyaanisqatsy — From The Yearning To Burst: 2

Hourglass — The Journey Into: 1

Ring Of Fire — Dreamtower: 2

John Arch — A Twist Of Fate (EP): 2

Equirhodont — Black Crystal: 1

NewBreed — Child Of The Sun: 1

Sepia Dreamer — The Sublime: 0

Step Into Liquid (post-Megace) — Traffic in My Head: 1

Another Life — Memories From Nothing: 1

Ansur — Warring Factions: 3

Dekadent — The Deliverance Of The Fall: Без оценки

Janvs — Vega: 1

Kurai — Mantra: 1

Odd Logic — Legends Of Monta: Part II: 2

Psychostatus — Chains Of Life: 2

Stormy Atmosphere — Color Blind: 1

Dreyelands — Rooms Of Revelation: 1

Look To Windward — Fortunes Haze: 0

Sole Remedy — Apoptosis: 1

The Shadow Theory — Behind The Black Veil: 1

Whirling — Faceless Phenomena: Без оценки

White Walls — Mad Man Circus: 1

Diapsiquir — A.N.T.I.: Без оценки

Kälter — Ubuntu: 2

The Levitation Hex (post-Alchemist) — The Levitation Hex: 1

Theater Of The Absurd — The Myth Of Sisyphus: 2

Appearance of Nothing — A New Beginning: 2

Zierler (post-Beyond Twilight) — ESC: 1

Hteththemeth — Best Worst Case Scenario: 1

Hollow — Between Eternities Of Darkness: 2


Надеюсь, что ничего не упустил.
(4) Deze, Emm Human, infiltrator, Yarri,
Feb 22 2020, 07:53:36 Invocation - Attunement To Death [ep] (2020)
Хороший альбом. Хотел сам залить, но коллега опередил.

lestllk, 9.gif
(1) Occultas,
Feb 21 2020, 08:21:20 Лучший советчик МА - Часть 5 (Прог) - Тур 2, Рейтингование
SAPOGi, Она чудо какая крутая, поиграл один раз — сразу влюбился. Обычно ещё в Цитадели гоняем
(2) infiltrator, SAPOGi,
Feb 21 2020, 07:58:14 Profeci - Matecznik (2020)


*Artist: Profeci
*Album: Matecznik
*Year: 2020
*Genre: Black Metal
*Country: Poland
*Format: mp3@CBR320kbps
*Size: 85MB

Tracklist:
1. Ciemna Góra 05:17
2. Pleśń 04:47
3. Manna 03:15
4. Wynaturzenie 05:35
5. Kir 04:55
6. Korzenie 05:39
7. Szeol 05:00
******************************
Total playing time: 34:28



[more=Extended info]Personal purchase[/more]

[more=Technical info]
Input File: PROFECI - Matecznik - 03 Manna.mp3
Channels : 2
Sample Rate : 44100
Precision : 16-bit
Duration : 00:03:15.07 = 8602455 samples = 14630 CDDA sectors
File Size : 7.99M
Bit Rate : 328k
Sample Encoding: MPEG audio (layer I, II or III)
Comments :
Title=Manna
Artist=Profeci
Album=Matecznik
Tracknumber=3
Year=2020

[/more]

Register
(30) AlexSmith, alikkon, ASkyThatBurns, atavist, caro, craP_cillA, exorcist1969, Fater_Hu, fuoco, gena, infiltrator, Kehl05, kim666, lestllk, MercurioRojo, MMMMM, Olethros, Ostinato, randumbum, robertho777, Rosen, RUDACHUR, satanist666, SilentNidhogg, thenecromancer, VALERY, vasiljev_sergej, wolverine, wreak, Сварог Барг,
Feb 20 2020, 22:08:34 Лучший советчик МА - Часть 6 (Хеви) - Тур 1, Общий сбор
Изначально хотел загнать второй полноформатный альбом Lordian Guard, но решил остановиться на релизе, что ниже. Думаю, что неплохую компанию составит здесь всем.

[youtube]pfXWH47kxJ4[/youtube]

Skullview — Legends of Valor (1998)
(2) Deze, infiltrator,
Feb 20 2020, 20:49:44 Лучший советчик МА - Часть 5 (Прог) - Тур 2, Рейтингование
ЦИТАТА(hammer @ 20th February 2020 - 23:51:07) *
А , ну так конечно намного понятней, че...


Ну ты бы понятней вопрос формировал, хех. Настольные игры.
(2) hammer, infiltrator,
Feb 20 2020, 16:37:34 Grifteskymfning - Bedrövelsens Härd (2020)


*Artist: Grifteskymfning
*Album: Bedrövelsens Härd
*Year: 2020
*Genre: Black Metal
*Country: Sweden
*Format: mp3@CBR320kbps
*Size: 140MB

Tracklist:
01. Intro 02:31
02. Sorte Horisonter 08:34
03. Hadstjerne 07:06
04. Lad Ondt Spire fra Dybet 09:59
05. Monster 07:17
06. En Jagt på Vinger 06:43
07. I Skyggen af den Æreløse Strejfer 09:56
08. Bedrövelsens Härd 06:19
******************************
Total playing time: 58:25



[more=Extended info]Personal purchase[/more]

[more=Technical info]
Input File: Grifteskymfning - Bedrövelsens Härd - 02 Sorte Horisonter.mp3
Channels : 2
Sample Rate : 44100
Precision : 16-bit
Duration : 00:08:34.64 = 22695624 samples = 38598 CDDA sectors
File Size : 20.7M
Bit Rate : 322k
Sample Encoding: MPEG audio (layer I, II or III)
Comments :
Title=Sorte Horisonter
Artist=Grifteskymfning
Album=Bedrövelsens Härd
Tracknumber=2
Year=2020

[/more]

Register
(64) 1968_janeart, abob, acerbus, AlexSmith, ambre, andivi, Antiscum, ASkyThatBurns, atavist, Boozer, caro, craP_cillA, Der_Hexer, dromord, dvlz, eisigerwind, El_Chibo, exorcist1969, Frozenkult, garmonbozia, gena, Hell_Is_Here, helvetesrike, infiltrator, kim666, lestllk, lunaraurora, milosdjor, Mortuusinfernus, nadin85, NOMIDIMON, nsk2008, Ostinato, Panacea, pgarlinski, princeshr, Qliphoth, rammmirez, randumbum, Raw1488, rimfrost, ripper33, robertho777, Rosen, Rudolfo_Metal, SaintVitus, Sanctus, sandr666, satanist666, SilentNidhogg, stub888, suseka, Sylvi, SyncestrA, VALERY, vasiljev_sergej, vovenom, wn129aa, wreak, xska, yuratroll, zargonath, zhol, Сварог Барг,
Feb 20 2020, 16:22:29 Cult Of Fire - Moksha (2020)


*Artist: Cult Of Fire
*Album: Moksha
*Year: 2020
*Genre: Atmospheric Black Metal
*Country: Czech Republic
*Format: mp3@CBR320kbps
*Size: 81MB

Tracklist:
01. Zrození výjimečného 09:34
02. Město mrtvých 05:52
03. (ne)Čistý 06:40
04. Har Har Mahadev 06:13
05. Mokša 05:59
******************************
Total playing time: 34:18



[more=Extended info]Personal purchase[/more]

[more=Technical info]
Input File: Cult of Fire - Moksha - 03 (ne)Čistý.mp3
Channels : 2
Sample Rate : 44100
Precision : 16-bit
Duration : 00:06:41.03 = 17685291 samples = 30077 CDDA sectors
File Size : 16.3M
Bit Rate : 325k
Sample Encoding: MPEG audio (layer I, II or III)
Comments :
Title=(ne)Čistý
Artist=Cult of Fire
Album=Moksha
Tracknumber=3
Year=2020

[/more]

Register
(87) 1968_janeart, A.L.Rapsod, acerbus, Angeldemon617, ASkyThatBurns, babanguida, BERZERK, Black Cat, Boozer, Bzth, caro, Cyrci, DarkHorde, deadterror, demonosz, Der_Hexer, djsema4, Druidir, El_Chibo, exorcist1969, Femto, Forest Silence, Frozenkult, fylopaloma, Hell_Is_Here, infiltrator, kim666, Korpse, Lamby90, Legacy100, LEGION69, Leolomb, lestllk, Ludwig Hagen, Lux, marilin, metal73, metala, Moonlover, multizwilling, nadin85, nemx, nugorod, oldvarg, Olrak, Ostinato, Panacea, Paradayz, Phlebotomized, princeshr, Raw1488, rimfrost, ripper33, Rosen, sabr, SaintVitus, SameMan, satanath, satanist666, Scorpi, senecazm, sergsazan, Shadechaser, SilentNidhogg, smes, soulskinner681, squall8fr, suseka, SyncestrA, TeamatSE, tim47, Tino, Torlof, Velmi, vovenom, Vraithee, wolverine, wreak, wtk.412, xska, yuratroll, Zaephar, ZambuL, ZloY_GreY, zxc0980077, Нигилист, Сварог Барг,
Feb 20 2020, 16:03:25 Cult Of Fire - Nirvana (2020)


*Artist: Cult Of Fire
*Album: Nirvana
*Year: 2020
*Genre: Atmospheric Black Metal
*Country: Czech Republic
*Format: mp3@CBR320kbps
*Size: 78MB

Tracklist:
01. Buddha 1 09:02
02. Buddha 2 06:18
03. Buddha 3 06:04
04. Buddha 4 06:06
05. Buddha 5 05:47
******************************
Total playing time: 33:17

[more=Extended info]Personal purchase[/more]

[more=Technical info]
Input File: Cult of Fire - Nirvana - 02 Buddha 2.mp3
Channels : 2
Sample Rate : 44100
Precision : 16-bit
Duration : 00:06:18.59 = 16695687 samples = 28394 CDDA sectors
File Size : 15.3M
Bit Rate : 324k
Sample Encoding: MPEG audio (layer I, II or III)
Comments :
Title=Buddha 2
Artist=Cult of Fire
Album=Nirvana
Tracknumber=2
Year=2020

[/more]

Register
(90) -=Hass=-, 1968_janeart, A.L.Rapsod, acerbus, alikkon, Angeldemon617, ASkyThatBurns, babanguida, BERZERK, Black Cat, Boozer, DarkHorde, Dark_side_of_Bubuntiy, deadterror, demonosz, Der_Hexer, djsema4, Doooomed, Druidir, El_Chibo, Femto, Forest Silence, Frozenkult, fylopaloma, garml2, gena, Hell_Is_Here, HMHamster, Ildjarn, infiltrator, kim666, LEGION69, Leolomb, Leshiy666, lestllk, Lux, marilin, MercurioRojo, metal73, metala, Moonlover, nadin85, nemx, nsmetalhead, oldvarg, Olethros, Ostinato, pahail, Panacea, Paradayz, pgarlinski, Phlebotomized, princeshr, randumbum, Raw1488, rimfrost, ripper33, robertho777, Rosen, sabr, SaintVitus, Sanctus, satanath, satanist666, Scorpi, senecazm, Shadechaser, SilentNidhogg, smes, soulskinner681, squall8fr, suseka, SyncestrA, system36, TAKATAEL, tim47, Tino, Velmi, vovenom, Vraithee, Wolftribes, wolverine, wreak, wtk.412, xska, yuratroll, Zaephar, ZambuL, zxc0980077, Нигилист,
Feb 20 2020, 15:43:07 Новости Black-направления
Купил оба новых Cult of Fire, которые уже доступны для прослушивания на Bandcamp.
(4) Albert66613, infiltrator, rimfrost, Нигилист,
Feb 20 2020, 15:15:33 Nawaharjan - Lokabrenna (2020)
ЦИТАТА(Samaritianin @ 20th February 2020 - 17:40:20) *
хз.. с такими спектрами продаются на всей цифре.


У меня и промо с такими же спектрами
(2) Occultas, Samaritianin,
Feb 20 2020, 12:30:49 Raspberry Bulbs - Before The Age Of Mirrors (2020)


*Artist: Raspberry Bulbs
*Album: Before The Age Of Mirrors
*Year: 2020
*Genre: Blackened Punk Rock/Hardcore Punk/Ambient
*Country: United States
*Format: mp3@CBR320kbps
*Size: 88MB

Tracklist:
01. Spitting from on High 03:41
02. They're After Me 03:04
03. Interlude I 01:09
04. Missing Teeth 03:36
05. Doggerel 04:55
06. Interlude II 01:56
07. Midnight Line 04:44
08. Reclaimed Church 04:21
09. Interlude III 01:56
10. Ultra Vires 03:32
11. Interlude IV 00:47
12. Given over to History 04:23
******************************
Total playing time: 38:04

[more=Technical info]
Input File: 2 - They\'re After Me.mp3
Channels : 2
Sample Rate : 44100
Precision : 16-bit
Duration : 00:03:03.73 = 8102581 samples = 13779.9 CDDA sectors
File Size : 7.43M
Bit Rate : 323k
Sample Encoding: MPEG audio (layer I, II or III)
Comments :
Title=They're After Me
Artist=Raspberry Bulbs
Album=Before the Age of Mirrors
Tracknumber=2
Year=2020
Genre=Metal
Discnumber=1

[/more]

Register
(19) abob, acerbus, Angry_Chair, atom72, bloodwind, Boozer, DMIYUR, FUDEDOR, garmonbozia, goatkvlt, infiltrator, Leolomb, oldvarg, Olethros, sludge666, sunkilmoon, the_cleanser, valgalder, Velmi,
Feb 20 2020, 11:42:13 Ulver - Russian Doll [single] (2020)
ЦИТАТА(atom72 @ 20th February 2020 - 15:14:45) *
Правильный синтвейв делали на лейбле Rosso Corsa


Ящик пиво этому сеньору на Тестаросе. Прекрасный лейбл, который я всей душой обожаю и чей релиз Miami Nights 1984 (третьего альбома) я жду уже несколько лет к ряду dwarf-1.gif 1488.gif
(2) atom72, infiltrator,
Feb 19 2020, 20:57:22 Ulver - Russian Doll [single] (2020)
ЦИТАТА(mittal @ 19th February 2020 - 23:54:20) *
если есть что сказать - говори. Мы внимательно выслушаем.


Я уже десятки раз говорил, на сколько ваши подобные тезисы беззубы и не имеют под собой хоть какой-то конкретики. Зачем повторяться? Мне потешно, когда вы свои эталоны, с выборкой в музыкантов 50-100, выводите.

Да и тут я все объяснил, что хотел, выше.
(4) 6666666, atom72, Ghostb, infiltrator,
Feb 19 2020, 18:37:18 Ulver - Russian Doll [single] (2020)
sethurius, Ну я просто тебе объясняю, почему твой тезис не самый верный. Здесь причина очень проста — группы в разных культурных источниках ищут интерес.

Есть ещё такой интересный термин, как art pop. Его, если попробовать сформировать общий паттерн жанровый оттуда, в творчестве нынешнем (в этой композиции, последнем полноформатном альбоме и EP) достаточно много. Так что, synthwave здесь не то, что роль второй скрипки не играет, даже третью с трудом можно привязать.
(2) Ghostb, infiltrator,
Feb 19 2020, 15:23:03 Ulver - Russian Doll [single] (2020)
Данный тред объявляется первым платиновым в 2020
(3) atom72, Ghostb, infiltrator,
Feb 19 2020, 12:43:50 Ulver - Russian Doll [single] (2020)
atom72, У ребят проблемы просто, у них общий жанровый паттерн = рипофф band_name


(2) atom72, infiltrator,
Feb 19 2020, 07:39:32 Ulver - Russian Doll [single] (2020)
as71, Вот, что Гарм про лирику говорит и т.д.

ЦИТАТА
Lyrically inspired by the 2002 film ‘Lilja 4 ever’, ‘Russian Doll’ is an abstract rumination on the concepts of love, the death of innocence, and exploitation within the context of post-Cold War Eastern Europe.

According to vocalist Krystoffer Rygg:

“"Although this is pop music in our heads, the images and connotations in the lyrics are probably far away from what one usually associates with this genre. It actually began with some images and memories from the movie Lilja 4-ever by Lukas Moodysson; a dark and disillusioning film about human trafficking in the Baltic.

“‘Russian Doll’ refers to the babushka, we began to think about this figure in the extension of Lilja 4ever and Eastern Europe. The doll became an object, an object of desire, which we mixed with mise-en-abyme – a composition technique that places pictures, or stories for that matter, inside each other. In this context we see it as a kind of vicious circle, unfolding inwards.”

(4) as71, Baudolino, EvgeniusLongus, infiltrator,
Feb 19 2020, 06:29:25 Ulver - Russian Doll [single] (2020)
ЦИТАТА(Shub @ 19th February 2020 - 03:18:43) *
рипофф депеш мода


Когда не знаешь больше ничего из синт попа, вставь Depeche Mode. Патлобес mode on, так сказать. Назови пять композиций структурно, которые Depeche Mode в полной мере бы напоминали.

ОЧЕНЬ ЖАЛЬ, ЧТО ТЫ МНЕ НЕ ОТВЕЧАЕШЬ 1488.gif 1488.gif 1488.gif 1488.gif
(2) Ghostb, infiltrator,
Feb 18 2020, 22:12:12 Новости Black-направления
[youtube]VfrWQ9kkVdI[/youtube]

Наслаждайтесь. Думаю, что завтра уже сольют его. Я промо у себя в VK выложил, если кому будет удобней там.
(4) infiltrator, Occultas, rimfrost, suseka,
Feb 18 2020, 20:28:28 Iku-Turso & Goats Of Doom - Ikuinen Kuolema [split] (2020)


*Artist: Iku-Turso & Goats Of Doom
*Album: Ikuinen Kuolema [split]
*Year: 2020
*Genre: Atmospheric Black Metal | Black Metal
*Country: International | Finland
*Format: mp3@CBR320kbps
*Size: 21MB

Tracklist:
Iku-Turso:
01. Canticle Of Death 04:50
Goats of Doom:
02. Mädättäjä 04:00
******************************
Total playing time: 8:50



[more=Extended info]Personal purchase[/more]

[more=Technical info]
Input File: Iku-Turso - Ikuinen Kuolema - 01 Canticle Of Death.mp3
Channels : 2
Sample Rate : 44100
Precision : 16-bit
Duration : 00:04:50.84 = 12825912 samples = 21812.8 CDDA sectors
File Size : 11.8M
Bit Rate : 324k
Sample Encoding: MPEG audio (layer I, II or III)
Comments :
Title=Canticle Of Death
Artist=Iku-Turso
Album=Ikuinen Kuolema
Tracknumber=1
Year=2020

[/more]

Register
(23) 1968_janeart, ASkyThatBurns, Boozer, caro, Hell_Is_Here, igore2911, Ildjarn, infiltrator, kim666, Lanceatum, nemx, robertho777, Rosen, satanist666, senecazm, SilentNidhogg, Styx, Surt, Tyrone, VALERY, varlam4, vasiljev_sergej, vovenom,

45 Pages V   1 2 3 > » 
- Lo-Fi Version Support form
Copyrights and abuse reports form
Time is now: 1st April 2020 - 02:46:49