Welcome Guest ( Log In | Register )

Объявления

* gmail.com упорно продолжает считать почту с нас "unsolicited" и отбивает в том числе и письма активации, поэтому просьба использовать альтернативные почтовые ящики.
------------
* gmail.com continues reject all mail from us as "unsolicited" (activation mails too) therefore please use alternate mail servers.
История благодарностей участнику Moldavite ::: Спасибо сказали: 127937 раз(а)
Дата поста: В теме: За сообщение: Спасибо сказали:
May 14 2014, 13:57:53 Aaskereia - Live In Bindersleben 25.05.2002 [live] (2002)
reuploaded, 320kbps, 73mb

Register
(1) INDARKNESS,
May 7 2014, 21:05:30 Decrepit Cauldron - Wirklichkeit Altera Pars (2005)
256 kbps 25.gif

Register
(3) INDARKNESS, rickzammuto, UlvhedinGrom,
May 7 2014, 08:54:54 Nihilistic Kaos & Nordum - Ad Honores/Le Chipset Du Froid [split] (2002)
128 kbps
38 MB

Register
(2) INDARKNESS, rom666,
May 5 2014, 17:08:32 Nihilistic Kaos - Alchimie De La Douleur - L'Art De La Souffrance [demo] (2002)
Register
(2) INDARKNESS, rom666,
May 5 2014, 16:45:36 Korihor - Bastardo (2005)
Register
(4) INDARKNESS, rickzammuto, rom666, waldemardr,
May 5 2014, 16:02:58 Infernal Execrator - Antichrist Execration [ep] (2008)
Register
(4) goregrindexx, INDARKNESS, rickzammuto, rom666,
May 5 2014, 12:16:25 Gnostic - Evoking The Demon (2003)
Register
(2) INDARKNESS, rom666,
May 5 2014, 12:00:46 Gnostic - Bloodwars Of Heretic Supremacy [demo] (1998)
Register
(1) rom666,
May 5 2014, 11:45:56 Slaotvean - Dementia [demo] (1999)
Register
(2) Korpse, rickzammuto,
May 5 2014, 11:40:24 Drakul - Northwestern Darkness [demo] (2008)
Register
(2) INDARKNESS, rom666,
May 5 2014, 11:39:47 Drakul - Drakonian Totalitarianism [live] (2009)
Register
(2) INDARKNESS, rom666,
May 4 2014, 15:11:52 Lord Hitler - Rehearsal Tpe [demo] (1991)
Register
(4) 34front, INDARKNESS, thenecromancer, Tular,
Apr 16 2014, 10:00:24 Santagar - River Without Shores [demo] (2010)
Register
(7) dermarsoran, INDARKNESS, Ingvar, NachtWulf, pain, Pustota, Skog1349,
Apr 2 2014, 13:27:58 Monarque / Forteresse / Csejthe / Chasse-Galerie - Légendes
Register
(2) INDARKNESS, thenecromancer,
Mar 29 2014, 16:17:54 Diamatregon - Vinbär Frost [demo] (2001)
Register
(3) INDARKNESS, infiltrator, thenecromancer,
Mar 29 2014, 12:28:46 Caed Dhu - By Tych, Co Nami Władną, Postrącać Z Ołtarzy (2008)
Register
(4) INDARKNESS, SileniusLegard, thenecromancer, vasiljev_sergej,
Mar 29 2014, 12:18:37 Bestial Holokaust - Stanie Się Koniec [demo] (2010)
Register
(1) rom666,
Mar 29 2014, 12:05:21 Bestial Christ - The Darkness [demo] (1992)
Register
(3) INDARKNESS, SSBandera, thenecromancer,
Mar 26 2014, 08:53:33 Ravenmoon Sanctuary - Winter Desolation Of Death (2013)
OMG!!! thank you endlessly for this!!!
(2) INDARKNESS, vosmidesijatye,
Feb 2 2014, 00:35:02 Vlad Tepes - La Collection Noire [bootleg] (2005)
QUOTE(SIG @ Feb 2 2014, 00:40:23) *
Может быть, это предсмертный крик издателя диска. Не один раз сталкивался с подобным, особенно это касается кассетных записей, но на CD - впервые. Не знаю.


yeah you can clearly hear the difference in sound/production between intro song and the rest.
(2) INDARKNESS, lordbathor,
Feb 1 2014, 22:23:50 Vlad Tepes - La Collection Noire [bootleg] (2005)
The first short untitled "song" - WTF? I dont think that's really vlad tepes
(2) INDARKNESS, lordbathor,
Jan 15 2014, 10:21:34 Gontyna Kry - Przebudzić Ze Snu... [demo] (1995)
There should be 5 songs on this demo. This is incomplete - probably just tracks taken from "Scieżka Zapomnianych Prawd".
(2) INDARKNESS, thenecromancer,
Dec 16 2013, 17:44:11 Mørkriket - Unhallowed Woods (2004)
Register
(3) INDARKNESS, Kvass, rickzammuto,
Jul 17 2013, 20:56:32 Belthil - Rehearsal 1993 [demo] (1993)
please reup!!!
(2) INDARKNESS, thenecromancer,
Jan 25 2013, 13:38:32 Santagar - River Without Shores [demo] (2010)


*Artist: Santagar
*Album: River Without Shores [demo]
*Year: 2010
*Genre: Raw/Depressive Black Metal
*Country: Croatia
*Format: mp3@CBR192kbps
*Size: 25MB

Tracklist:
01. Dea Quedam Phantastica
02. Black Pearl Of Universe
03. My Blood On The Hands Of Destiny
04. The Great Curse Of Leonora
******************************
Total playing time: 18:27

[more=Extended info]


Input File: 1.Dea quedam phantastica.mp3
Channels : 2
Sample Rate : 44100
Precision : 16-bit
Duration : 00:01:02.73 = 2766349 samples = 4704.68 CDDA sectors
File Size : 1.51M
Bit Rate : 192k
Sample Encoding: MPEG audio (layer I, II or III)
Comments :
Title=Dea quedam phantastica
Artist=Santagar
Album=River without shores
Tracknumber=0/1
Year=2010
Genre=Depressive/raw black metal

[/more]

Register
(14) bka, INDARKNESS, kefka, lestllk, pain, Pustota, senecazm, SIAVASH, SSBandera, stub888, Styx, tont, varlam4, vasiljev_sergej,

824 Pages V  « < 822 823 824
- Lo-Fi Version Support form
Copyrights and abuse reports form
Time is now: 26th May 2024 - 20:11:05