Welcome Guest ( Log In | Register )

История благодарностей участнику Vombat ::: Спасибо сказали: 828 раз(а)
Дата поста: В теме: За сообщение: Спасибо сказали:
Jun 16 2014, 15:41:23 Cubical Sphere - Promo [demo] (2008)
Register
(1) mimoladoff,
May 30 2014, 23:58:49 Fields Of Elysium - Capax Universi [ep] (2012)
Register
(1) Ostinato,
May 28 2014, 10:32:56 Taine - Decade Of Metal [best of/compilation] (2004)
Register
(2) neoatheist, wanderer73,
Mar 12 2014, 22:02:38 Bloodway - Sunstone Voyager And The Clandestine Horizon [ep] (2014)


*Artist: Bloodway
*Album: Sunstone Voyager And The Clandestine Horizon [ep]
*Year: 2014
*Genre: Progressive/Technical Black Metal
*Country: Romania
*Format: mp3@CBR128kbps
*Size: 25MB

Tracklist:
1. I Am A Drop Of Water In An Ocean Of Stars
2. The Skeleton Key
3. Free Ends
4. Eye Service Collapse
5. Sunstone Voyager And The Clandestine Horizon
******************************
Total playing time: 26:01:00

Register
(10) 0x13, Boozer, metala, Ostinato, satanist666, spiritualdecay666, tont, vasiljev_sergej, wreak, yuratroll,
Feb 19 2014, 18:51:21 Gridlink - Longhena (2014)


*Artist: Gridlink
*Album: Longhena
*Year: 2014
*Genre: Technical Grindcore
*Country: United States
*Format: mp3@CBR128kbps
*Size: 20MB

Tracklist:
1. Constant Autumn
2. The Last Raven
3. Thirst Watcher
4. Stay Without Me
5. Taibas
6. Retract Perdition
7. The Dodonpachi
8. Black Prairie
9. Island Sun
10. Chalk Maple
11. Wartime Exception Law 205
12. Ketsui
13. Longhena
14. Look to Windward
******************************
Total playing time: 11:10



Register
(1) Герб,
Feb 17 2014, 22:39:38 Soreption - Deterioration Of Minds (2010)
Register
(6) acundof, C7X, kolar666, Moonshtook, princeshr, wreak,
Feb 7 2014, 19:31:26 Separatist - Closure (2014)
[youtube]Akcn5RfxEp0[/youtube]
(1) hammer,
Feb 7 2014, 18:04:26 Separatist - Closure (2014)


*Artist: Separatist
*Album: Closure
*Year: 2014
*Genre: Technical Death Metal
*Country: Australia
*Format: mp3@CBR320kbps
*Size: 117MB

Tracklist:
1. Monuments
2. Isolation
3. Ω
4. Deluge Arterial
5. Carrier
6. Immersion
7. Void
8. Altars
9. Closure
******************************
Total playing time: 44:05



[more=Technical info]
Input File: Separatist - Closure - 01 Monuments.mp3
Channels : 2
Sample Rate : 44100
Precision : 16-bit
Duration : 00:07:48.58 = 20664334 samples = 35143.4 CDDA sectors
File Size : 18.8M
Bit Rate : 321k
Sample Encoding: MPEG audio (layer I, II or III)
Comments :
Title=Monuments
Artist=Separatist
Album=Closure
Tracknumber=1
Year=2014
Genre=Technical Death Metal

[/more]

Register
(35) Analien, AndreFrancis, andreikun, andrey010577, caro, crackedbrain, denver, Fetus_In_Fetu, fishish, Hell_Is_Here, killingod, Korpse, lary_veel, maochen, mart2203, MeathookSeed, metala, MMMMM, Necroalex, neoatheist, Orgasmik, realexxx75, respect, Rosen, SatanicPanzer, Tino, toly1917, Typhoid, VALERY, varlam4, Vital157, vyacheslav, wanderer73, wreak, yuratroll,
Jan 29 2014, 11:34:24 Mnich - Nine Shapes Of Death (2007)
Register
(2) artscald, varlam4,
Jan 22 2014, 18:14:22 Medecophobic - Escalation [ep] (2014)


*Artist: Medecophobic
*Album: Escalation [ep]
*Year: 2014
*Genre: Technical Brutal Death Metal
*Country: Germany
*Format: mp3@CBR320kbps
*Size: 28MB

Tracklist:
1. Escalation
2. Corrupted
3. Cornered
******************************
Total playing time: 16:18



[more=Technical info]
Input File: 01 - Escalation.mp3
Channels : 2
Sample Rate : 44100
Precision : 16-bit
Duration : 00:04:06.18 = 10856450 samples = 18463.4 CDDA sectors
File Size : 10.1M
Bit Rate : 327k
Sample Encoding: MPEG audio (layer I, II or III)
Comments :
Title=Escalation
Artist=Medecophobic
Album=Escalation
Tracknumber=01/03
Year=2014
Genre=Technical Brutal Death Metal

[/more]

Register
(11) caro, Hell_Is_Here, Lanthir, logunarm, Moonshtook, neoatheist, Rosen, sperminator, varlam4, vyacheslav, wreak,
Dec 15 2013, 17:25:59 Deadborn - Stigma Eternal (2007)
Register
(5) cuimit1349, FunZombie, neoatheist, samokot, SyncestrA,
Oct 1 2013, 15:40:09 Returner - The Black Notes [ep] (2011)
Register
(1) DarkHolocaust,
Sep 29 2013, 20:12:47 Punish - State Of Grace (1995)
Register
(9) andreikun, Aresson, muskatnuss, Proteus_666, SyncestrA, varlam4, Луч, Нигилист, Язва,
Sep 29 2013, 18:14:31 Punish - Dawn Of The Martyr (2007)
Register
(2) graveking, metala,
Aug 7 2013, 18:08:39 Ænimus - Transcend Reality (2013)
та вообще ето можно говорить не только об етом стиле,а о сучасном музле в общем!)
(1) Genuine Thrashiac,
Jul 19 2013, 21:25:39 Aronious - Truth In Perception (2014)
ЦИТАТА
будет музыкальный вы@бон...

Всеже полутше нежели 40 минут тремоло)))
(2) infiltrator, Shadowman,
Jun 23 2013, 09:15:01 Veuliah - Chaotic Genesis (2013)
Да ето не МДМ,но релиз зачетный!!! Ничего приблекованого тут нету!!! Более напоминает Прогдет/МДМ, ща качну разслушаю)
(1) aserius,
Jun 12 2013, 18:47:19 Gutfucked - Demo 2011 [demo] (2011)
Register
на 30 дней)
(1) Metalhead21,
Jun 9 2013, 16:27:04 Deuteronomium - Deathbed Poetry: Hope Against Hope (2011)
320
Register
(2) Kaamos, stakanoff,
Jun 2 2013, 18:03:39 The Bridal Procession - Descent Into Arcologies (2013)
норм наклепвали))!!! деткора тоже не много!
(1) Foneg,
May 21 2013, 20:19:04 Chimp Spanner - At The Dream's Edge (2009)
Register
Apr 26 2013, 16:19:26 Dead Shape Figure - The Grand Karoshi (2008)
Register
(2) savaman, VALERY,
Mar 8 2013, 19:05:46 Carceri - Carceri [ep] (2003)
Register



вот обновил!
(2) neoatheist, samokot,
Feb 28 2013, 11:48:36 Inoculation - Elysium [ep] (2013)
Просто супер!-качать всем фанатам стиля!
(3) aesteticvice, aserius, kuz40666,
Dec 19 2012, 19:20:06 Algophobia - Dreams [demo] (1994)
Register
(1) grinderrr,

6 Pages V   1 2 3 > » 
- Lo-Fi Version Support form
Copyrights and abuse reports form
Time is now: 7th August 2020 - 11:08:47