Welcome Guest ( Log In | Register )

История благодарностей участнику lafuma ::: Спасибо сказали: 1817 раз(а)
Дата поста: В теме: За сообщение: Спасибо сказали:
Mar 29 2024, 09:59:27 Mütiilation - Black Metal Cult (2024)
По моему у сабжа дебютник был реальне культовый, всё остальное шибко переоценено. На этом альбоме их не узнать вовсе, агрессивная долботня никогда не была фишкой Мутилей, не понравилось.
(1) ent404,
Mar 25 2024, 18:40:53 Black Funeral - Wallachian Voivode [ep] (2024)
На удивление мощный напористый блэк-метальный шквал с мрачной средневековой атмосферой, давно от BF такого не было. Релиз очень крут, жаль материала мало.
(1) Occultas,
Mar 24 2024, 15:40:28 Morbid Angel - Formulas Fatal To The Flesh (1998)
На предыдущем альбоме они уже играли со всеми признаками хронической усталости, про этот даже скрипя сердцем и притягивая за уши, сказать хорошего нечего.
(1) Фо,
Mar 20 2024, 08:51:54 Воля И Разум - Воля И Разум [ep] (2024)
ЦИТАТА(Yarri @ 20th March 2024 - 11:30:52) *
Серышев - лучший из вокалистов.

Не в этот раз.
(1) Sulphuric,
Nov 28 2023, 20:10:21 Лучшие метал альбомы 2023 // Best 2023 Metal Releases
Clandestine Blaze - Resacralize The Unknown
(1) masterhammer78,
Nov 26 2023, 00:27:25 Артур Беркут - Стритрейсер (2023)
После его ухода из Арии проиграли все, увы.
(1) Emm Human,
Sep 9 2023, 20:24:47 Dream Theater - Systematic Chaos (2007)
Сильнейший их альбом после 1994г, причём откровенно провальных тем нет ни одной.
(1) Yarri,
Aug 27 2023, 12:29:28 Metallica - Gold Ballads [compilation] (2001)


*Artist: Metallica
*Album: Gold Ballads [compilation]
*Year: 2001
*Genre: Thrash/Heavy Metal
*Country: United States
*Format: flac
*Size: 500MB

Tracklist:
01. The Unforgiven
02. Nothing Else Matters
03. The Outlaw Torn
04. Bleeding Me
05. Fade To Black
06. Loverman
07. Mama Said
08. One
09. Welcome Home (Sanitarium)
10. The Unforgiven II
11. Low Man's Lyric
******************************
Total playing time: 4:28

[more=Extended info]Compilation, Unofficial Release[/more]

[more=Technical info]
Input File: 01 Metallica - The Unforgiven.flac
Channels : 2
Sample Rate : 44100
Precision : 16-bit
Duration : 00:06:19.24 = 16724484 samples = 28443 CDDA sectors
File Size : 46.6M
Bit Rate : 982k
Sample Encoding: 16-bit FLAC
Comments :
ALBUMARTIST=Metallica
ALBUM=Gold Ballads
MEDIATYPE=CD (Compilation, Unofficial Release)
GENRE=Rock
STYLE=Heavy Metal
COUNTRY=Russia
ARTIST=Metallica
Title=The Unforgiven
DATE=2001
TRACKNUMBER=1

[/more]

Register
(3) Carcharoth, Occultas, v.v.m,
Jul 29 2023, 15:47:45 Clandestine Blaze - Resacralize The Unknown (2023)
Лучшая BM группа современности.
(3) ent404, Kazoth, Фо,
Jun 21 2023, 15:12:30 Trollwald - Trollwald (2023)
ЦИТАТА(spbfucker @ 3rd June 2023 - 16:13:47) *
Ну какие тролли в Бобруйске? Мигранты что ли?

В Бобруйске на идише фолк обычно.
(1) RUDACHUR,
Jun 15 2023, 20:31:41 Аркона - Кобь (2023)
ЦИТАТА(Slam91 @ 15th June 2023 - 23:16:46) *
Альбом слушать как-то заведомо неприятно от такой двупопости и лицемерия.

Разве у этой группы были хорошие альбомы?
(1) philfoden,
May 25 2023, 17:22:26 Immortal - War Against All (2023)
Главная ошибка Immortal на мой взгляд, что после 1995г они начали играть мелодичную музыку и утратили свою родную стилистику благодаря которой вписали себя в историю BM.
(6) DarkHorde, egortitov, Emm Human, RUSP73, SSWolf88, todesser,
Apr 8 2023, 08:09:13 Dødheimsgard - Black Medium Current (2023)
Daale, пардон я имел ввиду 1999 и 2007.
(1) Daale,
Mar 24 2023, 10:05:01 Cruachan - The Living And The Dead (2023)
ЦИТАТА(kostja @ 24th March 2023 - 13:01:29) *
Вообще то наоборот, их первый альбом Tuatha na Gael был блековый,
а потом стали из него дрейфовать туда-сюда

Чесно говоря мне дебютник меньше всего нравится, звучит как будто демка 16.gif
(1) Deze,
Jan 22 2023, 20:27:59 Slayer - Darkness Reigns (Live 1992) [live] (2020)
Register
(4) cenzored, DementedKnob, ger_man_thorn, hell_armageddon,
Jan 20 2023, 12:51:36 Metallica - Screaming Suicide [single] (2023)
Мне их музыка стала напоминать Motorhead, весело и бодро с одной стороны, но кто то без особых восторгов.
3/5.
(1) BleedingSun,
Jan 17 2023, 16:16:17 Валерий Сюткин - Радио Ночных Дорог (1996)
ЦИТАТА(lafuma @ 17th January 2023 - 17:13:37) *
сабж не формат для МА, тему в слив, автора в бан.

(4) Ice Gnoll, Maximvs, Shadechaser, spbfucker,
Jan 17 2023, 14:13:37 Звери - Районы-Кварталы (2004)
Сейчас столько тру блэк метал групп, которые выглядят и звучат настолько нелепо будучи клоунами не меньше зверей. Вообще сабж не формат для МА, тему в слив, автора в бан.
(1) Alexis The Best,
Jan 10 2023, 21:03:07 Diabolicum - Grandeur Of Hell (Soli Satanae Gloriam) (1999)
Гениальный альбом, в очередной раз убеждаюсь как индастриал и блэк друг друга гармонично дополняют, искусные умельцы способны выдавать из этого гремучую ядовитую смесь. Этот альбом как раз такой.
(2) Occultas, WarmasterChorus,
Jan 9 2023, 18:11:24 Кабан - Кабан [demo] (2022)
До Ильдъярна тут как раку до луны.
(1) Qliphoth,
Dec 26 2022, 20:47:14 Irae - Assim Na Terra Como No Inferno (2022)
Какая обложка восхитительная, саунд получился олд-скульным, всё как всегда мрачно, португальцы держат марку тру-блэка и не сворачивают ни на йоту. Такого саунда им не хватало на прошлых альбомах. Сам альбом явно не на одну прослушку.
(1) Occultas,
Dec 23 2022, 23:18:11 (V.E.G.A.) - Cocaine (2002)
Гениальный альбом, реально блэк-метал на стероидах.
(1) Occultas,
Dec 23 2022, 20:27:27 Diabolicum / DHG / Mysticum / Blacklodge...
Сравнительно недавно начал изучать направление и просто охренел сколько всего интересного. Из самого сочетания Black'a и Industrial выходит самая мрачная ядовитая смесь. Плохо что данное направление держится на таком ограниченном кол-ве исполнителей.
(1) Occultas,
Dec 23 2022, 20:08:19 Кино - 12_22 (2022)
Как раз тот случай когда не слушал, но осуждаю.
(2) Emm Human, Kwaad,
Dec 8 2022, 13:35:44 Black Shadow - Последняя Cтупень Перерождения (2022)
ЦИТАТА(sabr @ 7th December 2022 - 23:10:07) *
а с Ashen Light что не так?

Всё не так.
(1) apries,

25 Pages V   1 2 3 > » 
- Lo-Fi Version Support form
Copyrights and abuse reports form
Time is now: 16th April 2024 - 01:29:53