Welcome Guest ( Log In | Register )

История благодарностей участнику Goreonion ::: Спасибо сказали: 710 раз(а)
Дата поста: В теме: За сообщение: Спасибо сказали:
Mar 12 2021, 20:09:20 Очень редкие альбомы и демки /Verу Rare Albums & Demos
ЦИТАТА(spazm @ Mar 12 2021, 22:02:48) *
Сколько лет, сколько зим) Где пропадал?) Я кстати этих Птиц сам недавно заценил на РЖ в ВК, интересная штука.


Эхъ, да вот там и пропадаю, собственно паблик РЖ это всё моих рук делишки 1488.gif
(2) infiltrator, spazm,
Mar 12 2021, 19:58:30 Очень редкие альбомы и демки /Verу Rare Albums & Demos
Всем привет!

Лютый раритетище, извлеченный из подвалов Ангарска 90-х! smile3.gif


ПТИЦЫ (Ангарск) - Геморрой [demo] (1995)
(5) dddbdubpac, infiltrator, Proteus_666, spazm, thenecromancer,
May 30 2017, 12:27:42 Gallery Of Dreams - In The Reign Of Shadows [demo] (1997)
Register
(1) thenecromancer,
May 28 2017, 19:50:45 Gallery Of Dreams - In The Reign Of Shadows [demo] (1997)


*Artist: Gallery Of Dreams
*Album: In The Reign Of Shadows [demo]
*Year: 1997
*Genre: Gothic/Doom Metal
*Country: Russian Federation
*Format: mp3@320kbps
*Size: 37MB

Tracklist:
01. Dream's Master 05:31
02. In the Reign Of Shadows 05:12
03. They Vanished In The Sunlight 05:00
04. Behind This Door 04:39
******************************
Total playing time: 20:22

[more=Extended info]Группа из Нижнего Новгорода

"Впечатление, что это одна из западных групп, долго не покидает после прослушивания этой ленты. Мелодичный и чарующий stuff, который можно охарактеризовать, как doom/dark metal. Аналогий, думаю, приводить не нужно? Студийная запись, прекрасная сыгранность музыкантов, умеющий петь (рычать ) вокалист и тревожная, зовущая вдаль мечтаний и снов музыка... Если развитие группы не остановится, то следует ожидать от нового альбома сплошного убийства! Так держать!" (Blacksmith'zine #3 1997)[/more]

[more=Technical info]
Input File: 01. Dream's Master.mp3
Channels : 2
Sample Rate : 44100
Precision : 16-bit
Duration : 00:05:30.43 = 14571743 samples = 24781.9 CDDA sectors
File Size : 13.3M
Bit Rate : 321k
Sample Encoding: MPEG audio (layer I, II or III)
Comments :
Title=Dream's Master
Artist=Gallery Of Dreams
Album=In the Reign of Shadows
Tracknumber=01
Year=1997

[/more]

Register
(13) AndreFrancis, Beazth, Cartman223, Evilded, metala, obituarydark, quarantine, Rosen, Sanc, Synthaeon, thenecromancer, VALERY, Zahrim,
Dec 18 2016, 19:12:16 Unburied - Tortured Remains [demo] (1998)


*Artist: Unburied
*Album: Tortured Remains [demo]
*Year: 1998
*Genre: Death Metal
*Country: United States
*Format: mp3@320kbps
*Size: 42MB

Tracklist:
01. Tortured Remains 03:53
02. How You Died 05:38
03. Two Faced Murders 03:55
04. Abraxas Annihilation 02:10
05. Kill... 02:12
******************************
Total playing time: 17:48

[more=Extended info]Второй опус из дискографии и единственная запись банды с представительницей прекрасной половины человечества на вокале.[/more]

[more=Technical info]
Input File: 01 - Tortured Remains.mp3
Channels : 2
Sample Rate : 44100
Precision : 16-bit
Duration : 00:03:52.41 = 10249281 samples = 17430.8 CDDA sectors
File Size : 9.38M
Bit Rate : 323k
Sample Encoding: MPEG audio (layer I, II or III)
Comments :
Title=Tortured Remains
Artist=Unburied
Album=Tortured Remains [demo]
Year=1998

[/more]

Register
(7) Alfredoelruso, Amsterdam, Darkthronefoad, Hell_Is_Here, morbidangelo, Rosen, vyacheslav,
Dec 12 2016, 20:52:22 Necrogenesis - Destroy, Annihilate, Obliterate... [demo] (1997)


*Artist: Necrogenesis
*Album: Destroy, Annihilate, Obliterate... [demo]
*Year: 1997
*Genre: Death Metal
*Country: Russian Federation
*Format: mp3@320kbps
*Size: 45MB

Tracklist:
01. When Everything Ruins 04:43
02. Intro 01:02
03. Sent To Scaffold 06:38
04. Intro 00:22
05. The Flame Of Burningdisease 06:50
******************************
Total playing time: 19:35

[more=Extended info]Группа из Костромы. Единственное демо, записанное в августе 1997 года.[/more]

[more=Technical info]
Input File: 01 - When Everything Ruins.mp3
Channels : 2
Sample Rate : 44100
Precision : 16-bit
Duration : 00:04:43.09 = 12484357 samples = 21231.9 CDDA sectors
File Size : 11.3M
Bit Rate : 320k
Sample Encoding: MPEG audio (layer I, II or III)
Comments :
Title=When Everything Ruins
Artist=Necrogenesis
Album=Destroy, Annihilate, Obliterate
Tracknumber=1
Year=1997

[/more]

Register

(8) Evilded, Hell_Is_Here, morbidangelo, Proteus_666, rominow, Rosen, sperminator, varlam4,
Oct 19 2013, 06:27:59 Suffocate - Unborn Suffer [demo] (1995)


*Artist: Suffocate
*Album: Unborn Suffer [demo]
*Year: 1995
*Genre: Death Metal/Grindcore
*Country: Slovakia
*Format: mp3@320kbps
*Size: 41MB

Tracklist:
01. Imminence of Death 03:38
02. Rotted Alive 03:05
03. Exhumed 02:41
04. Escaped From the Damned Group 02:48
05. Unborn Suffer 01:56
06. Maze of Fear 04:24
******************************
Total playing time: 18:32

[more=Technical info]
Input File: 01 - Imminence Of Death.mp3
Channels : 2
Sample Rate : 48000
Precision : 16-bit
Duration : 00:03:38.21 = 10473984 samples ~ 16365.6 CDDA sectors
File Size : 8.73M
Bit Rate : 320k
Sample Encoding: MPEG audio (layer I, II or III)
Comments :
Title=Imminence Of Death
Artist=Suffocate
Album=Unborn Suffer [demo]
Tracknumber=1
Year=1995

[/more]

Register
(13) boba, caro, enslaver, Evilded, Hell_Is_Here, infiltrator, MeathookSeed, Mucupurulence, Proteus_666, Rosen, skarpyr, wreak, Герб,
Oct 19 2013, 06:12:55 Popcore Experience - External Innocence [demo] (1996)


*Artist: Popcore Experience
*Album: External Innocence [demo]
*Year: 1996
*Genre: Expiremental Death Metal/Hardcore/Industrial
*Country: Russian Federation
*Format: mp3@320kbps
*Size: 57MB

Tracklist:
01. Urere(a) 01:39
02. De Locis Affectis 04:20
03. Bombastic Mindfucktion 03:08
04. Agonizing Dream 02:16
05. ATC 00:38
06. Ctinomania 02:08
07. In The Depts Of Agony 02:39
08. Degeneracy And Killing 02:48
09. Drastic Infraction 03:24
10. In Flames 02:11
******************************
Total playing time: 25:11

[more=Extended info][youtube]ZZtZcsP793k[/youtube][/more]

[more=Technical info]
Input File: 03 - Bombastic Mindfucktion.mp3
Channels : 2
Sample Rate : 48000
Precision : 16-bit
Duration : 00:03:08.45 = 9045504 samples ~ 14133.6 CDDA sectors
File Size : 7.54M
Bit Rate : 320k
Sample Encoding: MPEG audio (layer I, II or III)
Comments :
Title=Bombastic Mindfucktion
Artist=Popcore Experience
Album=External Innocence [demo]
Tracknumber=03
Year=1996[/more]

Register
(11) Alc, caro, drbutcher, Evilded, FeM0N, Hell_Is_Here, metala, Proteus_666, Stringer, wreak, Xutun,
Jul 7 2012, 15:41:58 :tremor - Red Igelkott [ep] (2011)
ЦИТАТА(spazm @ Jul 7 2012, 17:32:36) *
Вы только потом из нее водку не пейте smile1.gif

дык, и не придётся, ибо напиток сей у нас не из любимых. мы же по коньяку спортсмены )))
(1) spazm,
Jul 7 2012, 15:00:39 :tremor - Red Igelkott [ep] (2011)


*Artist: :tremor
*Album: Red Igelkott [internet EP]
*Year: 2011
*Genre: Grindcore
*Country: Russian Federation
*Format: mp3@320kbps
*Size: 25MB

Tracklist:
1. Red Igelkott 01:37
2. Lenin Dolby Digital 03:19
3. Desensitized 00:52
4. Finka Butirka 02:07
******************************
Total playing time: 7:55

[more=Extended info]


Input File: 1. Red Igelkott.mp3
Channels : 2
Sample Rate : 44100
Precision : 16-bit
Duration : 00:01:37.83 = 4314347 samples = 7337.32 CDDA sectors
File Size : 3.91M
Bit Rate : 320k
Sample Encoding: MPEG audio (layer I, II or III)
Comments :
Title=Red Igelkott
Artist=:tremor
Album=Red Igelkott [internet EP]
Tracknumber=1
Year=2011
Genre=Chanson Grind

[/more]
Register
(15) abob, artscald, Black Cat, Disgorge666, Galactus, jared_wanted, Lanceatum, neoatheist, nsmetalhead, Proteus_666, recber, spazm, sperminator, varlam4, yuratroll,
Jun 14 2012, 17:25:23 Очень редкие альбомы и демки /Verу Rare Albums & Demos
Парни, оцифровал пару видеокассет с компиляцией Necroozoophilic (I и IV часть сборки)!!! К сожалению, сам выложить не могу, так как умер дисковод (во-первых), да и конечный продукт каждый получился по 4ГБ, поэтому, собственно, просто не знаю куда и как получившиеся DVD залить (во-вторых)...
Предлагаю такой вариант как - выслать по почте кому-нибудь, тому кто займётся smile3.gif
[youtube]VV3o1jR6UK0[/youtube]
(4) infiltrator, Mucupurulence, Proteus_666, spazm,
Jun 13 2012, 17:35:03 Очень редкие альбомы и демки /Verу Rare Albums & Demos
Далее - Necropsychosis (Eссентуки). Нашёл Каннибала (Александр Иванов), барабанщика группы. На вопрос о каких либо сохранившихся записях, демках, ответ: "Всё пошло прахом!", осталось лишь видео, которое ещё нужно оцифровать с VHS и пару аудиотреков. Один из них "Pesthouse (London 1666)" можно услышать на компиляции Chaotic Disentegration, которую все кому нужно, я думаю, скачали уже, ну а другой выкладываю чуть ниже...
Register

(4) Brutal, Necrodictator, Proteus_666, spazm,
Jun 13 2012, 16:28:55 Очень редкие альбомы и демки /Verу Rare Albums & Demos
Так-с... вроде как, никогда не встречал в UG-прессе никаких сведений о питерском Секаторе (что в списочке Ивана), помнится только, что кто-то упоминал мне о группе в период переписки бумажными письменами... но, дело до поисков кассетки и прослушивания тогда так и не дошло... Решил наверстать, как говорится, упущенное спустя годы и, как это не странно, нашёл одного из участников коллектива. Парни записали в 94-ом эдакий мини-альбом из пяти треков, один из которых вышел на каком-то питерском сборнике... Ну, и дальше вся история заканчивается... И, вобщем, крайне печальная она... На басиста напали гопники, разбили ему голову, сделав инвалидом... Группа распалась... Вот, наверное, вся информация которая пока есть...
Музыку оценить можно, скачав здесь:
Register
(3) AIK445, infiltrator, Proteus_666,
Jun 5 2012, 12:19:00 Cerber - Misanthropic Pantheon [demo] (1998)


*Artist: Cerber
*Album: Misanthropic Pantheon [demo]
*Year: 1998
*Genre: Death Metal
*Country: Russian Federation
*Format: mp3@320kbps
*Size: 50MB

Tracklist:
01. Intro 01:31
02. Misanthropic Pantheon 04:42
03. Sword Of Thanatos 03:32
04. Reason Sadly 03:21
05. Blasphemous Sacrifice 03:39
06. Funereal Ceremony (Outro) 04:52
******************************
Total playing time: 21:37

[more=Extended info][youtube]Ih0Lru6NyCg[/youtube]


Input File: 03 - Sword Of Thanatos.mp3
Channels : 2
Sample Rate : 44100
Precision : 16-bit
Duration : 00:03:23.46 = 8972718 samples = 15259.7 CDDA sectors
File Size : 8.46M
Bit Rate : 333k
Sample Encoding: MPEG audio (layer I, II or III)
Comments :
Title=Sword Of Thanatos
Artist=Cerber
Album=Misanthropic Pantheon
Tracknumber=03
Year=1998
Genre=Death Metal

[/more]

Register
(13) ancientlair, andreikun, artscald, beast666, gardenofdemise, Hell_Is_Here, Maniakk, PachakaKuraka, realexxx75, spazm, sperminator, varlam4, wanderer73,
May 28 2012, 18:28:10 Ceremony - Promo 1994 [demo] (1994)
ЦИТАТА(Mnbvcz @ May 24 2012, 22:16:28) *
Re-up, please!

Register
(12) cesar, Evgundel, Hell_Is_Here, ITNOR, Proteus_666, Spork, thenecromancer, tothegates, varlam4, warrr, Xtohar, XxNachtmahRxX,
May 19 2012, 11:32:35 Очень редкие альбомы и демки /Verу Rare Albums & Demos

Morbit - Born In Dense Forests [demo] (1996)
Register


Frozen Tears - Suicidal Fantasy [demo] (1998)



Last Serenade - rehearsal track
Register
(7) AIK445, Brutal, deadhead, Mucupurulence, Proteus_666, spazm, sperminator,
May 19 2012, 07:50:09 Frozen Tears - Suicidal Fantasy [demo] (1998)


*Artist: Frozen Tears
*Album: Suicidal Fantasy [demo]
*Year: 1998
*Genre: Gothic/Doom Metal
*Country: Russian Federation
*Format: mp3@320kbps
*Size: 70MB

Tracklist:
01. Gates of Suicide (Intro) 01:41
02. Into the Dark of Reason 06:31
03. Odd Story 02:00
04. Lost in Time 04:32
05. No Return / Lunar Rainbow 07:20
06. The Final Threshould 03:52
07. Major Abstraction 01:28
08. Garden of Dreams (Outro) 03:26
******************************
Total playing time: 30:50

[more=Extended info][youtube]_jeQZ5xj7vU[/youtube][/more]

Register
(10) AndreFrancis, artscald, Brutal, Cartman223, Proteus_666, senecazm, sperminator, VALERY, varlam4, Ихель,
May 15 2012, 15:40:57 Очень редкие альбомы и демки /Verу Rare Albums & Demos

CEMETERY. Саратовская группа, на обломках которой, образовались, собственно, уже известные нам YAMARAJA.

Register


(4) Proteus_666, spazm, sperminator, ssturm88,
May 12 2012, 12:19:35 Overlord - Overland [demo] (1995)


*Artist: Overlord
*Album: Overland [demo]
*Year: 1995
*Genre: Death Metal
*Country: Poland
*Format: mp3@128kbps
*Size: 36MB

Tracklist:
01. Walls 05:26
02. Numbers 06:13
03. Justidiro 05:01
04. Overland 04:42
05. Where Heaven Dies... 04:55
06. ... In Hell 06:20
07. After Us 05:51
08. When Shadows Dance 01:55
******************************
Total playing time: 40:23

[more=Extended info][youtube]Ytz8dfsSalY[/youtube][/more]

Register
(6) artscald, grimmstone, MeathookSeed, samokot, sperminator, varlam4,
May 7 2012, 09:01:33 Очень редкие альбомы и демки /Verу Rare Albums & Demos


РЕАНИМАТОР - Рок-Тусовка в ''Импульсе'' [live] 1994
Register
(3) AIK445, Proteus_666, spazm,
Apr 22 2012, 11:28:56 Sarcoma - Mental Mutilation [demo] (1991)
ЦИТАТА(olegator @ Apr 14 2012, 20:37:53) *
перезалейте плиз!)

Register

(1) olegator,
Mar 6 2012, 20:08:15 Lead Freedom - Promo [demo] (2000)
Lead Freedom - Camaraya [demo'98] (320 kbps / 136 Mb)
Register
(1) AIK445,
Jan 22 2012, 21:55:38 Очень редкие альбомы и демки /Verу Rare Albums & Demos
ssturm88
По моим данным нынешний гитарист POSTHUMOUS BLASPHEMER - Александр Гайдукевич играл когда-то в этой самой группе DEADFALL.
Сроков и всего остального не знаю. Просто как факт. Его в принципе реально найти и спросить. По крайней мере какая-то ниточка есть...
(1) ssturm88,
Jan 14 2012, 21:29:25 Clangforge - Какофония Плоти [demo] (1999)
чуток о камчатском андеграунде конца 90-х...
[youtube]s-vCNVqLzz0[/youtube]
(2) Proteus_666, spazm,
Jan 14 2012, 21:17:50 Очень редкие альбомы и демки /Verу Rare Albums & Demos
[youtube]5WRpnpFpYEo[/youtube] [youtube]YZ3AeSGTJTg[/youtube]
(1) Proteus_666,

6 Pages V   1 2 3 > » 
- Lo-Fi Version Support form
Copyrights and abuse reports form
Time is now: 5th March 2024 - 12:41:36