Welcome Guest ( Log In | Register )

История благодарностей участнику demenn ::: Спасибо сказали: 18320 раз(а)
Дата поста: В теме: За сообщение: Спасибо сказали:
May 27 2020, 11:03:37 Vitold - A Ruined Universe Never Attracts (2020)


*Artist: Vitold
*Album: A Ruined Universe Never Attracts
*Year: 2020
*Genre: Progressive/Melodic Death Metal
*Country: Russian Federation
*Format: mp3@CBR320kbps
*Size: 131MB

Tracklist:
01. Miragespace 04:51
02. The Gaze 05:24
03. Truthescape 05:33
04. Consciousness 05:22
05. Star Birthday 06:09
06. Shift To Some Another World 04:40
07. Dpr 03:49
08. Rune 04:15
09. IbtnMactybym 04:55
10. Time To Return 03:59
11. Observe Your Breath 08:19
******************************
Total playing time: 57:16




[more=Technical info]
Input File: 01. Miragespace.mp3
Channels : 2
Sample Rate : 44100
Precision : 16-bit
Duration : 00:04:47.60 = 12683204 samples = 21570.1 CDDA sectors
File Size : 11.5M
Bit Rate : 320k
Sample Encoding: MPEG audio (layer I, II or III)
Comments :
Title=Miragespace
Artist=Vitold
Album=A Ruined Universe Never Attracts
Tracknumber=01
Year=2020
Genre=Death Metal

[/more]

Register
(13) 0x13, akym, Bregon, chipsgott, DenisKov, eugenezzzis, infiltrator, Mares, Mogozoz, Olethros, Rosen, VALERY, Сварог Барг,
May 25 2020, 11:21:17 Sinister Downfall - A Dark Shining Light (2020)


*Artist: Sinister Downfall
*Album: A Dark Shining Light
*Year: 2020
*Genre: Funeral Doom Metal
*Country: Germany
*Format: mp3@CBR320kbps
*Size: 117MB

Tracklist:
01. A Dark Shining Light 14:08
02. Shape In The Mist 14:15
03. Reach For The Dead 07:07
04. Bury Your Thoughts 08:50
05. Behold Darkness 06:40
******************************
Total playing time: 51:01




[more=Extended info][youtube]iNb5kMe8I24[/youtube]
[youtube]LLSI0VXEWiQ[/youtube]
[youtube]Gu8F7GJT3eg[/youtube]
[youtube]yVuoZwqurXc[/youtube]
[youtube]tcuWR3cAGhE[/youtube][/more]

[more=Technical info]
Input File: 01. A Dark Shining Light.mp3
Channels : 2
Sample Rate : 44100
Precision : 16-bit
Duration : 00:14:08.12 = 37401872 samples = 63608.6 CDDA sectors
File Size : 33.9M
Bit Rate : 320k
Sample Encoding: MPEG audio (layer I, II or III)
Comments :
Title=A Dark Shining Light
Artist=Sinister Downfall
Album=A Dark Shining Light
Tracknumber=01
Year=2020
Genre=Doom Metal

[/more]

Register
(57) AlexSmith, alikkon, andreikun, autumnwood, Bloodn Lord, Buregon, cesar, chipsgott, doomTemplar, GAS, gav-gafi, gena, Guns, Hell_Is_Here, HMHamster, infiltrator, infozahist, Irimias, karpenka, krotovich, LEGION69, libertine, multizwilling, nadin85, nsk2008, Old Vyaine, Olethros, pahail, pothead, princeshr, randumbum, ripper33, robertho777, Rodriga, rominow, Rosen, RUDACHUR, russ777, SaintVitus, satanath, SatanicPanzer, Scuns, sergsazan, Shadechaser, singrad, skidnik, StoneTemple, stub888, supremo, Terrorizer, thenecromancer, VALERY, veselchak_u, vosmidesijatye, vyacheslav, Woosad, wreak,
May 22 2020, 10:46:59 Lascar - Distant Imaginary Oceans (2020)


*Artist: Lascar
*Album: Distant Imaginary Oceans
*Year: 2020
*Genre: Atmospheric Black Metal
*Country: Chile
*Format: mp3@CBR320kbps
*Size: 100MB

Tracklist:
01. Atlantic Tainted Gloom 08:00
02. Novelization 06:24
03. The Lights On The Ocean 07:11
04. Destined To Saturn 07:24
05. Incorporeal Water Latency 07:49
06. Ode To The Sea 06:53
******************************
Total playing time: 43:43



[more=Technical info]
Input File: 01. Atlantic Tainted Gloom.mp3
Channels : 2
Sample Rate : 44100
Precision : 16-bit
Duration : 00:08:01.15 = 21218803 samples = 36086.4 CDDA sectors
File Size : 19.2M
Bit Rate : 320k
Sample Encoding: MPEG audio (layer I, II or III)
Comments :
Title=Atlantic Tainted Gloom
Artist=Lascar
Album=Distant Imaginary Oceans
Tracknumber=01
Year=2020
Genre=Black Metal

[/more]

Register
(30) 1968_janeart, alikkon, Druidir, exorcist1969, infiltrator, kim666, Korpse, Lunaris, Maximvs, metala, Mogozoz, multizwilling, murian, nsk2008, oldvarg, Olethros, pahail, randumbum, robertho777, Rosen, SameMan, senecazm, sergsazan, Shadechaser, SilentNidhogg, stone88, tamerz, VALERY, varlam4, vasiljev_sergej,
May 18 2020, 23:05:38 Storming - Feast Of Blood In The Heart Of The World (2020)


*Artist: Storming
*Album: Feast Of Blood In The Heart Of The World
*Year: 2020
*Genre: Atmospheric Black Metal
*Country: United States
*Format: mp3@CBR320kbps
*Size: 96MB

Tracklist:
01. Storms Of This Infinite Ocean 03:11
02. Thrones Are Raised 11:10
03. Nightcastle 06:57
04. The Coming Centuries Of Tragedy 12:35
05. Infinite Spirit Strangling Waves Of Darkness 08:06
******************************
Total playing time: 42:00



[more=Technical info]
Input File: 02 Thrones Are Raised.mp3
Channels : 2
Sample Rate : 44100
Precision : 16-bit
Duration : 00:11:10.11 = 29551719 samples = 50258 CDDA sectors
File Size : 26.8M
Bit Rate : 320k
Sample Encoding: MPEG audio (layer I, II or III)
Comments :
Title=Thrones Are Raised
Artist=Storming
Album=Feast Of Blood In The Heart Of The World
Tracknumber=02
Year=2020
Genre=Black Metal

[/more]

Register
(24) 1968_janeart, AlexSmith, alikkon, Indamage, infiltrator, kim666, Ludwig Hagen, Lukittaz, multizwilling, murian, Narasimha, nemx, Occultas, Olethros, pahail, randumbum, robertho777, Rosen, senecazm, sergsazan, SilentNidhogg, VALERY, varlam4, vasiljev_sergej,
May 17 2020, 16:28:09 Unreqvited - Empathica (2020)


*Artist: Unreqvited
*Album: Empathica
*Year: 2020
*Genre: Atmospheric/Post-Black Metal
*Country: Canada
*Format: mp3@CBR320kbps
*Size: 110MB

Tracklist:
01. Empathica I: Heart Of The Spectral Mountains 04:53
02. Empathica II: Everwinter 08:32
03. Empathica III: Innocence 09:56
04. Crystal Cascade 08:49
05. Snowspirits Of The Arcane 04:00
06. The Permafrost 04:30
07. Dreamer's Hideaway 07:21
******************************
Total playing time: 48:04



[more=Technical info]
Input File: 02 - Empathica II Everwinter.mp3
Channels : 2
Sample Rate : 44100
Precision : 16-bit
Duration : 00:08:32.16 = 22586344 samples = 38412.1 CDDA sectors
File Size : 20.5M
Bit Rate : 320k
Sample Encoding: MPEG audio (layer I, II or III)
Comments :
Title=Empathica II: Everwinter
Artist=Unreqvited
Album=Empathica
Tracknumber=02
Year=2020
Genre=Black Metal

[/more]

Register
(32) 1968_janeart, aleon, autumnwood, boby9052, Corpuscul, Druidir, ErikGoth, Fallen Soul, Farung, Femto, infiltrator, kim666, kimkayoung, LEGION69, Lunaris, Maximvs, MMMMM, murian, Old Vyaine, oldvarg, Olethros, pahail, randumbum, Rikardo90, robertho777, Rosen, senecazm, Shadechaser, Torop, VALERY, varlam4, Yorker,
May 17 2020, 11:05:03 Ortro - Scisma [ep] (2020)


*Artist: Ortro
*Album: Scisma [ep]
*Year: 2020
*Genre: Black Metal
*Country: Italy
*Format: mp3@CBR320kbps
*Size: 60MB

Tracklist:
01. Grotta 07:15
02. D-Io Vero 04:07
03. Noi, Divisione Arditi 07:49
04. La Ruota 07:01
******************************
Total playing time: 26:14





[more=Technical info]
Input File: 01. Grotta.mp3
Channels : 2
Sample Rate : 44100
Precision : 16-bit
Duration : 00:07:15.33 = 19198097 samples = 32649.8 CDDA sectors
File Size : 17.4M
Bit Rate : 320k
Sample Encoding: MPEG audio (layer I, II or III)
Comments :
Title=Grotta
Artist=Ortro
Album=Scisma
Tracknumber=01
Year=2020
Genre=Black Metal

[/more]

Register
(12) CheCoola, Ildjarn, infiltrator, kim666, Olethros, randumbum, robertho777, Rosen, SilentNidhogg, thenecromancer, VALERY, varlam4,
May 16 2020, 23:26:34 Ruadh - The Rock Of The Clyde (2020)


*Artist: Ruadh
*Album: The Rock Of The Clyde
*Year: 2020
*Genre: Atmospheric Black Metal
*Country: United Kingdom
*Format: mp3@CBR320kbps
*Size: 124MB

Tracklist:
01. Embers 10:00
02. The Rock Of The Clyde 10:20
03. Winters Light 09:01
04. Fields Of Heather 10:56
05. Only Distant Echoes Reign (Part 1) 04:44
06. Only Distant Echoes Reign (Part 2) 08:54
******************************
Total playing time: 53:58



[more=Technical info]
Input File: 01. Embers.mp3
Channels : 2
Sample Rate : 44100
Precision : 16-bit
Duration : 00:10:00.88 = 26498720 samples = 45065.9 CDDA sectors
File Size : 24.0M
Bit Rate : 320k
Sample Encoding: MPEG audio (layer I, II or III)
Comments :
Title=Embers
Artist=Ruadh
Album=The Rock Of The Clyde
Tracknumber=01
Year=2020
Genre=Black Metal

[/more]

Register
(46) 1968_janeart, ahp, alikkon, andeimon, Andr, Boozer, Brutal, cist, daemonarch, Druidir, Faust2016, GorAtheist, infiltrator, kim666, Korpse, krotovich, Lamby90, metaljinie, multizwilling, murian, nsk2008, Old Vyaine, oldvarg, Olethros, Olrak, pahail, randumbum, robertho777, Rosen, russ777, senecazm, serjred, Shadechaser, SilentNidhogg, singrad, sperminator, SS2998, Strid, TeamatSE, terron, vader69, VALERY, varlam4, vasiljev_sergej, wreak, Авел,
May 13 2020, 23:45:47 Mroh - The Story (2020)


*Artist: Mroh
*Album: The Story
*Year: 2020
*Genre: Atmospheric Black Metal
*Country: Russian Federation
*Format: mp3@CBR320kbps
*Size: 83MB

Tracklist:
01. Void 00:36
02. Creation 01:48
03. Appearance 03:06
04. Formation 03:41
05. Treachery 03:18
06. Trespass 03:36
07. Despair 02:30
08. Repentace 03:05
09. Redemption 06:08
10. Death 03:52
11. Oblivion 04:20
******************************
Total playing time: 36:04



[more=Technical info]
Input File: 03. Appearance.mp3
Channels : 2
Sample Rate : 44100
Precision : 16-bit
Duration : 00:03:06.08 = 8206260 samples = 13956.2 CDDA sectors
File Size : 7.45M
Bit Rate : 320k
Sample Encoding: MPEG audio (layer I, II or III)
Comments :
Title=Appearance
Artist=MROH
Album=The Story
Tracknumber=03
Year=2020
Genre=Black Metal

[/more]

Register
(24) 1968_janeart, alikkon, Hroft, infiltrator, kim666, Lukittaz, Mo-Ha, multizwilling, oldvarg, Olethros, Ostinato, randumbum, robertho777, Rosen, russ777, satanist666, senecazm, Shadechaser, SilentNidhogg, tamerz, VALERY, varlam4, vasiljev_sergej, Victim of fate,
May 11 2020, 11:02:47 Wintaar - In The Wolfmoon's Shadow (2020)


*Artist: Wintaar
*Album: In The Wolfmoon's Shadow
*Year: 2020
*Genre: Atmospheric Black Metal
*Country: Russian Federation
*Format: mp3@CBR320kbps
*Size: 91MB

Tracklist:
01. The Owl's Oak 04:04
02. Palemoon, Deadwinds 05:44
03. Sovereign Night 05:45
04. ... Where Are Only Shadows Of The Dead Ravens 05:48
05. Winterhowl Of Darkness 05:26
06. Death And A Thousand Moons 04:48
07. Polud's Black Flame 08:15
******************************
Total playing time: 39:53



[more=Technical info]
Input File: 02. Palemoon, Deadwinds.mp3
Channels : 2
Sample Rate : 44100
Precision : 16-bit
Duration : 00:05:44.86 = 15208502 samples = 25864.8 CDDA sectors
File Size : 13.8M
Bit Rate : 320k
Sample Encoding: MPEG audio (layer I, II or III)
Comments :
Title=Palemoon, Deadwinds
Artist=Wintaar
Album=In The Wolfmoon's Shadow
Tracknumber=02
Year=2020
Genre=Black Metal

[/more]

Register
(31) 0x13, 1968_janeart, alikkon, cesar, Der_Hexer, Hroft, infiltrator, kim666, Lamby90, Ludwig Hagen, Lukittaz, MMMMM, multizwilling, nemx, oldvarg, Olethros, Ostinato, randumbum, robertho777, Rosen, SaintVitus, senecazm, serjred, Shadechaser, SilentNidhogg, Surt, VALERY, varlam4, vovenom, Wail, дивин,
May 11 2020, 10:32:17 Twilight Fauna - Foundations (2020)


*Artist: Twilight Fauna
*Album: Foundations
*Year: 2020
*Genre: Atmospheric Black Metal
*Country: United States
*Format: mp3@CBR320kbps
*Size: 143MB

Tracklist:
01. Am I Born To Die 01:58
02. Tavern Hill 13:03
03. The Silence Between The Trees 03:04
04. Into The Hands Of Night 09:06
05. A Voice In The Wilderness 08:16
06. Under The Falling Snow 09:00
07. The Breeze Through Willows 05:20
08. Fires Carry You Home 03:55
09. In A Breath 04:25
10. West Virginia Mine Disaster 04:25
******************************
Total playing time: 1:02:32



[more=Technical info]
Input File: 02.Tavern Hill.mp3
Channels : 2
Sample Rate : 44100
Precision : 16-bit
Duration : 00:13:03.88 = 34568932 samples = 58790.7 CDDA sectors
File Size : 31.4M
Bit Rate : 320k
Sample Encoding: MPEG audio (layer I, II or III)
Comments :
Title=Tavern Hill
Artist=Twilight Fauna
Album=Foundations
Tracknumber=02
Year=2020
Genre=Black Metal

[/more]

Register
(28) 1968_janeart, ahp, BandR75, cesar, fallen, Hroft, infiltrator, kim666, kolar666, kranger, Lamby90, Lukittaz, maxapero, metala, Ostinato, randumbum, robertho777, Rosen, russ777, senecazm, sergsazan, Shadechaser, SilentNidhogg, singrad, VALERY, varlam4, vasiljev_sergej, Wail,
May 7 2020, 18:29:30 Until My Funerals Began & In Lacrimaes Et Dolor & Sepultus Est - Until My Funerals Began/In Lacrimaes Et Dolor/Sepultus Est [split] (2020)


*Artist: Until My Funerals Began & In Lacrimaes Et Dolor & Sepultus Est
*Album: Until My Funerals Began/In Lacrimaes Et Dolor/Sepultus Est [split]
*Year: 2020
*Genre: Funeral Doom Metal | Funeral Doom Metal | Funeral Doom Metal
*Country: Ukraine | Italy | Peru
*Format: mp3@CBR320kbps
*Size: 162MB

Tracklist:
Until My Funerals Began:
01. Immersion 12:14
02. 1/50/176/WWIII 10:59
In Lacrimaes Et Dolor:
03. When Time Will Come 19:19
Sepultus Est:
04. Requiem 28:18
******************************
Total playing time: 1:10:52



[more=Technical info]
Input File: 01. Immersion.mp3
Channels : 2
Sample Rate : 44100
Precision : 16-bit
Duration : 00:12:15.05 = 32415749 samples = 55128.8 CDDA sectors
File Size : 29.4M
Bit Rate : 320k
Sample Encoding: MPEG audio (layer I, II or III)
Comments :
Title=Immersion
Artist=Until My Funerals Began
Album=Until My Funerals Began / In Lacrimaes Et Dolor / Sepultus Est
Tracknumber=01
Year=2020
Genre=Doom Metal

[/more]

Register
(20) Bloodn Lord, deadterror, gena, Hell_Is_Here, infiltrator, libertine, Lukittaz, mas17, Noxius, randumbum, recber, robertho777, Rosen, Shadechaser, Sphinx7, supremo, VALERY, wreak, Zenial, Герб,
May 2 2020, 20:55:00 Kalmankantaja - Talventuoja (2020)


*Artist: Kalmankantaja
*Album: Talventuoja
*Year: 2020
*Genre: Atmospheric Black Metal
*Country: Finland
*Format: mp3@CBR320kbps
*Size: 81MB

Tracklist:
01. Houre 09:01
02. Hämärän Lapsi 12:21
03. Uhri 07:22
04. Kuolleiden Kehtolaulu 06:35
******************************
Total playing time: 35:20



[more=Technical info]
Input File: 01. Houre.mp3
Channels : 2
Sample Rate : 44100
Precision : 16-bit
Duration : 00:09:01.60 = 23884692 samples = 40620.2 CDDA sectors
File Size : 21.7M
Bit Rate : 320k
Sample Encoding: MPEG audio (layer I, II or III)
Comments :
Title=Houre
Artist=Kalmankantaja
Album=Talventuoja
Tracknumber=01
Year=2020
Genre=Black Metal

[/more]

Register
(57) 1968_janeart, alikkon, andivi, autumnwood, BERZERK, Boozer, Buregon, exorcist1969, Femto, fuoco, gav-gafi, gena, GuldenDraak, Hell_Is_Here, horss, Ildjarn, infiltrator, kim666, kolar666, Korpse, Lamby90, Lanceatum, lucifix, Lukittaz, Maximvs, multizwilling, nikolay81, oldvarg, Olethros, Ostinato, pahail, randumbum, Razorbladeswaltz, Rikardo90, robertho777, Rosen, SaintVitus, SameMan, sandr666, satanist666, senecazm, sergsazan, Shadechaser, SilentNidhogg, Surt, Torop, Tyrone, VALERY, varg-38ru, varlam4, vasiljev_sergej, vovenom, warrr, ZA670, Zenial, zobero, Козлотролль,
Apr 27 2020, 16:56:39 Logos - Of Darkness And Despair (2020) (4) infiltrator, isvili, Olethros, varg-38ru,
Apr 27 2020, 11:58:40 In Tenebriz - Bitter Wine Of Summer (2020)


*Artist: In Tenebriz
*Album: Bitter Wine Of Summer
*Year: 2020
*Genre: Atmospheric Black Metal/Ambient
*Country: Russian Federation
*Format: mp3@CBR320kbps
*Size: 95MB

Tracklist:
01. With A Taste Of Wormwood 03:42
02. Bitter Wine Of Summer 05:43
03. Into Crimson Oblivion 05:19
04. Stellar Dust 06:11
05. Grass Still Remembers Your Trace 03:46
06. Heart In The Pattern Of Roots 05:38
07. The Birth Of August 07:15
08. Let The Night Do The Talking 03:56
******************************
Total playing time: 41:34



[more=Extended info][youtube]PYly-JdjkzQ[/youtube]
[youtube]9kZIYK0pdfw[/youtube]
[youtube]QgUFeJLcm7M[/youtube]
[youtube]dzUXM4s4oJQ[/youtube][/more]

[more=Technical info]
Input File: 02. Bitter Wine Of Summer.mp3
Channels : 2
Sample Rate : 44100
Precision : 16-bit
Duration : 00:05:43.38 = 15142838 samples = 25753.1 CDDA sectors
File Size : 13.7M
Bit Rate : 320k
Sample Encoding: MPEG audio (layer I, II or III)
Comments :
Title=Bitter Wine Of Summer
Artist=In Tenebriz
Album=Bitter Wine Of Summer
Tracknumber=02
Year=2020
Genre=Black Metal

[/more]

Register
(20) AlexHellhammer1602, infiltrator, judaz, kim666, Lukittaz, Maximvs, oldvarg, Olethros, robertho777, Rosen, SatanicPanzer, satanist666, senecazm, sergsazan, SilentNidhogg, SS2998, VALERY, varlam4, Wolftribes, Zenial,
Apr 27 2020, 10:51:38 Logos - Of Darkness And Despair (2020)


*Artist: Logos
*Album: Of Darkness And Despair
*Year: 2020
*Genre: Black Metal
*Country: Russian Federation
*Format: mp3@CBR320kbps
*Size: 83MB

Tracklist:
01. In The Woods Of Cold And Forgotten Memories 02:58
02. Prometheus 05:44
03. Shadows Over Nameless City 02:54
04. Of Darkness And Despair 05:19
05. Into The Spiral Dimension (feat Nordloth from Svartskaldr) 06:31
06. Nostalgia 04:41
07. Fullmoon Alchemy 09:28
******************************
Total playing time: 37:39


Preview 2

[more=Technical info]
Input File: 02 Prometheus.mp3
Channels : 2
Sample Rate : 44100
Precision : 16-bit
Duration : 00:05:45.02 = 15215426 samples = 25876.6 CDDA sectors
File Size : 13.8M
Bit Rate : 320k
Sample Encoding: MPEG audio (layer I, II or III)
Comments :
Title=Prometheus
Artist=Logos
Album=Of Darkness And Despair
Tracknumber=02
Year=2020
Genre=Black Metal

[/more]

Register

Register
(22) alikkon, atavist, Cyrci, Hell_Is_Here, Ildjarn, infiltrator, kim666, multizwilling, oldvarg, Olethros, randumbum, robertho777, Rosen, satanist666, SilentNidhogg, SS2998, VALERY, varg-38ru, varlam4, vasiljev_sergej, vovenom, Wail,
Apr 26 2020, 10:39:56 Kuolemajarvi - Kuolemajarvi (2020)


*Artist: Kuolemajarvi
*Album: Kuolemajarvi
*Year: 2020
*Genre: Atmospheric Black Metal
*Country: Russian Federation
*Format: mp3@CBR320kbps
*Size: 77MB

Tracklist:
01. I 06:05
02. II 07:03
03. III 04:14
04. IV 03:20
05. V 07:40
06. VI 05:26
******************************
Total playing time: 33:51



[more=Technical info]
Input File: 01. I.mp3
Channels : 2
Sample Rate : 44100
Precision : 16-bit
Duration : 00:06:05.82 = 16132486 samples = 27436.2 CDDA sectors
File Size : 14.6M
Bit Rate : 320k
Sample Encoding: MPEG audio (layer I, II or III)
Comments :
Title=I
Artist=Kuolemajarvi
Album=Kuolemajarvi
Tracknumber=01
Year=2020
Genre=Black Metal

[/more]

Register
(28) alikkon, cesar, Hvergelmir, infiltrator, judaz, kim666, Kodel, LEGION69, metala, Moonshtook, nadin85, oldvarg, Olethros, Painkiller, QuadenThyrane, randumbum, Razorbladeswaltz, robertho777, Rosen, satanist666, senecazm, SilentNidhogg, stone88, tOmV, VALERY, varlam4, Wolftribes, Сварог Барг,
Apr 23 2020, 12:48:48 Оркестр Утопленников - Northern Aurora (2020)


*Artist: Оркестр Утопленников
*Album: Northern Aurora
*Year: 2020
*Genre: Atmospheric/Post-Black Metal
*Country: Russian Federation
*Format: mp3@CBR320kbps
*Size: 85MB

Tracklist:
01. Northern Aurora 07:20
02. Power Of The North 06:45
03. Runescript Of Darkness 07:21
04. Frozen Land 06:43
05. Dark Ritual (Lonely Universe) 08:53
******************************
Total playing time: 37:03


Preview 2

[more=Technical info]
Input File: 01 Northern Aurora (Album Version).mp3
Channels : 2
Sample Rate : 44100
Precision : 16-bit
Duration : 00:07:20.37 = 19420449 samples = 33028 CDDA sectors
File Size : 17.6M
Bit Rate : 320k
Sample Encoding: MPEG audio (layer I, II or III)
Comments :
Title=Northern Aurora (Album Version)
Artist=Оркестр Утопленников
Album=Northern Aurora
Tracknumber=01
Year=2020
Genre=Black Metal

[/more]

Register
(13) infiltrator, Old Vyaine, Olethros, randumbum, robertho777, Rosen, satanist666, senecazm, Shadechaser, stone88, VALERY, varlam4, vasiljev_sergej,
Apr 22 2020, 07:14:18 Elffor - Unholy Throne Of Doom (2020) (8) Arkwulf, Ellaya, infiltrator, Lucju, Maximvs, Olethros, Tarkron, varg-38ru,
Apr 21 2020, 12:00:07 Elffor - Unholy Throne Of Doom (2020)


*Artist: Elffor
*Album: Unholy Throne Of Doom
*Year: 2020
*Genre: Ambient/Atmospheric Black Metal
*Country: Spain
*Format: mp3@CBR320kbps
*Size: 106MB

Tracklist:
01. March Of The Dead Souls 12:58
02. Basoaren Marmarrak 10:17
03. Old Wizards Cavern 11:32
04. Kaosaren Profezia 11:19
******************************
Total playing time: 46:07



[more=Technical info]
Input File: 01 March Of The Dead Souls.mp3
Channels : 2
Sample Rate : 44100
Precision : 16-bit
Duration : 00:12:58.55 = 34333923 samples = 58391 CDDA sectors
File Size : 31.1M
Bit Rate : 320k
Sample Encoding: MPEG audio (layer I, II or III)
Comments :
Title=March Of The Dead Souls
Artist=Elffor
Album=Unholy Throne Of Doom
Tracknumber=01
Year=2020
Genre=Black Metal

[/more]

Register
(69) 1968_janeart, Aamiinaa, ALBIGON, AlexSmith, alikkon, avather, Boozer, Buregon, Bzth, Demonic, demonosz, doomTemplar, Doooomed, Dragonballz, DrStan, Ellaya, Fallen Soul, featb, Femto, Fess, GorAtheist, igore2911, Ildjarn, infiltrator, Jackyl, Kazoth, kim666, kimkayoung, Lamby90, LEGION69, Moonshtook, multizwilling, nadin85, NappyRob, nemx, obituarydark, OfDoom, Old Vyaine, oldvarg, Olethros, Pinhead666, Postal, rabindranad, rammstein888, randumbum, recber, Reverend, robertho777, Rosen, SaintVitus, satanist666, senecazm, Shadechaser, smes, stone88, Strygaldwir, stub888, Surt, talismanFS, Tarkron, tOmV, varg-38ru, varlam4, vasiljev_sergej, Wail, Wolftribes, zargonath, Герб, Например,
Apr 13 2020, 13:18:28 I Miss My Death - Mysto (2020)


*Artist: I Miss My Death
*Album: Mysto
*Year: 2020
*Genre: Symphonic/Gothic Doom Metal
*Country: Ukraine
*Format: mp3@CBR320kbps
*Size: 90MB

Tracklist:
01. Спогад 04:29
02. На Чорних Схилах 04:21
03. Господар 03:55
04. Голоси Сіють Істину 03:33
05. Примара 04:17
06. Дім Невтішної Вдови 06:20
07. Чортів Тягар 06:22
08. Маргарита 05:45
******************************
Total playing time: 39:03

Preview 1

[more=Technical info]
Input File: 01. Спогад.mp3
Channels : 2
Sample Rate : 44100
Precision : 16-bit
Duration : 00:04:29.24 = 11873308 samples = 20192.7 CDDA sectors
File Size : 10.8M
Bit Rate : 320k
Sample Encoding: MPEG audio (layer I, II or III)
Comments :
Title=Спогад
Artist=I Miss My Death
Album=Mysto
Tracknumber=01
Year=2020
Genre=Symphonic Metal

[/more]

Register
(21) aleon, Alpha_Prime, blackwingtsi, Cartman223, chipsgott, Darkness, gwynnbleid, infiltrator, infozahist, kimkayoung, maxapero, metaljinie, morbidangelo, Olethros, SatanicPanzer, Shadechaser, ShadMAD, terron, VALERY, woldemort, Сварог Барг,
Apr 8 2020, 07:36:51 Nordicwinter - Requiem (2020)


*Artist: Nordicwinter
*Album: Requiem
*Year: 2020
*Genre: Black Metal
*Country: Canada
*Format: mp3@CBR320kbps
*Size: 104MB

Tracklist:
01. The Raven's Lament 08:09
02. As Twilight Nears 08:11
03. Path Of The Fallen 06:41
04. Winds Of Desolation 07:12
05. Into Despair 06:48
06. Beyond The Dusk 08:19
******************************
Total playing time: 45:22




[more=Technical info]
Input File: 01. The Raven\'s Lament.mp3
Channels : 2
Sample Rate : 44100
Precision : 16-bit
Duration : 00:08:09.80 = 21600180 samples = 36735 CDDA sectors
File Size : 19.6M
Bit Rate : 320k
Sample Encoding: MPEG audio (layer I, II or III)
Comments :
Title=The Raven's Lament
Artist=Nordicwinter
Album=Requiem
Tracknumber=01
Year=2020
Genre=Black Metal

[/more]

Register
(16) 1968_janeart, atavist, Buregon, Doooomed, infiltrator, kim666, korovakaska, Lamby90, Olethros, randumbum, Razorbladeswaltz, Rosen, satanist666, stub888, vasiljev_sergej, Wotanwatch,
Mar 27 2020, 04:07:35 Black Cult - Nekropola (2020)


*Artist: Black Cult
*Album: Nekropola
*Year: 2020
*Genre: Black Metal
*Country: Croatia
*Format: mp3@CBR320kbps
*Size: 96MB

Tracklist:
01. Parasite 05:05
02. Cosmic Storm 05:31
03. Likantropija 04:48
04. Misanthropic Luciferian Psalm 06:35
05. Nekropola 04:57
06. Fear Is For Fools (Hibernum cover) 04:36
07. Nistavilo 06:03
08. Catharsis 04:29
******************************
Total playing time: 42:09



[more=Extended info][youtube]NRkRl-EXGh4[/youtube][youtube]nf9bPH6-y3A[/youtube]
[youtube]o3bCiG7e0U4[/youtube][/more]

[more=Technical info]
Input File: 02. Cosmic Storm.mp3
Channels : 2
Sample Rate : 44100
Precision : 16-bit
Duration : 00:05:32.01 = 14641685 samples = 24900.8 CDDA sectors
File Size : 13.3M
Bit Rate : 320k
Sample Encoding: MPEG audio (layer I, II or III)
Comments :
Title=Cosmic Storm
Artist=Black Cult
Album=Nekropola
Tracknumber=02
Year=2020
Genre=Black Metal

[/more]

Register
(17) atavist, DarkHorde, exorcist1969, infiltrator, kim666, Olethros, Ostinato, robertho777, satanist666, SilentNidhogg, stub888, Tino, toly1917, VALERY, varlam4, vasiljev_sergej, yuratroll,
Mar 26 2020, 16:48:51 Welicoruss - Siberian Heathen Horde (2020)


*Artist: Welicoruss
*Album: Siberian Heathen Horde
*Year: 2020
*Genre: Sympho Black Metal
*Country: Russian Federation
*Format: mp3@CBR320kbps
*Size: 108MB

Tracklist:
01. Spellcaster 06:12
02. Siberian Heathen Horde 05:20
03. Path Of Seductions 05:01
04. Frostbounded 05:08
05. Metaphysical 07:01
06. Tree Of Nations 05:39
07. Crossroad Of Life (orchestral instrumental) 01:48
08. The Prophecy 04:55
09. Hymn Of Lost Souls 06:07
******************************
Total playing time: 47:15


Preview 2

[more=Technical info]
Input File: 01 - Spellcaster.mp3
Channels : 2
Sample Rate : 44100
Precision : 16-bit
Duration : 00:06:12.69 = 16435453 samples = 27951.5 CDDA sectors
File Size : 14.9M
Bit Rate : 320k
Sample Encoding: MPEG audio (layer I, II or III)
Comments :
Title=Spellcaster
Artist=Welicoruss
Album=Siberian Heathen Horde
Tracknumber=01
Year=2020
Genre=Black Metal

[/more]

Register
(46) alikkon, Antkh, Aresson, autumnwood, cist, demonosz, dimitris p., Femto, HMHamster, igorzz, infiltrator, judaz, Kasper969, kim666, kimkayoung, Lukittaz, metal73, metaljosue, Mogozoz, Morgoth, multizwilling, nsk2008, Old Vyaine, oldvarg, Olethros, Orgasmik, robertho777, Rodriga, Sanctus, SatanicPanzer, satanist666, senecazm, Shadechaser, SilentNidhogg, talismanFS, TeamatSE, toly1917, tt2008, VALERY, varlam4, VLADISLAV_V_K, wreak, yuratroll, zolotoiskatel, металлист, Сварог Барг,
Mar 22 2020, 21:47:23 Sea Of Desperation - Atonement (2020)


*Artist: Sea Of Desperation
*Album: Atonement
*Year: 2020
*Genre: Melodic Doom/Death Metal
*Country: Russian Federation
*Format: mp3@CBR320kbps
*Size: 107MB

Tracklist:
01. Tragedy Of Unspoken 05:31
02. Insomaniac 05:32
03. Atonement 04:52
04. Coub 06:03
05. Ashen Garden 04:22
06. Heart Of Dreams 05:33
07. Time To Leave 05:15
08. Upon The Longing Wood 05:16
09. Unbeliever 04:18
******************************
Total playing time: 46:46

Preview 1

[more=Extended info][youtube]qjrLeNvqn_E[/youtube][/more]

[more=Technical info]
Input File: 02. Insomaniac.mp3
Channels : 2
Sample Rate : 44100
Precision : 16-bit
Duration : 00:05:32.66 = 14670482 samples = 24949.8 CDDA sectors
File Size : 13.3M
Bit Rate : 320k
Sample Encoding: MPEG audio (layer I, II or III)
Comments :
Title=Insomaniac
Artist=Sea Of Desperation
Album=Atonement
Tracknumber=02
Year=2020
Genre=Doom Metal

[/more]

Register
(49) 6666666, alikkon, Alpha_Prime, autumnwood, Bloodn Lord, chefo, Deada, DenisKov, doomTemplar, Fess, Hell_Is_Here, Indamage, infiltrator, kimkayoung, kluval, libertine, metala, Metalass, metaljinie, mintare, Mogozoz, morbidangelo, Morgoth, multizwilling, Old Vyaine, oldvarg, Olethros, Paradayz, Phlebotomized, rabindranad, randumbum, robertho777, Rodriga, Sanctus, SatanicPanzer, scorn33, senecazm, Shadechaser, StabWound, StoneTemple, TeamatSE, tOmV, Un4given, VALERY, varlam4, wreak, zolotoiskatel, Герб, Сварог Барг,
Mar 22 2020, 09:01:36 Olhava - Ladoga (2020)


*Artist: Olhava
*Album: Ladoga
*Year: 2020
*Genre: Post-Black Metal
*Country: Russian Federation
*Format: mp3@CBR320kbps
*Size: 163MB

Tracklist:
01. Ageless River I 05:42
02. Smoldering Woodland 09:17
03. Ageless River II 01:00
04. Trembling Night 17:46
05. Ageless River III 03:50
06. The Heart Is A Lonely Hunter 14:33
07. Ageless River IV 04:00
08. Ladoga 12:00
09. Ageless River V 03:02
******************************
Total playing time: 1:11:15



[more=Technical info]
Input File: 02 Smoldering Woodland.mp3
Channels : 2
Sample Rate : 44100
Precision : 16-bit
Duration : 00:09:17.20 = 24572476 samples = 41789.9 CDDA sectors
File Size : 22.3M
Bit Rate : 320k
Sample Encoding: MPEG audio (layer I, II or III)
Comments :
Title=Smoldering Woodland
Artist=Olhava
Album=Ladoga
Tracknumber=02
Year=2020
Genre=Black Metal

[/more]

Register
(25) 1968_janeart, Bregon, cesar, eternald, ikki, infiltrator, kim666, Lamby90, Malzus, Morgoth, murian, n1ko, Old Vyaine, Olethros, Ostinato, pahail, Razorbladeswaltz, robertho777, rominow, SAPOGi, stone88, vasiljev_sergej, wreak, zolotoiskatel, Авел,

40 Pages V   1 2 3 > » 
- Lo-Fi Version Support form
Copyrights and abuse reports form
Time is now: 18th October 2021 - 01:16:41