Welcome Guest ( Log In | Register )

История благодарностей участнику RotAnus ::: Спасибо сказали: 5989 раз(а)
Дата поста: В теме: За сообщение: Спасибо сказали:
Feb 2 2023, 20:18:04 Alantia - Remnants Of A Dream [ep] (2012)


*Artist: Alantia
*Album: Remnants Of A Dream [ep]
*Year: 2012
*Genre: Symphonic Metal
*Country: Netherlands
*Format: mp3@CBR320kbps
*Size: 92MB

Tracklist:
1. Moondale 06:10
2. Erase All Trace 05:25
3. Somnium 06:17
4. Ladyhawke 05:53
5. Waltz 05:32
6. Tempted Dark Art 11:01
******************************
Total playing time: 40:18



[more=Technical info]
Input File: 2 Erase All Trace.mp3
Channels : 2
Sample Rate : 48000
Precision : 16-bit
Duration : 00:05:25.25 = 15612048 samples ~ 24393.8 CDDA sectors
File Size : 13.0M
Bit Rate : 320k
Sample Encoding: MPEG audio (layer I, II or III)
Comments :
Title=Erase All Trace
Artist=Alantia
Album=Remnants of a Dream (EP)
Tracknumber=2
Year=2012
Genre=Metal

[/more]

Register
(5) after21allD, AHBAnep, Grev, gwar, Wail,
Feb 2 2023, 20:17:01 Alantia - Alantia [demo] (2010)


*Artist: Alantia
*Album: Alantia [demo]
*Year: 2010
*Genre: Symphonic Metal
*Country: Netherlands
*Format: mp3@CBR320kbps
*Size: 72MB

Tracklist:
1. Solitary Life 03:42
2. To Your Demise 05:20
3. Echoes of Perdition 07:15
4. Pictures of My Past 04:40
5. The Watcher 06:21
6. Deceit 04:20
******************************
Total playing time: 31:38



[more=Technical info]
Input File: 6 Deceit.mp3
Channels : 2
Sample Rate : 48000
Precision : 16-bit
Duration : 00:04:20.55 = 12506256 samples ~ 19541 CDDA sectors
File Size : 10.4M
Bit Rate : 320k
Sample Encoding: MPEG audio (layer I, II or III)
Comments :
Title=Deceit
Artist=Alantia
Album=Alantia (Demo)
Tracknumber=6
Year=2010
Genre=Metal

[/more]

Register
(4) after21allD, Grev, gwar, Wail,
Jan 31 2023, 18:18:05 La Cattrina - Día De Muertos [ep] (2019)


*Artist: La Cattrina
*Album: Día De Muertos [ep]
*Year: 2019
*Genre: Folk Metal
*Country: Mexico
*Format: mp3@CBR320kbps
*Size: 28MB

Tracklist:
1. La bruja 03:40
2. El callejón del beso 04:04
3. Día de Muertos 04:31
******************************
Total playing time: 12:15



[more=Technical info]
Input File: 3-Día de Muertos.mp3
Channels : 2
Sample Rate : 44100
Precision : 16-bit
Duration : 00:04:31.69 = 11981573 samples = 20376.8 CDDA sectors
File Size : 10.9M
Bit Rate : 320k
Sample Encoding: MPEG audio (layer I, II or III)
Comments :
Title=Dia de Muertos
Artist=La Cattrina
Album=Día de Muertos (EP)
Tracknumber=3
Genre=Folk Metal

[/more]

Register
(4) artscald, chipsgott, Grev, gwar,
Jan 29 2023, 12:02:19 Dystopica - Deception [ep] (2022)
Register
(1) Wail,
Jan 28 2023, 20:40:55 Dystopica - Perception [ep] (2021)


*Artist: Dystopica
*Album: Perception [ep]
*Year: 2021
*Genre: Heavy Metal
*Country: United States
*Format: mp3@CBR320kbps
*Size: 54MB

Tracklist:
1. You Can't Look Away This Time 03:55
2. The Seasons 04:30
3. Torn 03:14
4. Broken 03:52
5. Trapped 03:58
6. Lost Within Myself 03:40
******************************
Total playing time: 23:09




[more=Technical info]
Input File: 06 - Lost Within Myself.mp3
Channels : 2
Sample Rate : 44100
Precision : 16-bit
Duration : 00:03:40.18 = 9709718 samples = 16513.1 CDDA sectors
File Size : 9.03M
Bit Rate : 328k
Sample Encoding: MPEG audio (layer I, II or III)
Comments :
Title=Lost Within Myself
Artist=Dystopica
Album=Perception
Tracknumber=6
Year=2021
Genre=Hard & Heavy
Discnumber=1/1

[/more]

Register
(8) artscald, aviacademy, Grev, infozahist, Marek, Rover, sergsazan, Wail,
Jan 12 2023, 19:35:51 Agnódice - Agnódice (2017)
Register
(1) Lord Of The Siths,
Jan 11 2023, 17:28:51 Ethernity - Obscure Illusions (2015)
Register
(1) Ingvar,
Jan 10 2023, 12:47:14 Helminthemesis - Fatal Cardiac Arrhythmia After Repeated Exposure To 1,1-Difluoroethane (DFE) (2023)


*Artist: Helminthemesis
*Album: Fatal Cardiac Arrhythmia After Repeated Exposure To 1,1-Difluoroethane (DFE)
*Year: 2023
*Genre: Goregrind
*Country: United States
*Format: mp3@CBR320kbps
*Size: 56MB

Tracklist:
1. Autonomic Dysreflexia and Sudden Death Post Traumatic Spinal Cord Injury 00:54
2. Fatal Birth Trauma as a Result of an Undiagnosed Abdominal Teratoma 01:06
3. Extensive and Mutilating Craniofacial Trauma With Intense Defleshment and Inevitable Decapitation 00:59
4. Sudden Death Due to Central Alveolar Hypoventilation Syndrome 00:53
5. Analysis of Mitochondrial DNA From the Teeth of a Cadaver Preserved in Formaldehyde 00:51
6. Progessive Delay of Clinical Manifestation and Medical Malpractice in a Serious Vascular Complication of Proximal Locked Tibial Nailing 00:42
7. Migration of a Kirschner Wire Used in the Fixation of a Subcapital Humeral Fracture Resulting in Cardiac Tamponade 00:54
8. Craniofacial Identification by Antemortem and Postmortem Radiography 00:44
9. Virtopsy Hemorrhage of the Posterior Cricoarytenoid Muscle by Blunt Force to the Neck in Postmortem Multislice Computed Tomography and Magnetic Resonance Imaging 02:06
10. The Sensitivity and Specificity of Control Surface Injuries in Aircraft Accident Fatalities 00:55
11. Sudden Unexpected Death Stemming from Advanced Intracranial Arteriovenous Malformation 00:55
12. Postmortem Case of Retroperitoneal Bleeding in Neurofibromatosis Type 1 01:36
13. Fatal Doxepin Poisoning Associated With a Defective CYP2D6 Genotype 00:04
14. Unsuspected Central Nervous System Gummas in a Case of Cerebral Infarction Associated With Cocaine Hydroxide Insufflation 01:13
15. A Fatal Case of Hypovolemic Shock After Cesarean Section 00:49
16. Nontraumatic Intracranial Epidural Hematoma 01:06
17. Fatal Biliary Peritonitis Due to Postinsertion Migration of a Robinson Drain Tip, With Erosion Into the Liver Parenchyma 00:54
18. Guidelines for Postmortem Protocol for Ocular Investigation of Sudden Unexplained Infant Death 00:07
19. Fracture of the Hyoid Bone Associated With Atlantoaxial Subluxation 00:42
20. A Fatal Case of Hypothermia Associated With Hemorrhages of the Pectoralis Minor, Intercostal, and Iliopsoas Muscles 00:17
21. Spontaneous Ignition in Case of Celphos Poisoning 00:33
22. Accidental Rib Fracture Due to Cardiopulmonary Resuscitation Efforts 00:39
23. Dental Amalgam and Mercury Levels in Autopsy Tissues 00:43
24. Histological and Immunohistochemical Study of Wischnewsky Spots in Fatal Hypothermia 00:42
25. A Case of Subvalvular Aortic Stenosis Resulting in Sudden Death 00:34
26. Fatal Cardiac Arrhythmia After Repeated Exposure to 1,1-Difluoroethane (DFE) 01:40
******************************
Total playing time: 22:38



[more=Technical info]
Input File: HEB396~1.MP3
Channels : 2
Sample Rate : 44100
Precision : 16-bit
Duration : 00:00:42.50 = 1874382 samples = 3187.72 CDDA sectors
File Size : 1.84M
Bit Rate : 347k
Sample Encoding: MPEG audio (layer I, II or III)
Comments :
Title=Progessive Delay of Clinical Manifestation and Medical Malpractice in a Serious Vascular Complication of Proximal Locked Tibial Nailing
Artist=Helminthemesis
Album=Fatal Cardiac Arrhythmia After Repeated Exposure to 1,1-Difluoroethane (DFE)
Tracknumber=6
Year=2023

[/more]

Register
(10) Altkiller, artscald, Dante_D, jollo, Lord Of The Siths, Radek, rominow, supremo, wreak, xariton,
Jan 9 2023, 13:29:43 Devilsbridge - Endless Restless [ep] (2020)


*Artist: Devilsbridge
*Album: Endless Restless [ep]
*Year: 2020
*Genre: Modern Heavy Metal
*Country: Switzerland
*Format: mp3@CBR320kbps
*Size: 61MB

Tracklist:
1. 555 03:53
2. Captain Devil 04:00
3. Endless Restless Heart 05:24
4. Fire Free 04:29
5. Centrifuge of Life 04:11
6. 2Souls 04:58
******************************
Total playing time: 26:55




[more=Technical info]
Input File: 06 - 2Souls.mp3
Channels : 2
Sample Rate : 44100
Precision : 16-bit
Duration : 00:04:58.07 = 13144667 samples = 22354.9 CDDA sectors
File Size : 11.9M
Bit Rate : 321k
Sample Encoding: MPEG audio (layer I, II or III)
Comments :
Title=2Souls
Artist=DevilsBridge
Album=Endless Restless
Tracknumber=06
Year=2020
Genre=20

[/more]

Register
(6) artscald, Reverend, Rover, stumpheavyrock, wreak, zhol,
Jan 9 2023, 13:25:54 Devilsbridge - Illuminate [single] (2020)


*Artist: Devilsbridge
*Album: Illuminate [single]
*Year: 2020
*Genre: Modern Heavy Metal
*Country: Switzerland
*Format: mp3@CBR320kbps
*Size: 8MB

Tracklist:
1. Illuminate 03:21
******************************
Total playing time: 3:21




[more=Technical info]
Input File: 01 - Illuminate.mp3
Channels : 2
Sample Rate : 44100
Precision : 16-bit
Duration : 00:03:21.47 = 8884827 samples = 15110.2 CDDA sectors
File Size : 8.06M
Bit Rate : 320k
Sample Encoding: MPEG audio (layer I, II or III)
Comments :
Title=Illuminate
Artist=DevilsBridge
Album=Illuminate (single)
Tracknumber=01
Year=2020
Genre=20

[/more]

Register
(4) artscald, Reverend, stumpheavyrock, wreak,
Jan 9 2023, 13:24:36 Devilsbridge - Rebirth [single] (2019)


*Artist: Devilsbridge
*Album: Rebirth [single]
*Year: 2019
*Genre: Modern Heavy Metal
*Country: Switzerland
*Format: mp3@CBR320kbps
*Size: 9MB

Tracklist:
1. Rebirth 03:54
******************************
Total playing time: 3:54




[more=Technical info]
Input File: 01 - Rebirth.mp3
Channels : 2
Sample Rate : 44100
Precision : 16-bit
Duration : 00:03:54.13 = 10324913 samples = 17559.4 CDDA sectors
File Size : 9.37M
Bit Rate : 320k
Sample Encoding: MPEG audio (layer I, II or III)
Comments :
Title=Rebirth
Artist=DevilsBridge
Album=Rebirth (single)
Tracknumber=01
Year=2019
Genre=Alternative Metal

[/more]

Register
(4) artscald, Reverend, stumpheavyrock, wreak,
Jan 8 2023, 13:36:42 Parahuman - Mercenary [single] (2019)


*Artist: Parahuman
*Album: Mercenary [single]
*Year: 2019
*Genre: Groove Metal
*Country: Poland
*Format: mp3@CBR320kbps
*Size: 11MB

Tracklist:
1. Mercenary 04:31
******************************
Total playing time: 4:31



[more=Technical info]
Input File: 01 - Mercenary.mp3
Channels : 2
Sample Rate : 44100
Precision : 16-bit
Duration : 00:04:31.25 = 11961993 samples = 20343.5 CDDA sectors
File Size : 10.9M
Bit Rate : 320k
Sample Encoding: MPEG audio (layer I, II or III)
Comments :
Title=Mercenary
Artist=Parahuman
Album=Mercenary
Tracknumber=1
Year=2019

[/more]

Register
(6) artscald, cacicandriera, chipsgott, Reverend, varlam4, wreak,
Jan 8 2023, 13:35:22 Parahuman - Shades Of Hate [single] (2018)


*Artist: Parahuman
*Album: Shades Of Hate [single]
*Year: 2018
*Genre: Groove Metal
*Country: Poland
*Format: mp3@CBR320kbps
*Size: 11MB

Tracklist:
1. Shades of Hate 04:38
******************************
Total playing time: 4:38



[more=Technical info]
Input File: 01 - Shades of Hate.mp3
Channels : 2
Sample Rate : 44100
Precision : 16-bit
Duration : 00:04:38.12 = 12265004 samples = 20858.9 CDDA sectors
File Size : 11.1M
Bit Rate : 320k
Sample Encoding: MPEG audio (layer I, II or III)
Comments :
Title=Shades of Hate
Artist=Parahuman
Album=Shades of Hate
Tracknumber=1
Year=2018

[/more]

Register
(7) artscald, cacicandriera, chipsgott, Reverend, stumpheavyrock, varlam4, wreak,
Jan 8 2023, 13:33:52 Parahuman - Anthropomorphic [ep] (2016)


*Artist: Parahuman
*Album: Anthropomorphic [ep]
*Year: 2016
*Genre: Groove Metal
*Country: Poland
*Format: mp3@CBR320kbps
*Size: 36MB

Tracklist:
1. Words of Wisdom 04:19
2. Tormentor 03:16
3. Sins of the Past 04:09
4. Break Away 04:06
******************************
Total playing time: 15:50



[more=Technical info]
Input File: 02 - Tormentor.mp3
Channels : 2
Sample Rate : 44100
Precision : 16-bit
Duration : 00:03:16.35 = 8659035 samples = 14726.2 CDDA sectors
File Size : 7.86M
Bit Rate : 320k
Sample Encoding: MPEG audio (layer I, II or III)
Comments :
Title=Tormentor
Artist=Parahuman
Album=Anthropomorphic
Tracknumber=2
Year=2016

[/more]

Register
(6) artscald, cacicandriera, chipsgott, Reverend, varlam4, wreak,
Jan 8 2023, 13:25:34 Parahuman - Affliction (2022)
Register
(2) cacicandriera, varlam4,
Jan 4 2023, 19:41:29 Catastrophic - The Cleansing (2001)
320
Register
(1) LVXXVL,
Dec 27 2022, 19:46:50 Age Of Dust - Messenger In A Soulless World (2015)
Register
(1) quarantine,
Dec 27 2022, 12:25:48 Carbon Black - We Remain [ep] (2022)


*Artist: Carbon Black
*Album: We Remain [ep]
*Year: 2022
*Genre: Heavy/Groove Metal
*Country: Australia
*Format: mp3@CBR320kbps
*Size: 69MB

Tracklist:
1. Red Flag 03:11
2. The One Who Knows My Name 04:05
3. Scars 04:21
4. Under Order (feat. Tim "Ripper" Owens) 03:21
5. We Bleed 03:57
6. One Enemy 03:48
7. Our Reprise 07:14
******************************
Total playing time: 29:57




[more=Technical info]
Input File: 6 One Enemy.mp3
Channels : 2
Sample Rate : 44100
Precision : 16-bit
Duration : 00:03:48.85 = 10092197 samples = 17163.6 CDDA sectors
File Size : 9.16M
Bit Rate : 320k
Sample Encoding: MPEG audio (layer I, II or III)
Comments :
Title=One Enemy
Artist=Carbon Black
Album=We Remain (EP)
Tracknumber=6
Year=2022
Genre=Heavy/Groove Metal

[/more]

Register
(9) after21allD, artscald, chipsgott, Grev, Marek, Mogozoz, piwimetal, stumpheavyrock, wreak,
Dec 25 2022, 21:38:03 Dark Valley - Tales From Dark Valley [ep] (2020)


*Artist: Dark Valley
*Album: Tales From Dark Valley [ep]
*Year: 2020
*Genre: Symphonic Metal
*Country: Brazil
*Format: mp3@CBR320kbps
*Size: 93MB

Tracklist:
1. Ophelia 06:11
2. The Dark Valley 02:58
3. This Is War 07:52
4. Balada 05:01
5. Supernova 04:41
6. Rebirth 04:35
7. Ophelia (acoustic) 04:31
8. בלדה 05:01
******************************
Total playing time: 40:50




[more=Technical info]
Input File: 6 - Rebirth.mp3
Channels : 2
Sample Rate : 44100
Precision : 16-bit
Duration : 00:04:35.42 = 12145846 samples = 20656.2 CDDA sectors
File Size : 11.1M
Bit Rate : 322k
Sample Encoding: MPEG audio (layer I, II or III)
Comments :
Title=Rebirth
Artist=Dark Valley
Album=Tales from Dark Valley
Tracknumber=6
Year=2020

[/more]

Register
(10) after21allD, Alpha_Prime, artscald, aviacademy, Cartman223, chipsgott, gwar, Mogozoz, sergsazan, wreak,
Dec 23 2022, 20:07:11 Arsenic Addiction - XIX (2019)
Register
(1) kimkayoung,
Dec 19 2022, 19:52:06 Dotma - Sleep Paralyses (2011)
Register
320
(1) kimkayoung,
Dec 15 2022, 22:28:10 Dogs Of Pray - Death Will Have To Wait (2012)


*Artist: Dogs Of Pray
*Album: Death Will Have To Wait
*Year: 2012
*Genre: Heavy Metal
*Country: United States
*Format: mp3@CBR320kbps
*Size: 98MB

Tracklist:
1. Revision 04:32
2. Death of Innocence 04:00
3. Last Demon's Try 04:05
4. Ashamed 03:52
5. Dead No More 03:46
6. Haunted Promises 04:46
7. (The Truth Is) Catastrophic 04:03
8. Arrival 03:05
9. The Dream / Omission 04:32
10. Tomb of Lies 03:25
11. The Secret 03:15
******************************
Total playing time: 43:21



[more=Technical info]
Input File: 06 Haunted Promises.mp3
Channels : 2
Sample Rate : 48000
Precision : 16-bit
Duration : 00:04:45.19 = 13689360 samples ~ 21389.6 CDDA sectors
File Size : 11.4M
Bit Rate : 320k
Sample Encoding: MPEG audio (layer I, II or III)
Comments :
Title=Haunted Promises
Artist=DOGS of Pray
Album=Death Will Have to Wait
Tracknumber=6
Year=2012
Genre=Heavy Metal

[/more]

Register
(9) after21allD, artscald, Mogozoz, Rover, sergsazan, stumpheavyrock, varlam4, Wail, wreak,
Dec 12 2022, 19:11:52 Setheist - The Flash Of Creation [ep] (2014)
Register
(1) thenecromancer,
Dec 9 2022, 19:55:30 Equinox - Świteź (2015)
Register
(2) Altkiller, kimkayoung,
Dec 9 2022, 19:55:05 Equinox - Lux Borealis [ep] (2014)
Register
(1) kimkayoung,

47 Pages V   1 2 3 > » 
- Lo-Fi Version Support form
Copyrights and abuse reports form
Time is now: 4th February 2023 - 17:29:34