Welcome Guest ( Log In | Register )

Объявления

* gmail.com упорно продолжает считать почту с нас "unsolicited" и отбивает в том числе и письма активации, поэтому просьба использовать альтернативные почтовые ящики.
------------
* gmail.com continues reject all mail from us as "unsolicited" (activation mails too) therefore please use alternate mail servers.
История благодарностей участнику RotAnus ::: Спасибо сказали: 7466 раз(а)
Дата поста: В теме: За сообщение: Спасибо сказали:
May 24 2024, 14:37:22 B4rbar4 - Forfeiture Of Repentance (2024)


*Artist: B4rbar4
*Album: Forfeiture Of Repentance
*Year: 2024
*Genre: Death Metal/Grindcore
*Country: Czech Republic
*Format: mp3@CBR320kbps
*Size: 60MB

Tracklist:
1. Intro 01:38
2. Jerusalem Was Never Enough 01:58
3. Care No More 03:02
4. Too Much, Too Strong, All The Time 03:52
5. Fiery Red Horse 03:18
6. Sentenced - Death 03:14
7. Through The Cracks 02:43
8. I Wish I Was Free of the Knowledge of Being Raped 05:31
******************************
Total playing time: 25:16



[more=Technical info]
Input File: 06 Sentenced - Death.mp3
Channels : 2
Sample Rate : 44100
Precision : 16-bit
Duration : 00:03:14.76 = 8588740 samples = 14606.7 CDDA sectors
File Size : 7.87M
Bit Rate : 323k
Sample Encoding: MPEG audio (layer I, II or III)
Comments :
Title=Sentenced - Death
Artist=B4RBAR4
Album=Forfeiture of Repentance
Tracknumber=6
Year=2024

[/more]

Register
(4) andreikun, artscald, Condehate, jollo,
May 24 2024, 14:32:01 Autophobic - Tinnitus [ep] (2018)


*Artist: Autophobic
*Album: Tinnitus [ep]
*Year: 2018
*Genre: Death Metal/Grindcore
*Country: Czech Republic
*Format: mp3@CBR320kbps
*Size: 19MB

Tracklist:
1. Prdel Světa (Part.1) 01:43
2. Prdel Světa (Part.2) 00:40
3. Tinnitus 01:15
4. Sexemsepsem 00:19
5. Do Pěti Piv 00:30
6. Flashinet Separation Klika 02:09
7. Autophobic 01:55
******************************
Total playing time: 8:31




[more=Technical info]
Input File: 06. Flashinet Separation Klika.mp3
Channels : 2
Sample Rate : 44100
Precision : 16-bit
Duration : 00:02:08.22 = 5654326 samples = 9616.2 CDDA sectors
File Size : 5.14M
Bit Rate : 321k
Sample Encoding: MPEG audio (layer I, II or III)
Comments :
Title=Flashinet Separation Klika
Artist=Autophobic
Album=Tinnitus
Tracknumber=06
Year=2018
Genre=Grindcore

[/more]

Register
(1) artscald,
May 24 2024, 12:25:44 Social Deformity - Daltonism [ep] (1996)
320
Remastered 2023
Register

1-26: "Daltonism" CD (originally released in 1996);
27-32: "Merciless Core" compilation CD;
33-37: ???;
38-53: "Is It Justice?" tape;
54: extra mix.
(2) Carcharoth, hell_armageddon,
May 21 2024, 10:42:47 Maegandune - Melodic Memoirs (2024)


*Artist: Maegandune
*Album: Melodic Memoirs
*Year: 2024
*Genre: Gothic/Symphonic Metal
*Country: Austria
*Format: mp3@CBR320kbps
*Size: 108MB

Tracklist:
1. Eyes Of Fortitude
2. Reflection Of The Truth
3. Milady De Winter
4. You Know Nothing
5. The Broken Fairy
6. Venetian Tar
7. Behind The Grandeur
8. Empress Of The Ocean
9. Tempus Fugit
10. Mater
11. The Days Begin To Fall
12. Shadow Echoes
******************************
Total playing time: 46:53



[more=Technical info]
Input File: 09 - Tempus Fugit.mp3
Channels : 2
Sample Rate : 44100
Precision : 16-bit
Duration : 00:04:19.62 = 11449330 samples = 19471.6 CDDA sectors
File Size : 10.4M
Bit Rate : 321k
Sample Encoding: MPEG audio (layer I, II or III)
Comments :
Title=Tempus Fugit
Artist=Maegandune
Album=Melodic Memoirs
Tracknumber=9
Year=2023

[/more]

Register
(20) 747metaller, ace73pq, Alpha_Prime, artscald, cacicandriera, Cartman223, chipsgott, finrod, gwar, hellraiser69, HMHamster, markblasi, metala, Nolan2025, postal67, quarantine, Rover, sergsazan, watasan, дивин,
May 16 2024, 08:38:29 Return To Innocence - Sal Lunae (2006)
Register
320
(1) wreak,
May 16 2024, 08:38:14 Return To Innocence - ... In the Deep (2002)
320
Register
(1) wreak,
May 7 2024, 12:22:33 Radical Mentaly - Agonizing Thoughts [demo] (1997)


*Artist: Radical Mentaly
*Album: Agonizing Thoughts [demo]
*Year: 1997
*Genre: Grindcore
*Country: Czech Republic
*Format: mp3@CBR320kbps
*Size: 42MB

Tracklist:
1. Inner Emptyness
2. Curse
3. Grr Independent
4. The Depths Of Uselessness
5. Pain
6. I Stare To Darkness And You Suffer
7. My Hatred Will Not Die Until Your Death
8. Painful Past
9. Friend
10. Radical Cut
11. Spiral Of Time
12. Agonizing Thoughts
******************************
Total playing time: 18:39



[more=Technical info]
Input File: 01 Inner Emptyness.mp3
Channels : 2
Sample Rate : 44100
Precision : 16-bit
Duration : 00:02:21.91 = 6258363 samples = 10643.5 CDDA sectors
File Size : 5.68M
Bit Rate : 320k
Sample Encoding: MPEG audio (layer I, II or III)
Comments :
Title=Inner Emptyness
Artist=Radical Mentaly
Album=Agonizing Thoughts (Demo)
Tracknumber=1
Year=1997
Genre=Grindcore

[/more]

Register
(5) artscald, Grev, Proteus_666, stumpheavyrock, wreak,
May 6 2024, 18:49:35 Innocens - Free(us) (2008)
320
Register
(1) kimkayoung,
May 6 2024, 18:49:24 Innocens - Where Are No Angels (2007)
320
Register
(1) kimkayoung,
May 6 2024, 11:49:30 Cumboy Catapulta - Cumboy Catapulta (2024)


*Artist: Cumboy Catapulta
*Album: Cumboy Catapulta
*Year: 2024
*Genre: Pornogrind
*Country: Russian Federation
*Format: mp3@CBR320kbps
*Size: 69MB

Tracklist:
01. Cumboy Inc. + Catapulta Damage
02. Body Fag
03. Harry Potter Loves Hermione's Creampie By Ron
04. S.H.P. (Sweet Honey Pussy)
05. The Eighty Eighth Of March
06. Craft Inside Your Mine
07. B.B.P.E. (Be Brutal Pancake Eater)
08. Cumshot Cumkill
09. Power Rangers Jerking While Peppa Uses Weed From Catacombs
10. Grunted When She Choked On My Dick
11. Suffocation With Slapping Tits
12. From Pskov With Love
13. Suck My Dick On Your Knees
14. Into The Drunk
15. Love Song + Time To Sex
******************************
Total playing time: 30:01


Preview 2

[more=Technical info]
Input File: 06. Craft Inside Your Mine.mp3
Channels : 2
Sample Rate : 44100
Precision : 16-bit
Duration : 00:01:47.58 = 4744322 samples = 8068.57 CDDA sectors
File Size : 4.31M
Bit Rate : 320k
Sample Encoding: MPEG audio (layer I, II or III)
Comments :
Title=Craft Inside Your Mine
Artist=Cumboy Catapulta
Album=Cumboy Catapulta
Tracknumber=6
Year=2024
Genre=Grindcore

[/more]

Register
(6) Altkiller, Grev, jollo, Occultas, wreak, xariton,
May 6 2024, 11:39:09 Kaosquad - Ravenous [demo] (2020)


*Artist: Kaosquad
*Album: Ravenous [demo]
*Year: 2020
*Genre: Grindcore
*Country: Czech Republic
*Format: mp3@CBR320kbps
*Size: 20MB

Tracklist:
1. Ravenous 02:39
2. Napalm 00:38
3. Lined up 01:00
4. Drun(k)en 01:34
5. Reckoning 02:05
******************************
Total playing time: 7:56




[more=Technical info]
Input File: Kaosquad - Ravenous - 01 Ravenous.mp3
Channels : 2
Sample Rate : 44100
Precision : 16-bit
Duration : 00:02:39.09 = 7016045 samples = 11932 CDDA sectors
File Size : 6.45M
Bit Rate : 324k
Sample Encoding: MPEG audio (layer I, II or III)
Comments :
Title=Ravenous
Artist=Kaosquad
Album=Ravenous
Tracknumber=1
Year=2020

[/more]

Register
(4) artscald, deamonmotherloveson, Grev, wreak,
May 6 2024, 11:35:47 Kaosquad - Institute For Mental Decay [ep] (2017)


*Artist: Kaosquad
*Album: Institute For Mental Decay [ep]
*Year: 2017
*Genre: Grindcore
*Country: Czech Republic
*Format: mp3@CBR320kbps
*Size: 21MB

Tracklist:
1. Corridors of Misery 03:16
2. Run on Pills 01:16
3. Alkomares 01:30
4. Raid Sirens 01:59
******************************
Total playing time: 8:01




[more=Technical info]
Input File: Kaosquad - Institute For Mental Decay - 02 Run on Pills.mp3
Channels : 2
Sample Rate : 44100
Precision : 16-bit
Duration : 00:01:16.60 = 3377840 samples = 5744.63 CDDA sectors
File Size : 3.28M
Bit Rate : 343k
Sample Encoding: MPEG audio (layer I, II or III)
Comments :
Title=Run on Pills
Artist=Kaosquad
Album=Institute For Mental Decay
Tracknumber=2
Year=2017

[/more]

Register
(5) artscald, deamonmotherloveson, Grev, supremo, wreak,
May 5 2024, 12:29:15 Dark Lightning - Lilith [single] (2023)


*Artist: Dark Lightning
*Album: Lilith [single]
*Year: 2023
*Genre: Symphonic Metal
*Country: Germany
*Format: mp3@CBR320kbps
*Size: 20MB

Tracklist:
1. Lilith 03:57
2. War 04:32
******************************
Total playing time: 8:29



[more=Technical info]
Input File: 02. War.mp3
Channels : 2
Sample Rate : 44100
Precision : 16-bit
Duration : 00:04:32.99 = 12039035 samples = 20474.5 CDDA sectors
File Size : 11.0M
Bit Rate : 323k
Sample Encoding: MPEG audio (layer I, II or III)
Comments :
Title=War
Artist=Dark Lightning
Album=Lilith
Tracknumber=2
Year=2023

[/more]

Register
(9) artscald, Cartman223, chipsgott, DeathDragon, gwar, kimkayoung, Reverend, sergsazan, wreak,
May 5 2024, 12:28:03 Dark Lightning - Dark Lightning [ep] (2023)


*Artist: Dark Lightning
*Album: Dark Lightning [ep]
*Year: 2023
*Genre: Symphonic Metal
*Country: Germany
*Format: mp3@CBR320kbps
*Size: 45MB

Tracklist:
1. Darkness Inside 04:00
2. Fear the Angels 03:49
3. Zwei Völker 04:12
4. Hell on Earth 03:41
5. Creatures of the Night 03:50
******************************
Total playing time: 19:32




[more=Technical info]
Input File: 02. Fear the Angels.mp3
Channels : 2
Sample Rate : 44100
Precision : 16-bit
Duration : 00:03:49.37 = 10115085 samples = 17202.5 CDDA sectors
File Size : 9.29M
Bit Rate : 324k
Sample Encoding: MPEG audio (layer I, II or III)
Comments :
Title=Fear the Angels
Artist=Dark Lightning
Album=Dark Lightning
Tracknumber=2
Year=2023

[/more]

Register
(13) 747metaller, artscald, Cartman223, chipsgott, DeathDragon, gwar, kimkayoung, metala, Mogozoz, Reverend, sergsazan, watasan, wreak,
May 1 2024, 17:19:49 ZiX - The Ascent Of Madness [ep] (2018)


*Artist: ZiX
*Album: The Ascent Of Madness [ep]
*Year: 2018
*Genre: Heavy Metal
*Country: Lebanon
*Format: mp3@CBR320kbps
*Size: 34MB

Tracklist:
1. The Ascent of Madness 03:33
2. Rise from Your Ashes Your Grave(ft. Hansi Kürsch) 03:54
3. Shadows Move Where Light Should Be 04:00
4. When Time Stands Still 04:19
******************************
Total playing time: 15:46



[more=Technical info]
Input File: 03 - Shadows Move Where Eight Should Be.mp3
Channels : 2
Sample Rate : 44100
Precision : 16-bit
Duration : 00:03:59.61 = 10566845 samples = 17970.8 CDDA sectors
File Size : 9.67M
Bit Rate : 323k
Sample Encoding: MPEG audio (layer I, II or III)
Comments :
Title=Shadows Move Where Eight Should Be
Artist=ZiX
Album=The Ascent of Madness (EP)
Tracknumber=03
Year=2018
Genre=Heavy Metal

[/more]

Register
(9) artscald, gwar, infozahist, Mogozoz, sergsazan, stumpheavyrock, Wail, watasan, wreak,
May 1 2024, 17:11:19 Zix - Tides Of The Final War (2016)
Register
(2) after21allD, Xtohar,
Apr 30 2024, 16:19:45 Inmortalia - Alegorías (2023)
Register
(1) quarantine,
Apr 29 2024, 12:02:07 Daidalos - Through The Shadows Of Time [ep] (2013)


*Artist: Daidalos
*Album: Through The Shadows Of Time [ep]
*Year: 2013
*Genre: Symphonic Gothic Metal
*Country: Venezuela
*Format: mp3@CBR320kbps
*Size: 39MB

Tracklist:
1. Deep Ocean 06:03
2. Running Away 04:49
3. Through the shadows of time 05:15
******************************
Total playing time: 16:07




[more=Technical info]
Input File: 03 Through the shadows of time.mp3
Channels : 2
Sample Rate : 44100
Precision : 16-bit
Duration : 00:05:15.92 = 13931896 samples = 23693.7 CDDA sectors
File Size : 12.9M
Bit Rate : 325k
Sample Encoding: MPEG audio (layer I, II or III)
Comments :
Title=Through the shadows of time
Artist=Daidalos
Album=Through the shadows of time
Tracknumber=3
Year=2013

[/more]

Register
(11) aleon, artscald, Cartman223, chipsgott, gwar, Mogozoz, quarantine, sergsazan, VALERY, Veggr, wreak,
Apr 29 2024, 11:54:54 Curvature - Be​{​lie​}​ve [ep] (2013)


*Artist: Curvature
*Album: Be​{​lie​}​ve [ep]
*Year: 2013
*Genre: Symphonic Metal
*Country: United Kingdom
*Format: mp3@CBR320kbps
*Size: 39MB

Tracklist:
1. Hide and Seek 03:15
2. Far Away 06:56
3. Blinded 02:54
4. Demon Host 03:37
******************************
Total playing time: 16:42



[more=Technical info]
Input File: 02 Far Away.mp3
Channels : 2
Sample Rate : 44100
Precision : 16-bit
Duration : 00:06:56.34 = 18360418 samples = 31225.2 CDDA sectors
File Size : 16.7M
Bit Rate : 322k
Sample Encoding: MPEG audio (layer I, II or III)
Comments :
Title=Far Away
Artist=Curvature
Album=Be{lie}ve
Tracknumber=2
Year=2013

[/more]

Register
(9) after21allD, artscald, Cartman223, gwar, Mogozoz, quarantine, sergsazan, watasan, wreak,
Apr 29 2024, 11:07:09 Whorehunter - Sexual Erasion (2024)


*Artist: Whorehunter
*Album: Sexual Erasion
*Year: 2024
*Genre: Porngrind
*Country: Latvia
*Format: mp3@CBR320kbps
*Size: 50MB

Tracklist:
1. Lacto-Fermented Cum Canister 01:55
2. Eurethral Prolapse 02:30
3. Give Me Whores for Christmas 02:26
4. Porn Addicted Life Abandonment 01:11
5. Sexual Erasion 00:59
6. Why do we let Women Tell us how to be Men 01:45
7. Piss Drinking Sluts 03:09
8. Hermaphroditic Corpse 02:22
9. Lashed to the Slave's Dick 01:41
10. Emo Girls (Make them Cry) 03:13
******************************
Total playing time: 21:11

[more=Technical info]
Input File: 06 - Why Do We Let Women Tell Us How to Be Men.mp3
Channels : 2
Sample Rate : 44100
Precision : 16-bit
Duration : 00:01:45.36 = 4646244 samples = 7901.78 CDDA sectors
File Size : 4.33M
Bit Rate : 329k
Sample Encoding: MPEG audio (layer I, II or III)
Comments :
Title=Why Do We Let Women Tell Us How to Be Men
Artist=Whorehunter
Album=Sexual Erasion
Tracknumber=6
Year=2024
Genre=Goregrind

[/more]

Register
(11) Altkiller, andreikun, artscald, Carcharoth, Condehate, dcatagua, Grev, jollo, Radek, supremo, wreak,
Apr 25 2024, 21:52:54 Xentria - Triste Realidad (2013)
Register
(1) Wail,
Apr 24 2024, 12:06:58 Spanky Ham - Born To Grill (2023)


*Artist: Spanky Ham
*Album: Born To Grill
*Year: 2023
*Genre: Groovy Goregrind
*Country: Germany
*Format: mp3@CBR320kbps
*Size: 46MB

Tracklist:
1. Ebermetal 01:38
2. Minnie Winnie Würstchen-Kette 01:18
3. Alte Sau 01:48
4. Bacon Blaster 01:18
5. Hacke PETA 02:16
6. BBQ 01:48
7. Ferkel 01:37
8. Frikadellen Grinder 02:39
9. S.M. Piggy 01:41
10. Schwein Gehabt! 02:06
11. Fleischoholiker 02:38
******************************
Total playing time: 20:47



[more=Technical info]
Input File: 03. Alte Sau.mp3
Channels : 2
Sample Rate : 44100
Precision : 16-bit
Duration : 00:01:48.00 = 4762800 samples = 8100 CDDA sectors
File Size : 4.35M
Bit Rate : 322k
Sample Encoding: MPEG audio (layer I, II or III)
Comments :
Title=Alte Sau
Artist=Spanky Ham
Album=Born to Grill
Tracknumber=3
Year=2023
Genre=Goregrind

[/more]

Register
(4) Carcharoth, infozahist, jollo, Wail,
Apr 20 2024, 17:52:49 Новости Brutal Death Metal и Grind(core) направлений

Carnal Diafragma - The Garden of Earthly Delights 10.05.2024
(2) Chasm, gobblin,
Apr 16 2024, 21:03:20 Yllgen - Peak Of Ignorance [ep] (2024)


*Artist: Yllgen
*Album: Peak Of Ignorance [ep]
*Year: 2024
*Genre: Groove/Heavy Metal
*Country: Poland
*Format: mp3@CBR320kbps
*Size: 44MB

Tracklist:
1. Waning (Remastered 2024) 05:49
2. Broken Beyond Repair 04:47
3. The Root (Remastered 2024) 04:14
4. Choiceless 04:28
******************************
Total playing time: 19:18





[more=Technical info]
Input File: 02 - Broken Beyond Repair.mp3
Channels : 2
Sample Rate : 44100
Precision : 16-bit
Duration : 00:04:47.58 = 12682058 samples = 21568.1 CDDA sectors
File Size : 11.5M
Bit Rate : 320k
Sample Encoding: MPEG audio (layer I, II or III)
Comments :
Title=Broken Beyond Repair
Artist=YLLGEN
Album=Peak Of Ignorance
Tracknumber=2
Year=2024

[/more]

Register
(9) after21allD, artscald, KLOP, Piriaka_Power_Station, piwimetal, Reverend, stumpheavyrock, wreak, ZamanFu,
Apr 16 2024, 21:01:26 Yllgen - House Of Strangers [ep] (2019)


*Artist: Yllgen
*Album: House Of Strangers [ep]
*Year: 2019
*Genre: Heavy Metal
*Country: Poland
*Format: mp3@CBR320kbps
*Size: 28MB

Tracklist:
1. House of Strangers 04:46
2. Fatum 03:57
3. Don't Back Down 03:32
******************************
Total playing time: 12:15




[more=Technical info]
Input File: 3 Don't Back Down.mp3
Channels : 2
Sample Rate : 48000
Precision : 16-bit
Duration : 00:03:32.84 = 10216080 samples ~ 15962.6 CDDA sectors
File Size : 8.54M
Bit Rate : 321k
Sample Encoding: MPEG audio (layer I, II or III)
Comments :
Title=Don't Back Down
Artist=YLLGEN
Album=House Of Strangers (EP)
Tracknumber=3
Year=2023

[/more]

Register
(7) artscald, Mogozoz, Piriaka_Power_Station, rainbow83, Reverend, stumpheavyrock, wreak,

57 Pages V   1 2 3 > » 
- Lo-Fi Version Support form
Copyrights and abuse reports form
Time is now: 29th May 2024 - 10:42:58