Welcome Guest ( Log In | Register )

Объявления

* gmail.com упорно продолжает считать почту с нас "unsolicited" и отбивает в том числе и письма активации, поэтому просьба использовать альтернативные почтовые ящики.
------------
* gmail.com continues reject all mail from us as "unsolicited" (activation mails too) therefore please use alternate mail servers.
История благодарностей участнику Vaesel ::: Спасибо сказали: 4500 раз(а)
Дата поста: В теме: За сообщение: Спасибо сказали:
Jan 12 2024, 13:22:00 Beherit - Dawn Of Satan's Millenium [compilation] (2023)
15.gif
KVLT

So here is the WAV album so someone can make MP3 if they want.

Fuck copyrights and fuck you!

Register
(1) Occultas,
Jan 11 2024, 11:49:46 Beherit - Dawn Of Satan's Millenium [compilation] (2023)
FLAC

Register
(12) acerbus, as71, Carcharoth, Chasm, INDARKNESS, Lux, mirotvorets, Mist13Signifier, Occultas, Pinhead666, thenecromancer, Wail,
Sep 20 2023, 12:54:55 Gam - Alt Hans Væsen [demo] (2023)


*Artist: Gam
*Album: Alt Hans Væsen [demo]
*Year: 2023
*Genre: Black Metal
*Country: Denmark
*Format: mp3@CBR320kbps
*Size: 68MB

Tracklist:
1. Det Kan Aldrig Glemmes
2. Bemægtigelsen
3. Af Kæmpers Ædle Slægt
4. Hadingsviv
5. Visse Nætter
6. Skiftingen
******************************
Total playing time: 29:16

[more=Extended info]Den Ottende Kunst[/more]

[more=Technical info]
Input File: 02-Bemægtigelsen.mp3
Channels : 2
Sample Rate : 48000
Precision : 16-bit
Duration : 00:06:17.14 = 18102672 samples ~ 28285.4 CDDA sectors
File Size : 15.1M
Bit Rate : 320k
Sample Encoding: MPEG audio (layer I, II or III)
Comments :
Title=Bemægtigelse
Artist=Gam
Album=Alt Hans Væsen
Tracknumber=02/06
Year=2023
Genre=Black Metal

[/more]

Register
(23) 231282ftw, AceQuorthon, AlexSmith, Altkiller, artscald, Carcharoth, dermarsoran, Grev, Ildjarn, kim666, Marek, murian, Necroslaughter, rammmirez, rimfrost, sacrut, Sangreal, SilentNidhogg, Soulgrinder, VALERY, vovenom, Walter1982, wreak,
Sep 20 2023, 12:46:55 Vætteilden - Nu Er Tiden Inde [demo] (2023)


*Artist: Vætteilden
*Album: Nu Er Tiden Inde [demo]
*Year: 2023
*Genre: Black Metal
*Country: Denmark
*Format: mp3@CBR320kbps
*Size: 46MB

Tracklist:
1. Midnatsscene
2. En Snare Lagt
3. Den Sorte Blomst
4. Nu Er Tiden Inde
******************************
Total playing time: 19:21

[more=Extended info]Den Ottende Kunst[/more]

[more=Technical info]
Input File: 01-Midnatsscene.mp3
Channels : 2
Sample Rate : 48000
Precision : 16-bit
Duration : 00:06:42.46 = 19318032 samples ~ 30184.4 CDDA sectors
File Size : 16.1M
Bit Rate : 320k
Sample Encoding: MPEG audio (layer I, II or III)
Comments :
Title=Midnatsscene
Artist=Vætteilden
Album=Nu er tiden inde
Tracknumber=01/04
Year=2023
Genre=Black Metal

[/more]

Register
(14) Altkiller, artscald, Bzth, Carcharoth, dermarsoran, Grev, Ildjarn, kim666, Nebo, sacrut, Sangreal, SilentNidhogg, vovenom, wreak,
May 19 2022, 22:14:08 Southern Spruce - Train To Istanbul [ep] (2022)
Register
(1) Alexis The Best,
Apr 27 2022, 15:17:26 Jernved - Hvor Natten Ej Med Dagen Skifter [demo] (2022)


*Artist: Jernved
*Album: Hvor Natten Ej Med Dagen Skifter [demo]
*Year: 2022
*Genre: Black Metal
*Country: Denmark
*Format: mp3@CBR320kbps
*Size: 46MB

Tracklist:
1. Spyd
2. Mellemspil
3. Firmamentets Flugt
4. Alskens Ondskab
5. Søvnen
******************************
Total playing time: 19:50



[more=Extended info]Den Ottende Kunst[/more]

[more=Technical info]
Input File: 04-Alskens_Ondskab.mp3
Channels : 2
Sample Rate : 48000
Precision : 16-bit
Duration : 00:05:41.93 = 16412688 samples ~ 25644.8 CDDA sectors
File Size : 13.7M
Bit Rate : 320k
Sample Encoding: MPEG audio (layer I, II or III)
Comments :
Title=Alskens Ondskab
Artist=Jernved
Album=Hvor Natten ej med Dagen skifter
Tracknumber=04/05
Year=2022
Genre=Black Metal

[/more]

Register
(25) AceQuorthon, artscald, Carcharoth, caro, dermarsoran, Ildjarn, kim666, murian, nemx, Olethros, Ostinato, Panacea, rammmirez, sacrut, Sergey, SilentNidhogg, Storky, stormhatt, taog_eht_666, VALERY, varlam4, Vidyadharov, Wail, wreak, Абигор,
Apr 27 2022, 15:07:47 Gam - Hvisken Fra Skyggernes Vrå [demo] (2022)


*Artist: Gam
*Album: Hvisken Fra Skyggernes Vrå [demo]
*Year: 2022
*Genre: Black Metal
*Country: Denmark
*Format: mp3@CBR320kbps
*Size: 33MB

Tracklist:
1. Hvor Trolden Har Sin Gang
2. Jeg Så Et Irlys Brænde
3. Den Fremmede
4. Når Det Sidste Segl Brydes
******************************
Total playing time: 14:21



[more=Extended info]Den Ottende Kunst[/more]

[more=Technical info]
Input File: 03-Den_Fremmede.mp3
Channels : 2
Sample Rate : 48000
Precision : 16-bit
Duration : 00:04:06.31 = 11823120 samples ~ 18473.6 CDDA sectors
File Size : 9.85M
Bit Rate : 320k
Sample Encoding: MPEG audio (layer I, II or III)
Comments :
Title=Den Fremmede
Artist=Gam
Album=Hvisken fra Skyggernes Vrå
Tracknumber=03/04
Year=2022
Genre=Black Metal

[/more]

Register
(25) AceQuorthon, artscald, BlackSmog, Carcharoth, caro, Cramloth, dermarsoran, Ignativs, Ildjarn, kim666, nemx, Olethros, rimfrost, sacrut, SilentNidhogg, stormhatt, taog_eht_666, thenecromancer, VALERY, varlam4, Vidyadharov, Wail, wreak, Xathrites, Абигор,
Mar 12 2022, 16:29:20 Teurg Oller - Troldfolkets Komme [ep] (2021)


*Artist: Teurg Oller
*Album: Troldfolkets Komme [ep]
*Year: 2021
*Genre: Raw Black Metal
*Country: Denmark
*Format: mp3@CBR320kbps
*Size: 44MB

Tracklist:
1. Således Hidkaldt
2. Ung Idolatri
3. Mennesket Oller
4. Jagten, En Idræt
5. Urvild
6. Oller, Den Bistre
******************************
Total playing time: 19:32



[more=Extended info]TAPE

LP is comming :
https://nattetalerecords.bigcartel.com/[/more]

[more=Technical info]
Input File: 01-06.mp3
Channels : 2
Sample Rate : 48000
Precision : 16-bit
Duration : 00:19:33.05 = 56306448 samples ~ 87978.8 CDDA sectors
File Size : 46.9M
Bit Rate : 320k
Sample Encoding: MPEG audio (layer I, II or III)
Comments :
Title=Track 1 - 6
Artist=Teurg Oller
Album=Troldfolkets Komme
Tracknumber=01-06
Year=2021
Genre=Black Metal

[/more]

Register
(18) 231282ftw, Alexis The Best, artscald, Carcharoth, caro, dermarsoran, Fryz, Grev, kim666, Olethros, Rudolfo_Metal, sacrut, Sanctus, SilentNidhogg, stormhatt, VALERY, varlam4, wreak,
Feb 3 2020, 19:56:11 Satanik Goat Ritual & Vomit Angel - Cacodemon [split] (2019)


*Artist: Satanik Goat Ritual & Vomit Angel
*Album: Cacodemon [split]
*Year: 2019
*Genre: Black Metal/Death Metal | Death Metal/Grindcore
*Country: United States | Denmark
*Format: mp3@CBR320kbps
*Size: 25MB

Tracklist:
Satanik Goat Ritual:
1. Intro / Bible Blakk: The Book Of Lies
2. Intro / Iron Angel Of The Apokalypse / Outro
Vomit Angel:
3. Retard
4. Time Of The Moon (Lena Katina Version)
5. Damage Controls
******************************
Total playing time: 11:01

[more=Technical info]
Input File: 01-Intro-Bible_Blakk_The_Book_Of_Lies.mp3
Channels : 2
Sample Rate : 48000
Precision : 16-bit
Duration : 00:02:59.62 = 8621712 samples ~ 13471.4 CDDA sectors
File Size : 7.19M
Bit Rate : 320k
Sample Encoding: MPEG audio (layer I, II or III)
Comments :
Title=Intro - Bible Blakk The Book Of Lies
Artist=Satanik Goat Ritual
Album=Cacodemon
Tracknumber=01/05
Year=2019
Genre=Black Metal

[/more]

Register
(18) ASkyThatBurns, Boozer, dermarsoran, Hell_Is_Here, HMHamster, infiltrator, Lanceatum, Rosen, satanist666, Styx, thenecromancer, Unknown, varg-38ru, varlam4, vasiljev_sergej, Wail, Weltenfeind666, Герб,
Feb 3 2020, 19:12:33 Denial Of God - Rehearsal Of Horror 1999-2001 [compilation] (2019)


*Artist: Denial Of God
*Album: Rehearsal Of Horror 1999-2001 [compilation]
*Year: 2019
*Genre: Black Metal
*Country: Denmark
*Format: mp3@CBR320kbps
*Size: 200MB

Tracklist:
1. Black Horror Metal
2. Funeral Fog
3. Klabautermanden
4. Follow Those Who Died
5. The Book Of Oiufael
6. The Book Of Oiufael
7. Cycle Of The Wolf
8. Cycle Of The Wolf
9. The Book Of Oiufael
10. Follow Those Who Died
11. Cycle Of The Wolf
12. Robbing The Grave Of The Priest
13. Dethrone The Tyrant-God!
14. The Book Of Oiufael
15. Cycle Of The Wolf
16. Cycle Of The Wolf
******************************
Total playing time: 1:26:02

[more=Technical info]
Input File: 10-Follow_Those_Who_Died.mp3
Channels : 2
Sample Rate : 48000
Precision : 16-bit
Duration : 00:07:00.63 = 20190096 samples ~ 31547 CDDA sectors
File Size : 16.8M
Bit Rate : 320k
Sample Encoding: MPEG audio (layer I, II or III)
Comments :
Title=Follow Those Who Died
Artist=Denial Of God
Album=Rehearsal of Horror 1999-2001
Tracknumber=10/16
Year=2019
Genre=Black Metal

[/more]

Register
(31) 1968_janeart, ALDEMARMETAL, Antichrist, ASkyThatBurns, cancer1974, dermarsoran, desekrator, FUDEDOR, Hell_Is_Here, HMHamster, infiltrator, kauyumari, kim666, korovakaska, legion01, nord6666, Olethros, Rosen, satanist666, Sergey, smes, stub888, supremo, thenecromancer, varlam4, vasiljev_sergej, vovenom, Wail, wreak, Zenial, zotyo1975,
Feb 3 2020, 17:48:32 Angel Of Blasphemy - Livedemolition 1.91 [bootleg] (1991)


*Artist: Angel Of Blasphemy
*Album: Livedemolition 1.91 [bootleg]
*Year: 1991
*Genre: Black Metal
*Country: Denmark
*Format: mp3@CBR320kbps
*Size: 58MB

Tracklist:
1. Intro-Call Upon The Gods Of Darkness
2. Holy Deception
3. Jesus Wept (On The Cross)
4. Evil Dead By Dawn
5. Virgin Sacrifice
6. Crucifiction / The Final Torment
7. Screams Of Pain
8. Meet The Dead
9. Priest Dismemberment
10. Last Rites Of Satan-Outro
******************************
Total playing time: 25:07

[more=Extended info]The band was formed just to make fun of black metal imagery.

Recorded live at Rytmeposten, Odense in Denmark 10/11/1991.

The Intro "Call Upon The Gods of Darkness" is actually stolen from the pre-Danzig band Samhain. It is called "Initium", and is the intro on the "Initium" album 1984. It sounds like they actually played the album's intro through the amps live.[/more]

[more=Technical info]
Input File: 01-10-Track_01-10.mp3
Channels : 2
Sample Rate : 48000
Precision : 16-bit
Duration : 00:25:07.66 = 72367632 samples ~ 113074 CDDA sectors
File Size : 60.3M
Bit Rate : 320k
Sample Encoding: MPEG audio (layer I, II or III)
Comments :
Title=Track 01-10
Artist=Angel of Blasphemy
Album=Livedemolition 1.91
Tracknumber=01-10
Year=1991
Genre=Black Metal

[/more]

Register
(13) 1968_janeart, dermarsoran, HMHamster, infiltrator, morbidangelo, Olethros, Rosen, satanist666, Sjelekval, thenecromancer, varlam4, vasiljev_sergej, Wail,
Feb 3 2020, 17:01:30 Solhverv - Offerdalen (2011)


*Artist: Solhverv
*Album: Offerdalen
*Year: 2011
*Genre: Ambient/Black Metal
*Country: Denmark
*Format: mp3@CBR320kbps
*Size: 167MB

Tracklist:
1. Vinterdødsriget
2. Hængt
3. Skygge Storme
4. Strandhugst
5. Offerdalen
6. Massacre
7. Hrodvitne
8. Mørkets Dyb
9. Skygge Sort Ritual
10. DR Program 1994 Af Michael Bertelsen
11. DR 1994 Lyrik Oplæsning Af Bjarke Alstrand
12. DR 1992 Doktor Demo Med Interview Af Thomas
******************************
Total playing time: 1:12:48

[more=Technical info]
Input File: 06-Massacre.mp3
Channels : 2
Sample Rate : 48000
Precision : 16-bit
Duration : 00:02:32.02 = 7296912 samples ~ 11401.4 CDDA sectors
File Size : 6.08M
Bit Rate : 320k
Sample Encoding: MPEG audio (layer I, II or III)
Comments :
Title=Massacre
Artist=Solhverv
Album=Offerdalen
Tracknumber=06/12
Year=2011
Genre=Black Metal

[/more]

Register
(19) 1968_janeart, ASkyThatBurns, dermarsoran, HMHamster, Ildjarn, infiltrator, Kazoth, kim666, nord6666, obituarydark, Olethros, Rosen, Rudolfo_Metal, SilentNidhogg, stub888, thenecromancer, varlam4, vasiljev_sergej, Wail,
Feb 3 2020, 15:29:41 Aftenrusk - Náttfari [demo] (2010)


*Artist: Aftenrusk
*Album: Náttfari [demo]
*Year: 2010
*Genre: Black Metal
*Country: Denmark
*Format: mp3@CBR320kbps
*Size: 116MB

Tracklist:
1. I Krattet
2. Náttfari
3. Stivfrossen Sjæl Pt.1
4. Det Hviskes I Sivet
5. Satan I Mørke Smile
6. Stivfrossen Sjæl Pt.2
7. Min Frænd
8. Enternes Angreb
******************************
Total playing time: 49:49

[more=Technical info]
Input File: 06-stivfrossen_sjæl_pt.2.mp3
Channels : 2
Sample Rate : 48000
Precision : 16-bit
Duration : 00:10:25.25 = 30012048 samples ~ 46893.8 CDDA sectors
File Size : 25.0M
Bit Rate : 320k
Sample Encoding: MPEG audio (layer I, II or III)
Comments :
Title=stivfrossen sjæl pt.2
Artist=Aftenrusk
Album=Náttfari
Tracknumber=06/08
Year=2010
Genre=Black Metal

[/more]

Register
(19) 1968_janeart, ASkyThatBurns, dermarsoran, HMHamster, infiltrator, kauyumari, kim666, morbidangelo, Olethros, Rosen, Rudolfo_Metal, satanist666, SilentNidhogg, Sjelekval, stub888, thenecromancer, varlam4, vasiljev_sergej, Wail,
Feb 3 2020, 13:18:25 Nastran - Geirrød Halvhjerte [demo] (2011)


*Artist: Nastran
*Album: Geirrød Halvhjerte [demo]
*Year: 2011
*Genre: Black Metal
*Country: Denmark
*Format: mp3@CBR320kbps
*Size: 35MB

Tracklist:
1. Geirrød Halvhjerte
2. Vøluspa
3. Ginnungagap
4. Skøfnung
******************************
Total playing time: 14:39

[more=Technical info]
Input File: 01-Geirrød_Halvhjerte.mp3
Channels : 2
Sample Rate : 48000
Precision : 16-bit
Duration : 00:04:46.68 = 13760784 samples ~ 21501.2 CDDA sectors
File Size : 11.5M
Bit Rate : 320k
Sample Encoding: MPEG audio (layer I, II or III)
Comments :
Title=Geirrød Halvhjerte
Artist=Nastran
Album=Geirrød Halvhjerte
Tracknumber=01/04
Year=2011
Genre=Black Metal

[/more]

Register
(24) 1968_janeart, ASkyThatBurns, dermarsoran, HMHamster, Ildjarn, kim666, lestllk, Ludwig Hagen, morbidangelo, nord6666, Olethros, Rosen, satanist666, Sergey, Shape, SilentNidhogg, Sjelekval, stub888, thenecromancer, VALERY, varlam4, vasiljev_sergej, Wail, wreak,
Feb 3 2020, 12:29:23 Helsot - Refuge Into Satanic Consumption [demo] (2011)


*Artist: Helsot
*Album: Refuge Into Satanic Consumption [demo]
*Year: 2011
*Genre: Black Metal
*Country: Denmark
*Format: mp3@CBR320kbps
*Size: 57MB

Tracklist:
1. Amphibian Attack
2. Profane Necrosabbath
3. Ghouls Of Black Torment
4. The Decaying Goat
5. Unholy Deficient - Secretion Of Evil
6. Evoke The Mycelium Indulgent
7. Ritual Of The Morbid Alfa Goat
8. Infame Acidification Goat
9. Incarnated Spermatocidal Demon
10. Disfigured Bloodmask Of Belzebub
11. Graft Of Goat Feaces Outro
******************************
Total playing time: 24:28

[more=Technical info]
Input File: 05-Unholy_deficient_-_secretion_of_evil.mp3
Channels : 2
Sample Rate : 48000
Precision : 16-bit
Duration : 00:03:09.22 = 9082512 samples ~ 14191.4 CDDA sectors
File Size : 7.57M
Bit Rate : 320k
Sample Encoding: MPEG audio (layer I, II or III)
Comments :
Title=Unholy deficient - secretion of evil
Artist=Helsot
Album=Refuge into Satanic Consumption
Tracknumber=05/11
Year=2011
Genre=Black Metal

[/more]

Register
(21) 1968_janeart, ASkyThatBurns, gena, HMHamster, Ildjarn, kim666, morbidangelo, nord6666, Olethros, Rosen, satanist666, SilentNidhogg, Sjelekval, stub888, thenecromancer, umnaxtet, VALERY, varlam4, vasiljev_sergej, Wail, wreak,
Feb 3 2020, 11:37:13 Front Beast - Shadows [ep] (2019)


*Artist: Front Beast
*Album: Shadows [ep]
*Year: 2019
*Genre: Black Metal
*Country: Germany
*Format: mp3@CBR320kbps
*Size: 57MB

Tracklist:
1. Satan
2. Taken To The Abyss
3. Circle Of Dancing Shadows
4. Morbid Visions
5. Wolf's Howl
6. A Life Beyond
******************************
Total playing time: 21:32

[more=Technical info]
Input File: 06-A_Life_Beyond.mp3
Channels : 2
Sample Rate : 48000
Precision : 16-bit
Duration : 00:04:24.17 = 12680208 samples ~ 19812.8 CDDA sectors
File Size : 10.6M
Bit Rate : 320k
Sample Encoding: MPEG audio (layer I, II or III)
Comments :
Title=A Life Beyond
Artist=Front Beast
Album=Shadows
Tracknumber=06/06
Year=2019
Genre=Black Metal

[/more]

Register
(26) 1968_janeart, Asketto, ASkyThatBurns, Boozer, DarkHorde, FUDEDOR, HMHamster, Ildjarn, kim666, lestllk, Olethros, Ostinato, Razorbladeswaltz, Rosen, satanas189, satanist666, SilentNidhogg, stub888, thenecromancer, the_cleanser, VALERY, varlam4, vasiljev_sergej, Wail, wgs73, wreak,
Feb 3 2020, 10:56:01 Phrenetic - Phrenetic [demo] (2000)


*Artist: Phrenetic
*Album: Phrenetic [demo]
*Year: 2000
*Genre: Death Metal
*Country: Denmark
*Format: mp3@CBR320kbps
*Size: 64MB

Tracklist:
1. Deeper Slaughterbrain
2. Phrenetic
3. Preacher Of Lies
4. Hunger For Flesh
5. Pure Hate Of God
******************************
Total playing time: 23:10

[more=Technical info]
Input File: 01-Deeper_Slaughterbrain.mp3
Channels : 2
Sample Rate : 44100
Precision : 16-bit
Duration : 00:05:18.32 = 14038000 samples = 23874.1 CDDA sectors
File Size : 12.7M
Bit Rate : 320k
Sample Encoding: MPEG audio (layer I, II or III)
Comments :
Title=Deeper Slaughterbrain
Artist=Phrenetic
Album=Phrenetic
Tracknumber=01/05
Year=2000
Genre=Death Metal

[/more]

Register
(17) ASkyThatBurns, Corpuscul, dermarsoran, Hell_Is_Here, HMHamster, lestllk, Olethros, Proteus_666, Rosen, satanist666, stumpheavyrock, thenecromancer, varlam4, vyacheslav, Wail, wreak, Герб,
Feb 3 2020, 10:37:15 Arise - Tale Of The Cannibal [demo] (1995)


*Artist: Arise
*Album: Tale Of The Cannibal [demo]
*Year: 1995
*Genre: Death Metal
*Country: Denmark
*Format: mp3@CBR320kbps
*Size: 37MB

Tracklist:
1. Intro
2. Tale Of The Cannibal Part 1
3. Tale Of The Cannibal Part 2
4. Outro
******************************
Total playing time: 10:45

[more=Technical info]
Input File: 02-Tale_of_the_Cannibal_Part_1.mp3
Channels : 2
Sample Rate : 48000
Precision : 16-bit
Duration : 00:05:02.81 = 14534928 samples ~ 22710.8 CDDA sectors
File Size : 12.1M
Bit Rate : 320k
Sample Encoding: MPEG audio (layer I, II or III)
Comments :
Title=Tale of the Cannibal Part 1
Artist=Arise
Album=Tale of the Cannibal
Tracknumber=02/04
Year=1995
Genre=Death Metal

[/more]

Register
(20) 380661176558, Corpuscul, enslaver, Hell_Is_Here, HMHamster, lestllk, METALHUNTER, nord6666, Olethros, Proteus_666, Rosen, satanist666, stumpheavyrock, thenecromancer, varlam4, vyacheslav, Wail, wreak, Xtohar, Герб,
Jan 31 2020, 13:35:36 Genfærd - Blodhævn (2020)


*Artist: Genfærd
*Album: Blodhævn
*Year: 2020
*Genre: Black Metal
*Country: Denmark
*Format: mp3@CBR320kbps
*Size: 139MB

Tracklist:
1. Galgenat
2. Splittelse
3. Trællegang
4. Hævnen
5. Varslet
6. Foragtens Flammer
7. Det Grå Rige
8. Det Sidste Svigt
9. Hedengang
******************************
Total playing time: 58:13



[more=Technical info]
Input File: 09-Hedengang.mp3
Channels : 2
Sample Rate : 44100
Precision : 16-bit
Duration : 00:09:01.11 = 23862819 samples = 40583 CDDA sectors
File Size : 21.6M
Bit Rate : 320k
Sample Encoding: MPEG audio (layer I, II or III)
Comments :
Title=Hedengang
Artist=Genfærd
Album=Blodhævn
Tracknumber=09/09
Year=2020
Genre=Black Metal

[/more]

Register
(42) 1968_janeart, AlexSmith, andivi, ASkyThatBurns, atavist, Boozer, Carcharoth, DarkHorde, Glioma, Hell_Is_Here, Ildjarn, infiltrator, Kehl05, kim666, lestllk, MadCarrot, MMMMM, Moonshtook, multizwilling, nadin85, nemx, nsk2008, Olethros, Ostinato, randumbum, Razorbladeswaltz, rimfrost, ripper33, robertho777, Rosen, Rudolfo_Metal, sandr666, satanist666, SilentNidhogg, stub888, terron, Torlof, VALERY, varlam4, vasiljev_sergej, vovenom, wreak,
Aug 3 2019, 09:35:37 Vomit Angel - Imprint Of Extinction (2019)


*Artist: Vomit Angel
*Album: Imprint Of Extinction
*Year: 2019
*Genre: Death Metal/Grindcore
*Country: Denmark
*Format: mp3@CBR320kbps
*Size: 69MB

Tracklist:
1. Intro
2. Concussion
3. Ancient Heritage
4. Hobo In The Woods
5. Vomit Angel
6. Vomits
7. U.S.G
8. Satanic Eelhead
9. Petard
10. Hollow Earth
11. Poisoned Dreams
12. The Sabbath Of The Goat
13. Vestfyen Classic
14. Unearthed Skull
15. Freezing To Death
16. Guinea Pig
17. Defecation
18. A Brutal Meeting
19. Surprise
20. Raped By The Horny Goat
******************************
Total playing time: 28:24



[more=Extended info]VOMIT ANGEL was formed in 2014 as a solo-project by Necrodevil (ex-SADOMATOR / SADOGOAT). The plan was to do some bestial black/death metal in the vein of SADOMATOR since that band was more or less defunct by that point. In 2015, Lord Titan (ex-SADOGOAT) took up drumming again after a 13-year hiatus and joined Necrodevil for a one-off gig with SADOGOAT, to celebrate the anniversary of Ancient Darkness Records. Things went so well that Necrodevil and Lord Titan decided to work together again, and so Lord Titan joined VOMIT ANGEL.

Soon, VOMIT ANGEL's musical direction (d)evolved and became more grinding, and eventually, the style was set and recording of a debut mini-album commenced. Released in 2016 by longtime SADOMATOR supporters IRON BONEHEAD, VOMIT ANGEL's Sadomatic Evil was musically a mix of songs in the old SADOMATOR vein and the more grinding direction the band was taking. But already, the lyrical universe was chosen to evolve around personal experiences, dealing with stories from the past and current life of the duo. The mini-album was received well by the fans, being enjoyed both by old SADOMATOR / SADOGOAT fans but also gaining a host of new fans. Sod Corpse (Ligfaerd) was helping out on bass guitar on the mini-album and live at Metal Magic Festival 2017.

Later, Peter Hugorm (Pustulation/Würm's Tongue) took over the session bass-guitar duties and can be heard on VOMIT ANGEL's imminent debut album, Imprint of Extinction. But Hugorm is no stranger to the band since he already helped out at Metal Magic in 2017, too, by delivering deadly guitar leads at the show. Thus armed, 2019 will show VOMIT ANGEL's fully developed musical direction, as Imprint of Extinction contains a blasting mix of shorter grindcore songs and mid-length, more death metal-oriented songs. All in all, a deadly combo of death metal, grindcore, and the band members' more-than-20-years involvement / evolvement in the underground - and of course, that touch of distinctive SADOMATOR madness.

Further, 2019 will also see the release of the Cacodemon split 7" with blackgrind comrades Satanik Goat Ritual, which also marks the goodbye to Sod Corpse, as this will be his final work with VOMIT ANGEL (for now), as he needs to concentrate on Ligfaerd and personal life. From here on out, VOMIT ANGEL plan to play a few select shows each year, record more songs when possible, and generally spread their style of Sado Grind Metal or Gliimszbieriig Metal as much as possible.[/more]

[more=Technical info]
Input File: 18-A_Brutal_Meeting.mp3
Channels : 2
Sample Rate : 44100
Precision : 16-bit
Duration : 00:03:11.23 = 8433243 samples = 14342.2 CDDA sectors
File Size : 7.65M
Bit Rate : 320k
Sample Encoding: MPEG audio (layer I, II or III)
Comments :
Title=A Brutal Meeting
Artist=Vomit Angel
Album=Imprint of Extinction
Tracknumber=18/20
Year=2019
Genre=Death Metal

[/more]

Register
(29) alikkon, andreikun, artscald, atavist, Boozer, DimON, GorAtheist, heinz88, infiltrator, infozahist, jollo, marilin, METALHUNTER, MMMMM, morbidangelo, oldvarg, Olethros, ripper33, Rosen, SadistikSlayer, Samaritianin, satanist666, Vraithee, vyacheslav, wgs73, Wizard_in_Black, wreak, Zaephar, Герб,
Jul 20 2019, 17:12:01 Deiquisitor - Towards Our Impending Doom (2019)


*Artist: Deiquisitor
*Album: Towards Our Impending Doom
*Year: 2019
*Genre: Death Metal
*Country: Denmark
*Format: mp3@CBR320kbps
*Size: 87MB

Tracklist:
1. Shapeshifter
2. An Altar To An Alien God
3. Towards Our Impending Doom
4. Divine Molecular Transcendence
5. The Feathered Serpent
6. Towers Of Lightning
7. The Unearthly
8. Axons Of The Cortex
9. Extinction
******************************
Total playing time: 38:30

[more=Extended info]12" Vinyl[/more]

[more=Technical info]
Input File: 09-Extinction.mp3
Channels : 2
Sample Rate : 48000
Precision : 16-bit
Duration : 00:05:45.96 = 16606224 samples ~ 25947.2 CDDA sectors
File Size : 13.8M
Bit Rate : 320k
Sample Encoding: MPEG audio (layer I, II or III)
Comments :
Title=Extinction
Artist=Deiquisitor
Album=Towards Our Impending Doom
Tracknumber=09/09
Year=2019
Genre=Death Metal

[/more]

Register
(42) Albert66613, andreikun, artscald, Boozer, cist, DarkHorde, El_Chibo, Evilded, fishish, GorAtheist, Hell_Is_Here, jollo, judaz, Leshiy666, lestllk, lopuh21, marilin, metala, METALHUNTER, Mist13Signifier, MMMMM, Noobsaibot71, Olethros, Ostinato, Pinhead666, ripper33, Rosen, Samaritianin, satanist666, smysl, soulflesh, stumpheavyrock, TeamatSE, thrashes, Tino, Tyler, VALERY, vyacheslav, wreak, wtk.412, WX419, Герб,
Jul 20 2019, 14:20:55 Denial Of God - The Shapeless Mass [ep] (2019)


*Artist: Denial Of God
*Album: The Shapeless Mass [ep]
*Year: 2019
*Genre: Black Metal
*Country: Denmark
*Format: mp3@CBR320kbps
*Size: 58MB

Tracklist:
1. The Shapeless Mass
2. The Statues Are Watching
3. Call From The Grave (Bathory Cover)
4. Mama Loi, Papa Loi (Exuma Cover)
******************************
Total playing time: 25:43

[more=Extended info]12" Vinyl

At long last, legendary black metallers DENIAL OF GOD return with a special mini-album titled The Shapeless Mass! Set to be jointly released by OSMOSE PRODUCTIONS and HELLS HEADBANGERS, The Shapeless Mass will be the long-running band's first new recording since 2012's Death and the Beyond. To say that it's highly anticipated and very long overdue would be quite the understatement!

By now, DENIAL OF GOD should need little introduction. Since that fateful year of 1991, the brothers Azter and Ustumallagam have perfected an idiosyncratic style of black metal that's positively drenched in the supernatural and remains firm in their conviction of more classicist-styled songwriting. In fact, "black metal" might even be a misnomer; rather, BLACK HORROR METAL would be more accurate.

Nevertheless, as the years have gone on and they wisely parcel out their releases, each DENIAL OF GOD record is special, and The Shapeless Mass is no exception. Arguably the band's most violent and intense recording, The Shapeless Mass takes the listener down many horrific paths - and epic ones, too, as the four-song mini-album totals 26 minutes! Honoring their roots, the band also deliver a reverential cover of Bathory "Call From the Grave." But perhaps the biggest news is that The Shapeless Mass is a companion piece to DENIAL OF GOD's upcoming third album, The Hallow Mass - even more epic horror awaits!
credits
released June 28, 2019[/more]

[more=Technical info]
Input File: 01-The_Shapeless_Mass.mp3
Channels : 2
Sample Rate : 48000
Precision : 16-bit
Duration : 00:09:09.27 = 26364816 samples ~ 41195 CDDA sectors
File Size : 22.0M
Bit Rate : 320k
Sample Encoding: MPEG audio (layer I, II or III)
Comments :
Title=The Shapeless Mass
Artist=Denial of God
Album=The Shapeless Mass
Tracknumber=01/04
Year=2019
Genre=Black Metal

[/more]

Register
(42) 1968_janeart, acerbus, Antichrist, artscald, Boozer, cancer1974, cist, dasreichss, dermarsoran, FUDEDOR, Hell_Is_Here, Ildjarn, Infidel, infiltrator, kim666, Legacy100, legion01, lestllk, Ludwig Hagen, milosdjor, morbidangelo, Namnlos, Olethros, Ostinato, ripper33, robertho777, Rosen, satanist666, sethurius, SilentNidhogg, stub888, thenecromancer, the_cleanser, thrashes, VALERY, varlam4, vasiljev_sergej, vovenom, whiteknight, Wizard_in_Black, wreak, Абигор,
May 12 2019, 09:48:25 Black Ejaculate - Cum Soaked Messiah [demo] (2019)


*Artist: Black Ejaculate
*Album: Cum Soaked Messiah [demo]
*Year: 2019
*Genre: Black Metal
*Country: United States
*Format: mp3@CBR320kbps
*Size: 41MB

Tracklist:
1. Cum Soaked Messiah
2. Bearded Hobo Of Nazarene
3. Wine And Bile
4. Eternal Woman (Hell Of Your Love) (Ride For Revenge Cover)
5. Prevail In Hell (Ride For Revenge Cover)
******************************
Total playing time: 18:06



[more=Extended info]TAPE[/more]

[more=Technical info]
Input File: 01-Cum_Soaked_Messiah.mp3
Channels : 2
Sample Rate : 48000
Precision : 16-bit
Duration : 00:06:18.56 = 18170640 samples ~ 28391.6 CDDA sectors
File Size : 15.1M
Bit Rate : 320k
Sample Encoding: MPEG audio (layer I, II or III)
Comments :
Title=Cum Soaked Messiah
Artist=Black Ejaculate
Album=Cum Soaked Messiah
Tracknumber=01/05
Year=2019
Genre=Black Metal

[/more]

Register
(16) 1968_janeart, dermarsoran, helvetestoner, Ignativs, kim666, Olethros, Orkkh, Rosen, sacrut, satanist666, SilentNidhogg, stub888, Styx, VALERY, vasiljev_sergej, wreak,
Apr 27 2019, 10:24:12 Iconoclasm - Obscurity [demo] (2019)


*Artist: Iconoclasm
*Album: Obscurity [demo]
*Year: 2019
*Genre: Death Metal
*Country: Denmark
*Format: mp3@CBR320kbps
*Size: 72MB

Tracklist:
1. Intro: Metempsychosis The Great
2. Obscurity
3. Beyond Life
4. Darkened Wasteland
5. The Parting (Bonus)
6. Shades (Bonus)
7. Hymn Of Khamsin (Bonus)
******************************
Total playing time: 31:16



[more=Extended info]Rereleased as CD with 3 unreleased tracks[/more]

[more=Technical info]
Input File: 02-Obscurity.mp3
Channels : 2
Sample Rate : 44100
Precision : 16-bit
Duration : 00:08:19.83 = 22042547 samples = 37487.3 CDDA sectors
File Size : 20.0M
Bit Rate : 320k
Sample Encoding: MPEG audio (layer I, II or III)
Comments :
Title=Obscurity
Artist=Iconoclasm
Album=Obscurity
Tracknumber=02/07
Year=2019
Genre=Death Metal

[/more]

Register
(15) AHBAnep, Evilded, infiltrator, lawronchik, METALHUNTER, nord6666, older68, Olethros, Ostinato, Rosen, stumpheavyrock, thenecromancer, tristan1331, VALERY, Герб,
Apr 27 2019, 07:44:13 Blackhorned - Lost Souls Of Mental Famine (2015)


*Artist: Blackhorned
*Album: Lost Souls Of Mental Famine
*Year: 2015
*Genre: Black/Thrash Metal
*Country: Denmark
*Format: mp3@CBR320kbps
*Size: 108MB

Tracklist:
1. Shrouded In Mystery
2. Portal Of Madness
3. Dark Whispers (In The Mist)
4. A Nail In The Coffin
5. Lost Souls Of Mental Famine
6. Seeds Of Destruction
7. The Curse Of The Moon
8. Beyond The Edge Of Existence
9. Forest Of The Dead
10. When Wolves Are Let Lose
******************************
Total playing time: 48:14



[more=Extended info]TAPE[/more]

[more=Technical info]
Input File: 10-When_Wolves_Are_Let_Lose.mp3
Channels : 2
Sample Rate : 48000
Precision : 16-bit
Duration : 00:07:56.67 = 22880016 samples ~ 35750 CDDA sectors
File Size : 19.1M
Bit Rate : 320k
Sample Encoding: MPEG audio (layer I, II or III)
Comments :
Title=When Wolves Are Let Lose
Artist=Blackhorned
Album=Lost Souls of Mental Famine
Tracknumber=10/10
Year=2015
Genre=Black Metal

[/more]

Register
(16) boby9052, Carcharoth, dimmannius, Infidel, kim666, lestllk, METALHUNTER, Olethros, Ostinato, Rosen, RUSP73, satanist666, Sergey, stumpheavyrock, vasiljev_sergej, wgs73,

8 Pages V   1 2 3 > » 
- Lo-Fi Version Support form
Copyrights and abuse reports form
Time is now: 17th June 2024 - 10:58:44