Welcome Guest ( Log In | Register )

История благодарностей участнику dsp ::: Спасибо сказали: 1117 раз(а)
Дата поста: В теме: За сообщение: Спасибо сказали:
Nov 21 2013, 12:15:04 Новости Black-направления
[more="Долгожданные релизы японцев уже вышли на www.thoseopposedrecords.com "]http://www.thoseopposedrecords.com/flyernovembre2013final.jpg[/more]
(7) acerbus, CryptOn, Daale, Forrrrest, GTrooper, Premature_Devotion, RADeus,
Nov 16 2013, 18:31:21 Ordrhein - Magnitude Of Ancient Fragment [ep] (2013)


*Artist: Ordrhein
*Album: Magnitude Of Ancient Fragment [ep]
*Year: 2013
*Genre: Black Metal
*Country: United States
*Format: mp3@CBR320kbps
*Size: 28MB

Tracklist:
1. Ca' Vendramin Calergi
2. Requital Of Labyrinthine Torment
******************************
Total playing time: 12:28



[more=Extended info]Limited to 150 copies[/more]

[more=Technical info]
Input File: 01 Ca\\\' Vendramin Calergi.mp3
Channels : 2
Sample Rate : 44100
Precision : 16-bit
Duration : 00:05:10.02 = 13672058 samples = 23251.8 CDDA sectors
File Size : 12.4M
Bit Rate : 320k
Sample Encoding: MPEG audio (layer I, II or III)
Comments :
Title=Ca' Vendramin Calergi
Artist=Ordrhein
Album=Magnitude of Ancient Fragments
Tracknumber=1
Year=2013

[/more]

Register
(43) 0x13, 1968_janeart, 666BlackDeath, acerbus, Boozer, caro, Darkthronefoad, ddarkthrone, Eichmann, El_Chibo, Forrrrest, Fryz, garretje, Hell_Is_Here, Hswhhh, kefka, lestllk, little_raven, lopuh21, MarcoMR, mondblut, olav, Ostinato, RADeus, randumbum, RENыч, rickzammuto, rom666, RUSP73, satanist666, serach, smes, stub888, Tha, toly1917, tont, tormoz, VALERY, varlam4, vasiljev_sergej, wreak, ZA670, Абигор,
Oct 17 2013, 18:36:37 Новости Black-направления
[more="Funeral Mist "Trisagion" vinyl box set"]http://imageshack.us/scaled/medium/854/mio9.jpg

Box including compiling all albums so far, “Devilry”, “Salvation” and “Maranatha”.
5 vinyls in 3 gatefold sleeves, 28 pages booklet, A1 poster & woven patch.[/more]
(3) acerbus, Hswhhh, T.H.U.L.E.,
Oct 16 2013, 17:40:23 Новости Black-направления
[more="We are proud to present you today the front cover for the new album "मृत्यु का तापसी अनुध्यान" ("Ascetic Meditation of Death") by CULT OF FIRE
Artwork by David Glomba"]http://i214.photobucket.com/albums/cc179/witchesnest/CultOfFireCover_zps02b8cc9a.jpg [/more]
(5) Ambercandle, lordbathor, Premature_Devotion, RADeus, UlvhedinGrom,
Oct 10 2013, 16:40:01 Новости Black-направления
[youtube]yrjTE0hsjFo&feature=youtu.be[/youtube]
(8) acerbus, Coenobite, Goatrex, GTrooper, Hswhhh, Premature_Devotion, raincatz, tormoz,
Oct 9 2013, 18:45:01 Новости Black-направления
[more="Cosmic Church "Ylistys" "]
http://oi41.tinypic.com/2q37ud5.jpg

Second album of pure black metal out now on Kuunpalvelus on vinyl and CD.

Three sample songs up on Soundcloud:


Retail and wholesale only at
http://www.ahdistuksenaihio.com/

WORLWIDE DISTRIBUTION:
Northern Heritage
Terratur Possessions
Triumph of Death
Merchant of Death
Iron Bonehead
Those Opposed
Bubonic
Levykauppa Äx[/more]
(4) ancientous, Forrrrest, Hswhhh, Premature_Devotion,
Oct 5 2013, 14:52:40 Новости Black-направления
Вышел бокс Necros Christos - One In Darkness, Two In Damnation, Three In Death, 2002 - 2007 на Sepulchral Voice Records 25.gif

[more="фото"][/more]

Также переизданы Wulkanaz на дигипаках и остальные проекты ... crazy.gif
http://www.altare.pt/shopping/packs/altare...013-10-05--html
(2) acerbus, Premature_Devotion,
Sep 20 2013, 14:07:50 Новости Black-направления
[more="Blut Aus Nord - What Once Was : Liber III "]



http://www.eitrin.com/
[/more]
(8) brth, Foghuman, Haunting, Hswhhh, Infidel, infiltrator, vosmidesijatye, некрософ,
Sep 20 2013, 10:36:59 Новости Black-направления
[more="ЛЮТОМЫСЛ «Небосвод» EP"]

Скоро на Nihilward productions[/more]
(10) buxsta, Chasm, D.S.Embassy, Fryz, infiltrator, lordbathor, Maax, Premature_Devotion, T.H.U.L.E., Void_Dragon,
Sep 18 2013, 19:18:54 Новости Black-направления
We are proud to present you today a song from the upcoming second full lenght album " मृत्यु का तापसी अनुध्यान" by CULT OF FIRE.

Release date is set to the 31st of October 2013.

LP & Tape via Iron Bonehead Prod.
CD via NecroShrine Records

Inhale utter darkness....

(7) Eichmann, infiltrator, lordbathor, Premature_Devotion, RADeus, tormoz, UlvhedinGrom,
Sep 18 2013, 14:24:31 Новости Black-направления
[more="Lamech Records news"]L A M E C H R E C O R D S PROUDLY PRESENTS:



D I E K U N S T D E R F I N S T E R N I S - 'Das Geheimnis des Vampirs' 12" LP




S A P I E N T I A - 'Through the first Sphere of Saturnus' 12" LP


Coming SOON....

http://www.lamech-records.org/DISTRO%20ORGANIZATION/CapaxInfiniti-cover.png

H E T R O E R T Z E N / D O D S E N G E L - 'Capax Infiniti' Split 12" LP (LAMECH 2212 - SRAN 016)


Majestic essence of Ancient vibrations.

Two of the foremost and exciting groups conjoined in one Sacred Work.

Deluxe full-length 12" LP with insert.

Co-released by LAMECH RECORDS (Swe) & BARGHEST (Uk).


RELEASE DATE: December 2013




MYSTRUIN - TBA' CD (LAMECH 2211)

LVXCAELIS - 'Slaughtering of the Lamb' Pro-tape (LAMECH 2213)[/more]
(8) acerbus, Eichmann, Infidel, infiltrator, lordbathor, RADeus, sethurius, T.H.U.L.E.,
Sep 12 2013, 12:46:35 Новости Black-направления
[youtube]GE1_AroOCb4[/youtube]

From the "The Sad Realm of the Stars" album released in 1998

A professionally remastered edition of this album will be released through Blood Music on CD and Vinyl formats. It will be going out for Pre-ordering on September 25th
(2) Dmitry1977, infiltrator,
Sep 11 2013, 14:17:14 Новости Black-направления
ЦИТАТА(Fryz @ Sep 11 2013, 19:12:01) *
dsp, это хто такие?

Со штатов, вышли на португальском лейбле. Неожиданно хорошо! 9.gif
(3) Bratodrug, Fryz, infiltrator,
Sep 11 2013, 13:56:14 Новости Black-направления
[youtube]i49iKm0_ms0[/youtube]


25.gif 25.gif 25.gif
(2) infiltrator, mondblut,
Sep 5 2013, 12:23:42 Новости Black-направления
ЦИТАТА(Aliving @ Sep 5 2013, 17:15:30) *
Вышел Live LP от Arkha Sva. Называется Satanas, Exaudi Orationem, заказать можно тут, а почитать подробней здесь и здесь.

Также выйдут скоро переиздания на CD/LP дебютной работы японцев и компиляция демок. Ну и естественно ремастированный Avsolutized переиздадут 25.gif
Aug 30 2013, 05:31:56 Buzruh - Alone In The Dark (2013)
I'm waiting Bozqurt, 1st nsbm band from Turkey 25.gif
(2) infiltrator, Лед,
Aug 29 2013, 09:26:17 One Tail, One Head - One Tail, One Head [best of/compilation] (2011)
ЦИТАТА(UlvhedinGrom @ Aug 29 2013, 03:13:26) *
Cleanse, Enshrine In Madness в тегах должно быть.

В EAC уже были вбиты данные людом, видать криворукие

ЦИТАТА(Hvman @ Aug 28 2013, 19:42:38) *
Альбом бы... smile2.gif

ЦИТАТА(smes @ Aug 29 2013, 13:56:40) *
Ну это у меня уже давно на CD есть.

В интервью он говорил о работе над дебютным альбомом, но, мол, концерты те же слишком много времени занимают. Также имеются многочасовые не записанные вещи от Vemod. "Если бы мы были финской бандой, то давно выпустили бы 10 альбомов и 73 сплита с EP" © J.E.
(1) smes,
Aug 28 2013, 16:59:25 Новости Black-направления
[youtube]tLZQZaVNi0g[/youtube]

crazy.gif 25.gif
(12) abomination2, Dmitry1977, Hswhhh, infiltrator, lordbathor, Maribor, RADeus, RUDACHUR, ShmiT, T.H.U.L.E., VECTOR, некрософ,
Aug 28 2013, 10:39:39 One Tail, One Head - One Tail, One Head [best of/compilation] (2011)


*Artist: One Tail, One Head
*Album: One Tail, One Head [best of/compilation]
*Year: 2011
*Genre: Black Metal
*Country: Norway
*Format: mp3@CBR320kbps
*Size: 48MB

Tracklist:
1. In The Golden Light
2. The Splendour Of The Trident Tyger
3. One Tail, One Head
4. Sulphurous Vision
5. Cleanse, Enshrine In Madness
6. Awaken (Being Beyond Form)
******************************
Total playing time: 21:00



[more=Extended info]Compilation containing the two 7"s "Tandava" and "One Tail, One Head".

CD-RIP[/more]

[more=Technical info]
Input File: 01 - In the Golden Light.mp3
Channels : 2
Sample Rate : 44100
Precision : 16-bit
Duration : 00:03:27.10 = 9132890 samples = 15532.1 CDDA sectors
File Size : 8.29M
Bit Rate : 320k
Sample Encoding: MPEG audio (layer I, II or III)
Comments :
Title=In the Golden Light
Artist=One Tail, One Head
Album=Tandava / One Tail, One Head
Tracknumber=01/06
Year=2010
Genre=Black Metal

[/more]

Register
(42) acerbus, andivi, Barricade, Boozer, caro, Constantinus I, D.S.Embassy, Darkthronefoad, ddarkthrone, Eichmann, Fess, Fryz, Hellstriker, Hell_Is_Here, Ildjarn, jpvalentim, Koscheyushka, kryptor, Legacy100, milosdjor, princeshr, QuadenThyrane, Reverend, rom666, RUSP73, satanist666, sethurius, smes, soulskinner681, sperminator, spiritualdecay666, stub888, the_cleanser, Third_of_the_Storms, tont, Torlof, VALERY, vasiljev_sergej, wreak, xska, ZambuL, Абигор,
Aug 28 2013, 10:17:09 One Tail, One Head ‎– One Tail, One Head [best of/compilation] (2011)
ЦИТАТА(soulskinner681 @ Aug 28 2013, 15:08:47) *
Anyone?

I have this CD, w8 9.gif

EDIT: Done One Tail, One Head - One Tail, One Head [best of/compilation] (2011)
(1) soulskinner681,
Aug 16 2013, 09:59:01 Новости Black-направления
Я так понимаю утяжеленного Брайана Адамса за прошлые заслуши запостили? crazy.gif
(2) Chasm, mondblut,
Aug 11 2013, 15:14:48 Black Metal сегодня. Углубленное обсуждение
ЦИТАТА(waldemardr @ Aug 11 2013, 19:59:59) *
малопримечательный симфоблэк BISHOP OF HEXEN.

Это ты хватил лишку. Дебютник весьма хорош у них bye.gif
(2) Kazoth, kim666,
Aug 11 2013, 15:01:13 Askeregn - Undergangsglimt [demo] (2011)


*Artist: Askeregn
*Album: Undergangsglimt [demo]
*Year: 2011
*Genre: Black Metal
*Country: Norway
*Format: mp3@VBR295kbps
*Size: 39MB

Tracklist:
1. Når Stormkastene Tvinger Deg I Kne Tar Jeg En Annen Vei...
2. ...Og Mellom De Blodrøde Skyer Stråler Satans Sol Mot Meg
3. Undergangsglimt: Første Del - Da Jeg Åpnet Mine Øyne... Andre Del - Mitt Råtnende Jeg
******************************
Total playing time: 18:37



[more=Extended info]Tape-rip[/more]

Register
(52) 0x13, 1968_janeart, artscald, Atr, cancer1974, caro, Constantinus I, craP_cillA, Darkthronefoad, Darth Alvasarra, ddarkthrone, DOKTORBLACK88, Eichmann, Fess, Forrrrest, Fryz, Hell_Is_Here, Hswhhh, Ildjarn, kim666, lestllk, maringlen, NachtWulf, Njal, nsmetalhead, Orkkh, Premature_Devotion, RADeus, Razorbladeswaltz, RENыч, RUSP73, Sangreal, satanist666, Semargl2010, SIAVASH, Sjelekval, smes, soulskinner681, spiritualdecay666, SSBandera, stub888, toly1917, tont, tormoz, Typhon88, VALERY, varg-38ru, varlam4, vasiljev_sergej, waldemardr, wreak, Абигор,
Aug 11 2013, 14:52:02 LvxCælis - Nigredo - The Dead Head [demo] (2010)


*Artist: LvxCælis
*Album: Nigredo - The Dead Head [demo]
*Year: 2010
*Genre: Black Metal
*Country: Chile
*Format: mp3@VBR296kbps
*Size: 53MB

Tracklist:
1. Under the Nine Rays of Darkness
2. I've Seen the Light...
3. Summoning Ceremony
4. Come Forth from the Abyss
5. Putrefactio (Outro)
******************************
Total playing time: 5:26



[more=Extended info]Rehearsal demo, recorded at Hypernotia Studio MMVIII.
Produced by LvxCælis & Lamech Records.
Released as pro-tape limited to 333 hand-numbered copies , 33 of these copies will come in a luxurious packaging with a special content. (LAMECH 407-2202).

Tape-rip[/more]

Register
(29) 1968_janeart, acerbus, caro, Darkthronefoad, Eichmann, Forrrrest, Hell_Is_Here, Ildjarn, joyless, kefka, lestllk, NOMIDIMON, Premature_Devotion, RADeus, Razorbladeswaltz, satanist666, SIAVASH, smes, spiritualdecay666, SSBandera, tont, Unknown, VALERY, varlam4, vasiljev_sergej, wgs73, wreak, Zaephar, Абигор,
Aug 11 2013, 08:33:55 Semilanceata - Til Fæmpte Likamans Træd (2013)


*Artist: Semilanceata
*Album: Til Fæmpte Likamans Træd
*Year: 2013
*Genre: Dark Ambient
*Country: Sweden
*Format: mp3@VBR293kbps
*Size: 97MB

Tracklist:
1. Øđeharpær
2. Et Swindele Tøkn
3. Til Dystra Stygia Siø
4. Febereld
5. Drekafluga
6. Swunnen
******************************
Total playing time: 47:00



[more=Extended info]Tape-rip[/more]

Register
(12) acerbus, Hell_Is_Here, kefka, lopuh21, milosdjor, plugawy, Premature_Devotion, Razorbladeswaltz, spiritualdecay666, tormoz, vasiljev_sergej, zdraste_dobriyden,

5 Pages V  < 1 2 3 4 5 >
- Lo-Fi Version Support form
Copyrights and abuse reports form
Time is now: 31st July 2021 - 09:34:19