Welcome Guest ( Log In | Register )

История благодарностей участнику sacramentary ::: Спасибо сказали: 55 раз(а)
Дата поста: В теме: За сообщение: Спасибо сказали:
Jan 15 2023, 18:51:11 Burning Leather - Portland [demo] (2008)
reupload please
(1) rebornflms95,
Jan 15 2023, 18:50:38 Burning Leather & G.A.T.E.S. - Road Burn [split] (2009)
reupload please
(1) thenecromancer,
May 11 2022, 01:11:01 Acheron - Rites Of The Black Mass (1992)
possible to upload the remastered version of 2018??
(1) Occultas,
Nov 24 2021, 22:28:55 Arsenic - Church Of Doom [demo] (1985)
reupload please
(1) dermarsoran,
Oct 27 2021, 22:31:49 Somnvs Mortis - El Advenimiento De Las Pesadillas Perpetuas [ep] (2019)
reupload please
(1) obituarydark,
Oct 8 2021, 01:48:10 Deadlock (Ger-Bv-N) - To The Scum (Demo Compilation) [compilation] (2018)
reupload please
(1) hell_armageddon,
Jan 3 2021, 19:27:03 Truppensturm - Fields Of Devastation (2007)
Is possible to upload the version with the Acheron Cover??
(1) Occultas,
Nov 5 2020, 20:19:48 Hematit - Čas Osudu [demo] (1991)
reupload please
(1) thenecromancer,
Oct 14 2020, 21:31:01 Clandestine Blaze - Fist of the Northern Destroyer (2002)
please upload remastered version
(1) Mencae77,
Mar 22 2020, 20:09:51 Corruption - Absorbed In Misery [demo] (1990)
reupload please
(1) hell_armageddon,
Jun 20 2019, 03:37:42 Cremation Pyre - The Flame Begins - Rehearsal [demo] (2018)


*Artist: Cremation Pyre
*Album: The Flame Begins - Rehearsal [demo]
*Year: 2018
*Genre: Black/Death/Thrash
*Country: Chile
*Format: mp3@CBR320kbps
*Size: 19MB

Tracklist:
1. Look at the Eyes... The Satan's Wrath 03:13

2. Pyre 04:01

3. Electric Shock (Schizo cover) 01:26
******************************
Total playing time: 8:40

[more=Technical info]
Input File: 01 - Look at the Eyes... The Satan\'s Wrath.mp3
Channels : 2
Sample Rate : 44100
Precision : 16-bit
Duration : 00:03:12.74 = 8499702 samples = 14455.3 CDDA sectors
File Size : 7.71M
Bit Rate : 320k
Sample Encoding: MPEG audio (layer I, II or III)

[/more]

Register
(5) artscald, Carcharoth, infiltrator, satanist666, stumpheavyrock,
Jun 12 2019, 03:34:50 Krigere Wolf - Sacrifice To Valaskjàlf (2014)
reupload please
(1) obituarydark,
May 8 2019, 03:23:49 Heretic Execution - Contemplating The Obscurity [demo] (2013)
reupload please
(1) obituarydark,
May 23 2018, 02:54:57 Moriorr - Řev Alkoholika [best of/compilation] (2006)
reupload please
(1) dermarsoran,
May 16 2018, 01:35:08 Minotaur - Power Of Darkness (1988)
can somebody upload the vinyl original versión including the song "Fall of the Gods" please
(1) pichileon,
Nov 19 2017, 16:58:57 Bone Awl - Meaningless Leaning Mess (2007)
reupload high quality versión please!!
(1) Leolomb,
Jul 21 2017, 05:04:24 Hatevomit - Necrövömit [ep] (2015)
reupload please
(1) Wolftribes,
Jun 13 2017, 03:41:54 Impostor - SNS - Still Not Satisfied? [demo] (1990)
reupload please
(1) dermarsoran,
May 14 2017, 02:51:04 Goatspell - Esoterrorism [ep] (2015)
reupload please
(2) obituarydark, Wolftribes,
May 14 2017, 02:42:54 Iron Slaught - Crusading Metal Mercenaries (2015)
reupload please
(1) Wolftribes,
May 6 2017, 18:50:12 Egzekuthor - Czas Sumienia [demo] (1988)
Somebody can upload the reissue of this demo with the demo 87
(1) gamilbt,
Apr 7 2017, 01:56:31 Desecration - Dead... Yet, Not Forgotten
Hails!!

Is possible upload this compilation please!!

Desecration (us) - Dead... Yet, Not Forgotten 2015

Incredible american classic death thrash!!!

(1) Tino,
Mar 22 2017, 03:26:38 Crucifier : Coffins Through Time...a Mourning in Nazareth
Maniacs!!

I am looking for an upload of this incredible compilation!!!


Crucifier (us) : Coffins Through Time...a Mourning in Nazareth

Type:Compilation
Release date:October 1st, 2013
Catalog ID:IBP168
Version desc.:Limited edition
(1) Tino,
Jan 19 2017, 16:19:05 Exhumation - Towards The Werge [ep] (1995)
please reupload!
(1) dermarsoran,
Jan 9 2017, 04:12:57 Bode Preto - Mystic Massacre (2015)
reupload please
(1) wendigo,

2 Pages V   1 2 >
- Lo-Fi Version Support form
Copyrights and abuse reports form
Time is now: 15th April 2024 - 15:44:56