Welcome Guest ( Log In | Register )

Объявления

* gmail.com упорно продолжает считать почту с нас "unsolicited" и отбивает в том числе и письма активации, поэтому просьба использовать альтернативные почтовые ящики.
------------
* gmail.com continues reject all mail from us as "unsolicited" (activation mails too) therefore please use alternate mail servers.
История благодарностей участнику Occultas ::: Спасибо сказали: 5263 раз(а)
Дата поста: В теме: За сообщение: Спасибо сказали:
Jul 11 2024, 13:12:06 Xasthur - Sigils Made Of Flesh And Trees (2017)

bandcamp edition

free download link
Register

(1) Mencae77,
Jun 2 2024, 13:17:45 Organectomy - Tracheal Hanging [single] (2024)


*Artist: Organectomy
*Album: Tracheal Hanging [single]
*Year: 2024
*Genre: Slam/Brutal Death Metal
*Country: New Zealand
*Format: mp3@CBR320kbps
*Size: 10MB

Tracklist:
1. Tracheal Hanging 04:14
******************************
Total playing time: 4:14

Preview 1

[more=Extended info]digital[/more]

[more=Technical info]
Input File: 01 - Tracheal Hanging.mp3
Channels : 2
Sample Rate : 44100
Precision : 16-bit
Duration : 00:04:14.98 = 11244530 samples = 19123.4 CDDA sectors
File Size : 10.2M
Bit Rate : 320k
Sample Encoding: MPEG audio (layer I, II or III)

[/more]

Register
(10) artscald, cenzored, Chasm, HelenVaughan, maochen, Razorbladeswaltz, Rosen, supremo, wreak, XxNachtmahRxX,
Jun 2 2024, 13:07:37 Disentomb - Drear Prophecies [single] (2024)


*Artist: Disentomb
*Album: Drear Prophecies [single]
*Year: 2024
*Genre: Brutal Death Metal
*Country: Australia
*Format: mp3@CBR320kbps
*Size: 11MB

Tracklist:
1. Drear Prophecies 05:04
******************************
Total playing time: 5:04



[more=Technical info]
Input File: 01 - Drear Prophecies.mp3
Channels : 2
Sample Rate : 44100
Precision : 16-bit
Duration : 00:05:04.09 = 13410501 samples = 22807 CDDA sectors
File Size : 12.2M
Bit Rate : 320k
Sample Encoding: MPEG audio (layer I, II or III)

[/more]

Register
(11) ALEXSATHANAS, artscald, ENDSMOUTH, Goatlord666, maochen, mirotvorets, Rosen, supremo, wanderer73, wreak, XxNachtmahRxX,
May 29 2024, 13:03:33 Resurrected - Faireless To The Flesh II (2022)


*Artist: Resurrected
*Album: Faireless To The Flesh II
*Year: 2022
*Genre: Brutal Death Metal/Grindcore
*Country: Germany
*Format: mp3@CBR320kbps
*Size: 98MB

Tracklist:
1. Intro 00:39
2. Two Faces, One Fist 04:48
3. React With Hate 02:21
4. Premature Ejaculation 03:30
5. Unceremonious Promiscuous 03:19
6. Raping Whores 03:22
7. Christcunt 03:53
8. Denomination 03:34
9. Embelish 03:56
10. Virgin Immaculate 04:14
11. Sacrificial Suicide (Deicide Cover) 03:15
******************************
Total playing time: 36:51




[more=Extended info]bandcamp, remixed & re-recorded,[/more]

[more=Technical info]
Input File: 02. Two Faces, One Fist.mp3
Channels : 2
Sample Rate : 44100
Precision : 16-bit
Duration : 00:04:48.80 = 12736036 samples = 21659.9 CDDA sectors
File Size : 11.6M
Bit Rate : 320k
Sample Encoding: MPEG audio (layer I, II or III)

[/more]

Register
(12) artscald, Bannanik, cesar, HelenVaughan, jollo, Korpse, Rosen, spazm, supremo, uk82grind, vyacheslav, wreak,
May 29 2024, 12:51:40 Dies Holocaustum - Souls Cremated [ep] (2022)


*Artist: Dies Holocaustum
*Album: Souls Cremated [ep]
*Year: 2022
*Genre: Death/Thrash Metal
*Country: United Kingdom
*Format: mp3@CBR320kbps
*Size: 16MB

Tracklist:
1. Souls Cremated 04:07
2. Scythe Of The Pestilence 03:06
******************************
Total playing time: 7:13



[more=Technical info]
Input File: 02 - Scythe Of The Pestilence.mp3
Channels : 2
Sample Rate : 44100
Precision : 16-bit
Duration : 00:03:06.13 = 8208113 samples = 13959.4 CDDA sectors
File Size : 7.44M
Bit Rate : 320k
Sample Encoding: MPEG audio (layer I, II or III)

[/more]

Register
(13) amiroo, artscald, boby9052, Evrom, Marek, Rosen, sergsazan, stumpheavyrock, supremo, Wail, Weikai, wreak, Xtohar,
May 22 2024, 06:48:21 Sotherion - Schwarmgeist [demo] (2022)


*Artist: Sotherion
*Album: Schwarmgeist [demo]
*Year: 2022
*Genre: Black Metal
*Country: France
*Format: mp3@CBR320kbps
*Size: 25MB

Tracklist:
1. Shrine Of The Chosen 05:24
2. Schwarmgeist 05:48
******************************
Total playing time: 11:12

[more=Extended info]flac rip,[/more]

[more=Technical info]
Input File: 02 - Schwarmgeist.mp3
Channels : 2
Sample Rate : 44100
Precision : 16-bit
Duration : 00:05:48.55 = 15370835 samples = 26140.9 CDDA sectors
File Size : 13.9M
Bit Rate : 320k
Sample Encoding: MPEG audio (layer I, II or III)

[/more]

Register
(12) artscald, Evrom, Ildjarn, kim666, Nerevar, Rosen, Thy6Wretched6Beast6Within, vasiljev_sergej, Weikai, Winterkalte, wreak, Варяг,
May 22 2024, 06:28:05 Arcada - Infernis Ardentis Monarcha MMXXII [ep] (2022)


*Artist: Arcada
*Album: Infernis Ardentis Monarcha MMXXII [ep]
*Year: 2022
*Genre: Black Metal
*Country: Peru
*Format: mp3@CBR320kbps
*Size: 59MB

Tracklist:
1. Infernis Ardentis Monarcha 07:24
2. Ascensionem 04:19
3. Ignis 07:07
4. XIII 06:57
******************************
Total playing time: 25:47



[more=Extended info]re-recorded, flac rip,[/more]

[more=Technical info]
Input File: 02 - Ascensionem.mp3
Channels : 2
Sample Rate : 44100
Precision : 16-bit
Duration : 00:04:19.96 = 11464148 samples = 19496.9 CDDA sectors
File Size : 10.4M
Bit Rate : 320k
Sample Encoding: MPEG audio (layer I, II or III)

[/more]

Register
(10) artscald, Boozer, Ildjarn, kim666, Rosen, supremo, VALERY, vasiljev_sergej, Weikai, wreak,
May 22 2024, 06:21:04 Arcada - Disonancia [ep] (2022)


*Artist: Arcada
*Album: Disonancia [ep]
*Year: 2022
*Genre: Black Metal
*Country: Peru
*Format: mp3@CBR320kbps
*Size: 27MB

Tracklist:
1. Puruchuca I 05:05
2. Puruchuca II 05:34
******************************
Total playing time: 10:39



[more=Extended info]bandcamp, flac rip,[/more]

[more=Technical info]
Input File: 02 - Puruchuca II.mp3
Channels : 2
Sample Rate : 44100
Precision : 16-bit
Duration : 00:05:34.15 = 14736015 samples = 25061.2 CDDA sectors
File Size : 13.4M
Bit Rate : 320k
Sample Encoding: MPEG audio (layer I, II or III)

[/more]

Register
(13) artscald, Bannanik, Boozer, Evrom, Ildjarn, kim666, Razorbladeswaltz, Rosen, supremo, VALERY, vasiljev_sergej, Weikai, wreak,
Mar 12 2024, 13:49:30 Black Funeral - Wallachian Voivode [ep] (2024)


*Artist: Black Funeral
*Album: Wallachian Voivode [ep]
*Year: 2024
*Genre: Black Metal/Dark Ambient
*Country: United States
*Format: mp3@CBR320kbps
*Size: 39MB

Tracklist:
1. Wallachian Voivode (Screams Of The Impaled) 11:50
2. Scholomance (The Dragon's Elixir) 04:34
******************************
Total playing time: 16:24



[more=Extended info]bandcamp[/more]

[more=Technical info]
Input File: 02 - Scholomance (The Dragon\'s Elixir).mp3
Channels : 2
Sample Rate : 44100
Precision : 16-bit
Duration : 00:04:34.48 = 12104700 samples = 20586.2 CDDA sectors
File Size : 11.0M
Bit Rate : 320k
Sample Encoding: MPEG audio (layer I, II or III)

[/more]

Register
(40) acerbus, Altkiller, andivi, Aresson, artscald, Ash_1980, blaskhyrk, Chasm, Emm Human, gobblin, Grev, hellbibber, Hell_Is_Here, igore2911, Ildjarn, ji_indur, Kazoth, lafuma, Lord Noctua, metaljosue, nadin85, Necromag, nemx, OldY, Pinhead666, Rattenkonig, Razorbladeswaltz, Reverend, rimfrost, sacrut, Sergey, SilentNidhogg, skogtroll, smes, thenecromancer, uk82grind, VALERY, Wail, wreak, yuratroll,
Feb 19 2024, 13:32:31 Slaughtbbath - Bestial Descension [single] (2015)


*Artist: Slaughtbbath
*Album: Bestial Descension [single]
*Year: 2015
*Genre: Black Metal
*Country: Chile
*Format: mp3@CBR320kbps
*Size: 23MB

Tracklist:
1. Bestial Descension 06:39
2. Sadistic Hatehammer 03:38
******************************
Total playing time: 10:17

[more=Extended info]Promo[/more]

[more=Technical info]
Input File: 02 - Sadistic Hatehammer.mp3
Channels : 2
Sample Rate : 44100
Precision : 16-bit
Duration : 00:03:38.19 = 9622003 samples = 16364 CDDA sectors
File Size : 8.73M
Bit Rate : 320k
Sample Encoding: MPEG audio (layer I, II or III)

[/more]

Register
(9) artscald, ErickLeoni, Hell_Is_Here, Ildjarn, marilin, Razorbladeswaltz, SilentNidhogg, Wail, wreak,
Feb 19 2024, 13:26:33 Slaughtbbath - Hail To Fire [single] (2012)


*Artist: Slaughtbbath
*Album: Hail To Fire [single]
*Year: 2012
*Genre: Black Metal
*Country: Chile
*Format: mp3@CBR320kbps
*Size: 17MB

Tracklist:
1. Awakened To Slay 03:19
2. Burn The Traitors 04:19
******************************
Total playing time: 7:38

[more=Extended info]Promo[/more]

[more=Technical info]
Input File: 02 - Burn The Traitors.mp3
Channels : 2
Sample Rate : 44100
Precision : 16-bit
Duration : 00:04:19.77 = 11455681 samples = 19482.5 CDDA sectors
File Size : 10.4M
Bit Rate : 320k
Sample Encoding: MPEG audio (layer I, II or III)

[/more]

Register
(7) artscald, ErickLeoni, Hell_Is_Here, Ildjarn, marilin, SilentNidhogg, wreak,
Feb 16 2024, 11:33:02 Embryonic Devourment - Prime Specimens [compilation] (2023)


*Artist: Embryonic Devourment
*Album: Prime Specimens [compilation]
*Year: 2023
*Genre: Technical/Brutal Death Metal
*Country: United States
*Format: mp3@CBR320kbps
*Size: 80MB

Tracklist:
1. Darken Thy Fluids 02:08
2. Reptiliphiliac 02:24
3. Blood Gift 02:48
4. Eating The Flesh Of Gods 03:27
5. Fear Of Reality Exceeds Fantasy 03:18
6. Challenging All Forms Of Hope 03:13
7. Eye Of The Horomatangi 03:04
8. Cleansing The Infinite 07:32
9. Militarized Reptoids 02:50
10. Sealed With Resin 04:04
******************************
Total playing time: 34:48



[more=Extended info]bandcamp[/more]

[more=Technical info]
Input File: 02 - Reptiliphiliac.mp3
Channels : 2
Sample Rate : 44100
Precision : 16-bit
Duration : 00:02:24.31 = 6363983 samples = 10823.1 CDDA sectors
File Size : 5.77M
Bit Rate : 320k
Sample Encoding: MPEG audio (layer I, II or III)

[/more]

Register
(17) AHBAnep, artscald, chipsgott, DarkHorde, Hell_Is_Here, infozahist, Marek, martintrue, metala, OmegaBlade696, Purestenchkvlt, Reverend, suicidalrampage, supremo, wreak, WX419, yuratroll,
Feb 16 2024, 11:22:14 Black Funeral - Wallachian Voivode [ep] (2024)


*Artist: Black Funeral
*Album: Wallachian Voivode [ep]
*Year: 2024
*Genre: Black Metal/Dark Ambient
*Country: United States
*Format: mp3@CBR128kbps
*Size: 15MB

Tracklist:
1. Wallachian Voivode (Screams Of The Impaled) 11:50
2. Scholomance (The Dragon's Elixir) 04:34
******************************
Total playing time: 16:24



[more=Extended info]bandcamp[/more]

[more=Technical info]
Input File: 02 - Scholomance (The Dragon's Elixir).mp3
Channels : 2
Sample Rate : 44100
Precision : 16-bit
Duration : 00:04:34.49 = 12105185 samples = 20587 CDDA sectors
File Size : 4.39M
Bit Rate : 128k
Sample Encoding: MPEG audio (layer I, II or III)

[/more]
(18) Aresson, Boozer, ChaosArcana, Chasm, desekrator, Fallen_Angel_of_Doom, HelenVaughan, Ignativs, kim666, kimkayoung, obituarydark, Pinhead666, stub888, suseka, thenecromancer, Vidder242, XxNachtmahRxX, yuratroll,
Feb 16 2024, 11:14:07 Nightbringer - Death And The Black Work/Rex Ex Ordine Throni [compilation] (2023)


*Artist: Nightbringer
*Album: Death And The Black Work/Rex Ex Ordine Throni [compilation]
*Year: 2023
*Genre: Black Metal
*Country: United States
*Format: mp3@CBR320kbps
*Size: 318MB

Tracklist:
1. Caput Draconis - Black Saturn 08:56
2. Womb Of Nyx 07:32
3. Feast Of The Manes 07:06
4. Of Silence And Exsanguination 09:57
5. The River Lethe 07:17
6. Beneath The Sands Of Dudael 13:57
7. Cauda Draconis - Azra Lumial 11:02
8. The Somnambulist 07:19
9. The Nascent Gates Of Twilight And Dawn 07:09
10. The Void 08:34
11. Mors Philosphorum 04:59
12. The Dark And The Silence 08:22
13. Vir Sapiens Dominitibar Astris 08:53
14. Temple Of Not 13:08
15. The Sunken Houses Of Sleep 14:28
******************************
Total playing time: 2:18:39




[more=Extended info]https://www.discogs.com/release/27526089-Ni...x-Ordine-Throni[/more]

[more=Technical info]
Input File: 04. Vir Sapiens Dominabitur Astris.mp3
Channels : 2
Sample Rate : 44100
Precision : 16-bit
Duration : 00:08:53.98 = 23548430 samples = 40048.4 CDDA sectors
File Size : 21.4M
Bit Rate : 320k
Sample Encoding: MPEG audio (layer I, II or III)

[/more]
(25) 6black6magic6, AHBAnep, alikkon, artscald, BlackSwordMaster88, blaskhyrk, Evrom, gena, Grev, kim666, Maximvs, megam, Mencae77, milosdjor, Narasimha, Purestenchkvlt, Rover, sacrut, stormhatt, supremo, suseka, VALERY, vovenom, wreak, XxNachtmahRxX,
Feb 6 2024, 14:27:06 Thorybos - Raging Boars And Temple Whores [compilation] (2015)


*Artist: Thorybos
*Album: Raging Boars And Temple Whores [compilation]
*Year: 2015
*Genre: Black/Death Metal
*Country: Germany
*Format: mp3@CBR320kbps
*Size: 85MB

Tracklist:
1. Raging Swine Of Kalydon 03:23
2. Von (Von Cover) 02:11
3. Temple Prostitution At Nisa 05:55
4. Monuments Of Doom Revealed 02:47
5. Atomic Nuclear Desolation (Blasphemy Cover) 00:22
6. White Skulls 03:21
7. War Command (Blasphemy Cover) 00:35
8. The Black Grail Of Putrescence 02:40
9. Command Of The Iron Baphomet (Black Witchery Cover) 02:59
10. Hard Candy Cock (GG Allin Cover) 01:44
11. Monuments Of Doom Revealed (Live) 03:04
12. Orgiastic Rites Of Bacchanalia (Live) 03:43
13. Bite It You Scum (Live) (GG Allin Cover) 02:27
14. Die When You Die (Live) (GG Allin Cover) 01:43
******************************
Total playing time: 36:54



[more=Extended info]reissue 2018[/more]

[more=Technical info]
Input File: 02. Von (Von Cover).mp3
Channels : 2
Sample Rate : 44100
Precision : 16-bit
Duration : 00:02:11.22 = 5786802 samples = 9841.5 CDDA sectors
File Size : 5.25M
Bit Rate : 320k
Sample Encoding: MPEG audio (layer I, II or III)

[/more]

Register
(6) Boozer, sacrut, SilentNidhogg, Wail, XxNachtmahRxX, Козлотролль,
Feb 6 2024, 14:09:58 Beherit - Dawn Of Satan's Millenium [compilation] (2023)


*Artist: Beherit
*Album: Dawn Of Satan's Millenium [compilation]
*Year: 2023
*Genre: Black Metal
*Country: Finland
*Format: mp3@CBR320kbps
*Size: 103MB

Tracklist:
1. Intro: Temple 00:56
2. Metal Of Death 00:53
3. The Oath Of Black Blood 02:41
4. Grave Desecration 02:04
5. Witchcraft 03:12
6. Goat Worship 01:52
7. Demonomancy 02:20
8. Black Mass Prayer 01:15
9. Beast Of Damnation 04:05
10. Hail Sathanas 01:47
11. Dawn Of Satan's Millenium 04:46
12. Paradise, Of Thy Demonic Host 02:58
13. War Command (Blasphemy Cover) 00:31
14. Werewolf, Semen & Blood 04:17
15. Six Days With Sadistic Slayer 02:55
16. Nocturnal Evil 03:06
17. Intro (Fallen Souls) 00:47
18. Fallen Souls 04:15
******************************
Total playing time: 44:40

[more=Extended info]FLAC RIP[/more]

[more=Technical info]
Input File: 07 - Demonomancy.mp3
Channels : 2
Sample Rate : 44100
Precision : 16-bit
Duration : 00:02:20.13 = 6179645 samples = 10509.6 CDDA sectors
File Size : 5.60M
Bit Rate : 320k
Sample Encoding: MPEG audio (layer I, II or III)

[/more]

Register
(36) alikkon, artscald, BabylonRise, Bzth, cancer1974, Farfarello, Femto, Grev, heinz88, hell_armageddon, Hell_Is_Here, INDARKNESS, Infidel, infozahist, kefka, kig, kim666, kryptor, marilin, mayhemehyam, oldvarg, Purestenchkvlt, Reverend, Rover, sacrut, SaintVitus, stub888, supremo, suseka, thenecromancer, the_cleanser, uk82grind, VALERY, Wail, Weikai, XxNachtmahRxX,
Feb 6 2024, 12:59:25 Esoctrilihum - Attempt Of Suicide [single] (2023)


*Artist: Esoctrilihum
*Album: Attempt Of Suicide [single]
*Year: 2023
*Genre: Black Metal
*Country: France
*Format: mp3@CBR128kbps
*Size: 8MB

Tracklist:
1. Attempt Of Suicide 08:39
******************************
Total playing time: 8:39



[more=Extended info]non album track[/more]

[more=Technical info]
Input File: 01 - Attempt Of Suicide.mp3
Channels : 2
Sample Rate : 44100
Precision : 16-bit
Duration : 00:08:39.28 = 22900424 samples = 38946.3 CDDA sectors
File Size : 8.31M
Bit Rate : 128k
Sample Encoding: MPEG audio (layer I, II or III)

[/more]

Register
(2) Mencae77, Reverend,
Feb 6 2024, 12:54:19 Esoctrilihum - Ulthysiur Ts​ö​rth (Rising) [single] (2023)


*Artist: Esoctrilihum
*Album: Ulthysiur Ts​ö​rth (Rising) [single]
*Year: 2023
*Genre: Black Metal
*Country: France
*Format: mp3@CBR320kbps
*Size: 21MB

Tracklist:
1. Ulthysiur Ts​ö​rth (Rising) 09:17
******************************
Total playing time: 9:17



[more=Extended info]non album track[/more]

[more=Technical info]
Input File: 01 - Ulthysiur Tsorth (Rising).mp3
Channels : 2
Sample Rate : 44100
Precision : 16-bit
Duration : 00:09:17.17 = 24570977 samples = 41787.4 CDDA sectors
File Size : 22.3M
Bit Rate : 320k
Sample Encoding: MPEG audio (layer I, II or III)

[/more]

Register
(9) artscald, Boozer, evelyn, Hell_Is_Here, madera, Mencae77, Reverend, Weikai, wreak,
Feb 6 2024, 12:48:39 Hetroertzen - The Final Breath Of Mankind [single] (2024)


*Artist: Hetroertzen
*Album: The Final Breath Of Mankind [single]
*Year: 2024
*Genre: Black Metal
*Country: Chile
*Format: mp3@CBR320kbps
*Size: 39MB

Tracklist:
1. The Final Breath Of Mankind (Live) 10:52
2. Uprising (Live) 06:07
******************************
Total playing time: 16:59




[more=Extended info]bandcamp download[/more]

[more=Technical info]
Input File: 02 - Uprising (Live).mp3
Channels : 2
Sample Rate : 44100
Precision : 16-bit
Duration : 00:06:08.03 = 16230255 samples = 27602.5 CDDA sectors
File Size : 14.7M
Bit Rate : 320k
Sample Encoding: MPEG audio (layer I, II or III)

[/more]

Register
(14) artscald, blaskhyrk, ErickLeoni, Hell_Is_Here, INDARKNESS, marilin, mirotvorets, Pinhead666, sacrut, smysl, Vidyadharov, vovenom, wreak, XxNachtmahRxX,
Dec 28 2023, 12:33:13 Beherit - Dawn Of Satan's Millenium [compilation] (2023)


*Artist: Beherit
*Album: Dawn Of Satan's Millenium [compilation]
*Year: 2023
*Genre: Black Metal
*Country: Finland
*Format: mp3@CBR128kbps
*Size: 41MB

Tracklist:
1. Intro: Temple 00:56
2. Metal Of Death 00:53
3. The Oath Of Black Blood 02:41
4. Grave Desecration 02:04
5. Witchcraft 03:12
6. Goat Worship 01:52
7. Demonomancy 02:20
8. Black Mass Prayer 01:15
9. Beast Of Damnation 04:05
10. Hail Sathanas 01:47
11. Dawn Of Satan's Millenium 04:46
12. Paradise, Of Thy Demonic Host 02:58
13. War Command (Blasphemy Cover) 00:31
14. Werewolf, Semen & Blood 04:17
15. Six Days With Sadistic Slayer 02:55
16. Nocturnal Evil 03:06
17. Intro (Fallen Souls) 00:47
18. Fallen Souls 04:15
******************************
Total playing time: 44:40



[more=Extended info]bandcamp[/more]

[more=Technical info]
Input File: 02 - Metal Of Death.mp3
Channels : 2
Sample Rate : 44100
Precision : 16-bit
Duration : 00:00:53.61 = 2364113 samples = 4020.6 CDDA sectors
File Size : 858k
Bit Rate : 128k
Sample Encoding: MPEG audio (layer I, II or III)

[/more]
(14) acerbus, Bannanik, Chasm, dermarsoran, Gzegorz999, hell_armageddon, mirotvorets, muskatnuss, Pinhead666, rominow, spazm, thenecromancer, Wail, yarrsuaa,
Dec 28 2023, 09:42:47 Ofermod & Black Altar & Acherontas - Drakonian Elitism [split] (2023)


*Artist: Ofermod & Black Altar & Acherontas
*Album: Drakonian Elitism [split]
*Year: 2023
*Genre: Black Metal | Black Metal | Black Metal
*Country: Sweden | Poland | Greece
*Format: mp3@CBR320kbps
*Size: 128MB

Tracklist:
Ofermod:
1. Intro 02:19
2. Vinum Sabathi 05:56
3. Agios Ischyros Belial 06:21
Black Altar:
4. Atavistic Chants Of Levitation 04:21
5. Via Draconis 08:49
6. In The Labyrinths Of Sithra Achra 05:12
7. The Oracle Of Divine Madness 04:43
8. Outro 03:17
Acherontas:
9. Intra Psyche 05:32
10. Astra Magia 08:53
******************************
Total playing time: 55:23




[more=Extended info]BANDCAMP FLAC RIP[/more]

[more=Technical info]
Input File: 05. Black Altar - Via Draconis.mp3
Channels : 2
Sample Rate : 44100
Precision : 16-bit
Duration : 00:08:48.36 = 23300456 samples = 39626.6 CDDA sectors
File Size : 21.1M
Bit Rate : 320k
Sample Encoding: MPEG audio (layer I, II or III)

[/more]

Register
(43) abob, acerbus, ALEXSATHANAS, andeimon, andivi, Antichrist, artscald, Boozer, Chasm, Demonologist, dromord, ent404, Evrom, Fryz, Grev, Hell_Is_Here, jasonwg11, Lanceatum, Maximvs, Messian, metaljosue, milosdjor, nadin85, nemx, nsk2008, Pinhead666, princeshr, rebornflms95, Reverend, Strygaldwir, supremo, Surt, thenecromancer, the_cleanser, VALERY, Vidder242, vovenom, vulpesvulpes, VVR, Wail, wreak, wtk.412, yuratroll,
Dec 26 2023, 09:19:38 Esophagus - KFS Hidden Tapes [ep] (2023)


*Artist: Esophagus
*Album: KFS Hidden Tapes [ep]
*Year: 2023
*Genre: Slam/Brutal Death Metal
*Country: Chile
*Format: mp3@CBR320kbps
*Size: 20MB

Tracklist:
1. The Wrath 02:56
2. Despised One 03:01
3. Supremacy 03:03
******************************
Total playing time: 9:00



[more=Extended info]bandcamp[/more]

[more=Technical info]
Input File: 02 - Despised One.mp3
Channels : 2
Sample Rate : 44100
Precision : 16-bit
Duration : 00:03:01.46 = 8002210 samples = 13609.2 CDDA sectors
File Size : 7.26M
Bit Rate : 320k
Sample Encoding: MPEG audio (layer I, II or III)

[/more]

Register
(9) artscald, Bannanik, bear4848, cesar, gobblin, Hell_Is_Here, Niknne, sludge666, wreak,
Dec 26 2023, 08:36:16 Deicide - Bury The Cross... With Your Christ [single] (2023)


*Artist: Deicide
*Album: Bury The Cross... With Your Christ [single]
*Year: 2023
*Genre: Death Metal
*Country: United States
*Format: mp3@CBR320kbps
*Size: 6MB

Tracklist:
1. Bury The Cross... With Your Christ 02:55
******************************
Total playing time: 2:55

[more=Extended info]digital[/more]

[more=Technical info]
Input File: 01 - Bury The Cross ... With Your Christ.mp3
Channels : 2
Sample Rate : 44100
Precision : 16-bit
Duration : 00:02:55.99 = 7761115 samples = 13199.2 CDDA sectors
File Size : 7.04M
Bit Rate : 320k
Sample Encoding: MPEG audio (layer I, II or III)

[/more]

Register
(35) ALEXSATHANAS, Aresson, artscald, BlackSwordMaster88, blaskhyrk, boby9052, cast_iron, cenzored, cesar, chipsgott, CTPEMLEHIE, garml2, Grev, gwar, hell_armageddon, Hell_Is_Here, Hexenmeister, judaz, kolar666, lacrimatorium, Lord Noctua, Messian, mirotvorets, MMMMM, mpavlentiy, noel666, Phlebotomized, princeshr, Reverend, rominow, vitosdemon, Wail, wreak, yarrsuaa, ZVI,
Dec 24 2023, 14:57:15 Blackwinged - Of Waters And Blood [ep] (2017)


*Artist: Blackwinged
*Album: Of Waters And Blood [ep]
*Year: 2017
*Genre: Black Metal
*Country: Russian Federation
*Format: mp3@CBR320kbps
*Size: 28MB

Tracklist:
1. Shadow River 06:05
2. Ancient Blood 04:25
3. Closing Ritual 01:47
******************************
Total playing time: 12:17

[more=Technical info]
Input File: 02 - Ancient Blood.mp3
Channels : 2
Sample Rate : 44100
Precision : 16-bit
Duration : 00:04:25.92 = 11726852 samples = 19943.6 CDDA sectors
File Size : 10.6M
Bit Rate : 320k
Sample Encoding: MPEG audio (layer I, II or III)

[/more]

Register
(9) artscald, Boozer, Bzth, Grev, Hell_Is_Here, kim666, SilentNidhogg, VALERY, wreak,
Dec 24 2023, 11:21:30 Katatonia - A Sunset Choir For The Daylight Harvest [ep] (2023)


*Artist: Katatonia
*Album: A Sunset Choir For The Daylight Harvest [ep]
*Year: 2023
*Genre: Doom/Death Metal
*Country: Sweden
*Format: mp3@CBR320kbps
*Size: 23MB

Tracklist:
1. Daylight Harvest 04:48
2. Sunset Choir 05:10
******************************
Total playing time: 9:58

[more=Extended info]FLAC RIP[/more]

[more=Technical info]
Input File: 02 - Sunset Choir.flac
Channels : 2
Sample Rate : 44100
Precision : 24-bit
Duration : 00:05:10.55 = 13695258 samples = 23291.3 CDDA sectors
File Size : 66.6M
Bit Rate : 1.72M
Sample Encoding: 24-bit FLAC

[/more]

Register
(55) Aresson, artscald, azarath111, BlackSwordMaster88, BladeOvDarkness, boby9052, cancer1974, cesar, Chasm, Demonologist, dma-09, doomTemplar, Femto, garml2, gav-gafi, Grev, gwar, Hell_Is_Here, Immolator, Infidel, Kaphiel, Kasper969, kluval, kolar666, kostja, lacrimoza, Lanceatum, Mannard, Metalass, Niknne, nsmetalhead, Old Vyaine, Orgasmik, paganheart, princeshr, Razorbladeswaltz, recber, Reverend, Rover, RUSP73, Shadechaser, Shub, Sovdap, stumpheavyrock, supremo, thenecromancer, Un4given, VALERY, vov7609, vyacheslav, Wail, wreak, Yarri, yarrsuaa, yuratroll,

10 Pages V   1 2 3 > » 
- Lo-Fi Version Support form
Copyrights and abuse reports form
Time is now: 24th July 2024 - 14:06:07