Welcome Guest ( Log In | Register )

Объявления

* gmail.com упорно продолжает считать почту с нас "unsolicited" и отбивает в том числе и письма активации, поэтому просьба использовать альтернативные почтовые ящики.
------------
* gmail.com continues reject all mail from us as "unsolicited" (activation mails too) therefore please use alternate mail servers.
История благодарностей участнику Metalazo ::: Спасибо сказали: 5223 раз(а)
Дата поста: В теме: За сообщение: Спасибо сказали:
May 24 2024, 01:13:14 LARCɆNIA ROɆ - Dereliction [ep] (2023)


*Artist: LARCɆNIA ROɆ
*Album: Dereliction [ep]
*Year: 2023
*Genre: Downtempo Deathcore
*Country: United States
*Format: mp3@CBR320kbps
*Size: 56MB

Tracklist:
1. Smile
2. Unhinged
3. Precursor
4. Nose Tork
5. Alienation
******************************
Total playing time: 21:12



[more=Extended info]Bonus: Onlooker (Single 2024)[/more]

[more=Technical info]
Input File: 01. Smile (Feat. Dan Tucker Of Crown Magnetar).mp3
Channels : 2
Sample Rate : 48000
Precision : 16-bit
Duration : 00:04:02.00 = 11616000 samples ~ 18150 CDDA sectors
File Size : 10.2M
Bit Rate : 337k
Sample Encoding: MPEG audio (layer I, II or III)
Comments :
Title=SMILE (feat. Dan Tucker of Crown Magnetar)
Artist=LARCɆNIA ROɆ
Album=Dereliction
Tracknumber=01
Year=2023

[/more]

Register
(1) gwar,
Oct 14 2023, 01:27:29 Saclas - Achamoth (2023) (1) jollo,
Jun 11 2023, 01:22:46 AthimiA - Abismal [ep] (2023)


*Artist: AthimiA
*Album: Abismal [ep]
*Year: 2023
*Genre: Downtempo Deathcore
*Country: Brazil
*Format: mp3@CBR320kbps
*Size: 40MB

Tracklist:
01. Fragmentos
02. Abismal
03. Inquisidor
04. Obscurantismo
******************************
Total playing time: 17:22



[more=Technical info]
Input File: 02 Abismal.mp3
Channels : 2
Sample Rate : 44100
Precision : 16-bit
Duration : 00:04:48.00 = 12700800 samples = 21600 CDDA sectors
File Size : 11.6M
Bit Rate : 323k
Sample Encoding: MPEG audio (layer I, II or III)
Comments :
Title=Abismal
Artist=AthimiA
Album=Abismal
Tracknumber=02
Year=2023-06-09

[/more]

Register
(2) artscald, wreak,
Jun 11 2023, 01:16:22 AthimiA - Distopia (2020)


*Artist: AthimiA
*Album: Distopia
*Year: 2020
*Genre: Downtempo Deathcore
*Country: Brazil
*Format: mp3@CBR320kbps
*Size: 59MB

Tracklist:
01. Intro
02. Dystopia
03. Predetermined
04. Misrepresenter (Feat Yves Philippe)
05. Children Of Perdition (Feat Wendell Lima)
06. Martyrdom
07. Precipice Of Madness
08. The Fall Of Man
******************************
Total playing time: 25:34



[more=Technical info]
Input File: 2 - Distopia.mp3
Channels : 2
Sample Rate : 44100
Precision : 16-bit
Duration : 00:03:43.59 = 9860495 samples = 16769.5 CDDA sectors
File Size : 9.06M
Bit Rate : 324k
Sample Encoding: MPEG audio (layer I, II or III)
Comments :
Title=Distopia
Artist=AthimiA
Album=Distopia
Tracknumber=2
Year=2020-20-20
Genre=Metal
Discnumber=1

[/more]

Register
(2) artscald, wreak,
Jun 11 2023, 01:10:17 AthimiA - O Sétimo Selo (2017)


*Artist: AthimiA
*Album: O Sétimo Selo
*Year: 2017
*Genre: Downtempo Deathcore
*Country: Brazil
*Format: mp3@CBR320kbps
*Size: 78MB

Tracklist:
01. Extinção (Ft. Rodolfo Sampaio)
02. Delirium
03. A Doença
04. Almas Condenadas
05. Oceano De Corrupção
06. A Devastadora Atitude Da Inconsequência (Ft. Guilherme Andrade)
07. Ganância
08. Renascido Das Trevas
******************************
Total playing time: 29:47



[more=Technical info]
Input File: 02 - Delirium.mp3
Channels : 2
Sample Rate : 44100
Precision : 16-bit
Duration : 00:03:21.21 = 8873317 samples = 15090.7 CDDA sectors
File Size : 8.38M
Bit Rate : 333k
Sample Encoding: MPEG audio (layer I, II or III)
Comments :
Title=Delirium
Artist=AthimiA
Album=O 7° Selo
Tracknumber=02/08
Year=2017
Genre=Brutal Deathcore
Discnumber=01/01

[/more]

Register
(2) artscald, wreak,
Jun 11 2023, 01:00:02 AthimiA - Corpos Vazios [ep] (2016)


*Artist: AthimiA
*Album: Corpos Vazios [ep]
*Year: 2016
*Genre: Downtempo Deathcore
*Country: Brazil
*Format: mp3@CBR320kbps
*Size: 42MB

Tracklist:
01. Intro
02. Ganância
03. Corpos Vazios
04. A Queda Do Homem
05. Renascido Das Trevas
******************************
Total playing time: 17:30



[more=Technical info]
Input File: 02 Ganância.mp3
Channels : 2
Sample Rate : 44100
Precision : 16-bit
Duration : 00:03:59.14 = 10545986 samples = 17935.4 CDDA sectors
File Size : 9.76M
Bit Rate : 327k
Sample Encoding: MPEG audio (layer I, II or III)
Comments :
Title=Ganância
Artist=AthimiA
Album=Corpos Vazios EP
Tracknumber=2
Year=2016

[/more]

Register
(2) artscald, wreak,
Jun 18 2021, 01:17:24 Metallica - ...And Justice For All (1988) (3) dma-09, maxmagmas, Occultas,
Jun 18 2021, 01:11:18 Fear Factory - Concrete (2002)
Register
(3) K-61082, Sanctus, wreak,
Jun 18 2021, 01:06:39 Burning The Masses - Volatile Existence (2007)
Register
(2) kimkayoung, wreak,
Jun 18 2021, 01:04:05 Carnifex - Dead In My Arms (2007)
Register
(2) Creedmoor6555, wreak,
Sep 30 2012, 02:04:04 Engorging - Accursed Disaster (2011)
Thats my cd rip smile3.gif

FLAC here:
image, cue, log + full scans
CODE
http://www.mediafire.com/?879ke2dgrq6brm1
http://www.mediafire.com/?dn8y277szn58xmy
(2) Elfrey, Луч,
Aug 28 2011, 21:12:28 Ampütator - Intolerance Deathsquads (2009) (5) burzum1983, Forrrrest, Sathana, spiritualdecay666, whoregore,
Jun 24 2011, 22:42:23 Modus Delicti - Nobody (2011)


*Artist: Modus Delicti
*Album: Nobody
*Year: 2011
*Genre: Brutal Death Metal
*Country: Italy
*Format: flac
*Size: 173MB

Tracklist:
1. Triad of Bichat
2. Nobodys Ferocity
3. Family Dinner
4. Guilty of Appearance
5. Beyond the Mask
6. Never Give Up Killing
7. Serial Trip on Acid
8. The Teeth Collector
9. Self Perception Veil
******************************
Total playing time: 23:28



[more=Extended info]Tracks, Cue, Log, Scans[/more]

Register
(16) andrey010577, digiEuphoria, dmitry, e2_81, Emhyr var Emreis, Golfzilla, jollo, logunarm, mikethebeast, qzmit4, respect, StabWound, stor, uN90D1y, vov7609, wgs73,
Jun 8 2011, 22:56:18 Origin - Entity (2011)
Bonus Track:
12. You Fail!
QUOTE
(1) satanist666,
Mar 23 2011, 06:14:37 Gorgasm - Orgy Of Murder (2011)
FLAC (my own rip):
CODE
http://www.megaupload.com/?d=KEG2HYKL


Log

CODE
Exact Audio Copy V0.99 prebeta 5 from 4. May 2009

Archivo Log de extracciones desde 19. Marzo 2011, 20:46

Gorgasm / Orgy Of Murder

Usar unidad  : TSSTcorpCDDVDW TS-L632H   Adapter: 0  ID: 0

Modo de Lectura           : Seguro
Utilizar Corriente Exacta : Sí
Descartar Audio caché     : Sí
Utilizar los punteros C2  : No

Corrección de Desplazamiento de Lectura         : 6
Sobreleer tanto en Lead-In como en Lead-Out     : No
Rellenar las muestras faltantes con silencios   : Sí
Eliminar silencios inicial y final              : No
Se han usado muestras nulas en los cálculos CRC : Sí
Interfaz usada                                  : Interfaz propio de Win32 para Windowns NT y 2000
Gestión de Gaps                                 : Añadido a la pista previa

Formato de Salida utilizado               : Compresor definido por el usuario
Bitrate seleccionado                      : 1024 kBit/s
Calidad                                   : Alta
Añadir Etiqueta ID3                       : Sí
Compresor de linea de comandos            : C:\Program Files\Exact Audio Copy\FLAC\FLAC.EXE
Opciones adicionales en línea de comandos : -6 -V -T "ARTIST=%a" -T "TITLE=%t" -T "ALBUM=%g" -T "DATE=%y" -T "TRACKNUMBER=%n" -T "GENRE=%m" -T "COMMENT=%e" %s -o %d


TOC del CD extraido

     Pista |  Inicio  | Duración | Sector inicial | Sector final
    -------------------------------------------------------------
        1  |  0:00.00 |  2:43.01 |          0     |     12225    
        2  |  2:43.01 |  2:11.21 |      12226     |     22071    
        3  |  4:54.22 |  2:56.50 |      22072     |     35321    
        4  |  7:50.72 |  2:46.53 |      35322     |     47824    
        5  | 10:37.50 |  2:22.40 |      47825     |     58514    
        6  | 13:00.15 |  3:40.44 |      58515     |     75058    
        7  | 16:40.59 |  2:31.14 |      75059     |     86397    
        8  | 19:11.73 |  2:00.47 |      86398     |     95444    
        9  | 21:12.45 |  2:41.27 |      95445     |    107546    
       10  | 23:53.72 |  2:08.71 |     107547     |    117217    
       11  | 26:02.68 |  3:03.08 |     117218     |    130950    


Pista  1

     Nombre de Archivo C:\Users\Manuel\FLAC\Gorgasm - Orgy Of Murder - FLAC\Gorgasm - Orgy Of Murder - 01 - Bloodlust.wav

     Longitud Pre-gap  0:00:02.00

     Nivel Pico 98.8 %
     Calidad de Pista 99.9 %
     Copiar CRC 439F8A91
     Pista no presente en la base de datos AccurateRip
     Copia OK

Pista  2

     Nombre de Archivo C:\Users\Manuel\FLAC\Gorgasm - Orgy Of Murder - FLAC\Gorgasm - Orgy Of Murder - 02 - Dirty Cunt Beatdown.wav

     Nivel Pico 98.8 %
     Calidad de Pista 100.0 %
     Copiar CRC A30277A3
     Pista no presente en la base de datos AccurateRip
     Copia OK

Pista  3

     Nombre de Archivo C:\Users\Manuel\FLAC\Gorgasm - Orgy Of Murder - FLAC\Gorgasm - Orgy Of Murder - 03 - Axe To Mouth.wav

     Nivel Pico 98.8 %
     Calidad de Pista 99.9 %
     Copiar CRC D69BEA89
     Pista no presente en la base de datos AccurateRip
     Copia OK

Pista  4

     Nombre de Archivo C:\Users\Manuel\FLAC\Gorgasm - Orgy Of Murder - FLAC\Gorgasm - Orgy Of Murder - 04 - Infection Induced Erection.wav

     Nivel Pico 98.8 %
     Calidad de Pista 99.9 %
     Copiar CRC 2BA44EE9
     Pista no presente en la base de datos AccurateRip
     Copia OK

Pista  5

     Nombre de Archivo C:\Users\Manuel\FLAC\Gorgasm - Orgy Of Murder - FLAC\Gorgasm - Orgy Of Murder - 05 - Decapitation Sodomy.wav

     Nivel Pico 98.8 %
     Calidad de Pista 100.0 %
     Copiar CRC F3569842
     Pista no presente en la base de datos AccurateRip
     Copia OK

Pista  6

     Nombre de Archivo C:\Users\Manuel\FLAC\Gorgasm - Orgy Of Murder - FLAC\Gorgasm - Orgy Of Murder - 06 - Exhibit Of Repugnance.wav

     Nivel Pico 98.8 %
     Calidad de Pista 100.0 %
     Copiar CRC 07E5E4F1
     Pista no presente en la base de datos AccurateRip
     Copia OK

Pista  7

     Nombre de Archivo C:\Users\Manuel\FLAC\Gorgasm - Orgy Of Murder - FLAC\Gorgasm - Orgy Of Murder - 07 - Cum Inside The Carcass.wav

     Nivel Pico 98.8 %
     Calidad de Pista 100.0 %
     Copiar CRC 7306C3F2
     Pista no presente en la base de datos AccurateRip
     Copia OK

Pista  8

     Nombre de Archivo C:\Users\Manuel\FLAC\Gorgasm - Orgy Of Murder - FLAC\Gorgasm - Orgy Of Murder - 08 - Third Degree Taste.wav

     Nivel Pico 98.8 %
     Calidad de Pista 100.0 %
     Copiar CRC C22DBE92
     Pista no presente en la base de datos AccurateRip
     Copia OK

Pista  9

     Nombre de Archivo C:\Users\Manuel\FLAC\Gorgasm - Orgy Of Murder - FLAC\Gorgasm - Orgy Of Murder - 09 - Erotic Dislimbing.wav

     Nivel Pico 98.8 %
     Calidad de Pista 99.9 %
     Copiar CRC 6DBC0023
     Pista no presente en la base de datos AccurateRip
     Copia OK

Pista 10

     Nombre de Archivo C:\Users\Manuel\FLAC\Gorgasm - Orgy Of Murder - FLAC\Gorgasm - Orgy Of Murder - 10 - Scourge Of The Christians.wav

     Nivel Pico 98.8 %
     Calidad de Pista 100.0 %
     Copiar CRC 94254A71
     Pista no presente en la base de datos AccurateRip
     Copia OK

Pista 11

     Nombre de Archivo C:\Users\Manuel\FLAC\Gorgasm - Orgy Of Murder - FLAC\Gorgasm - Orgy Of Murder - 11 - Silence Follows Dismemberment.wav

     Nivel Pico 98.8 %
     Calidad de Pista 100.0 %
     Copiar CRC 7E4A2BC0
     Pista no presente en la base de datos AccurateRip
     Copia OK


Ninguna de las pistas está presente en la base de datos AccurateRip

Sin Errores

Final del Informe
(5) Bloodn Lord, Elfrey, galder11, infiltrator, Wolfera,
Mar 7 2011, 00:43:35 Intestinal Alien Reflux - Illegal Aliens (2010)
Hehe, this is familiar to me (my cd-rip)
(1) Staal,
Jan 9 2011, 22:40:35 Deadlystrain - The Moltitude Of Beings (2010)


*Artist: Deadlystrain
*Album: The Moltitude Of Beings
*Year: 2010
*Genre: Brutal Death Metal
*Country: Italy
*Format: mp3@CBR320kbps
*Size: 90MB

Tracklist:
1. Bloodfield 02:59
2. Praise the Flesh 03:35
3. Brainwreck 04:01
4. Decayed Pleasure 04:21
5. Outbreak 03:46
6. The Moltitude of Beings 03:18
7. Drowned by Obscurity 04:36
8. Abyss of Impurity 03:12
9. Life Reject 03:14
10. Frozen Graves 05:54
******************************
Total playing time: 38:56



Register
(36) aa144aa, Adskij, andreikun, andrey010577, beast666, Brutal, BRUTAL06, Buregon, C7X, defamer666, Desert Eagle, dmitry, e2_81, Fetus_In_Fetu, garretje, Golfzilla, hatework, igore2911, killingod, KVRT, Leofink, logunarm, MeathookSeed, mikethebeast, MMMMM, realexxx75, Skogvaktar, Soulblydd, SS2998, staralex, ThorSteiner, Typhoid, varlam4, Vincent, Луч, Нигилист,
Nov 28 2010, 05:02:48 Ophiolatry & Infernal Dominion - Split [split] (2004) (2) marilin, milosdjor,
Oct 10 2010, 07:10:27 Human Filleted - Blunt Force Embludgeonment (2010) (5) andreikun, chickenfucker, Nocturnal Beast, qwer80, Urmaaas,
Sep 29 2010, 03:08:44 Visceral - Macabra Realidad De Caos Y Letargo (2010)


*Artist: Visceral
*Album: Macabra Realidad De Caos Y Letargo
*Year: 2010
*Genre: Brutal Death Metal
*Country: Chile
*Format: mp3@CBR320kbps
*Size: 65MB

Tracklist:
1. Pútrida Existencia 03:23
2. Agonía Latente 02:58
3. Lobotomía 02:57
4. Identidad Oprimida 03:36
5. Hecatombe 02:42
6. Vorágine 02:42
7. Supremacía Asesina 03:02
8. Visceral 02:42
9. Inextirpable 02:36
10. Conspiración 02:45
******************************
Total playing time: 29:23



Register

Register
(18) andreikun, Brutal, e2_81, eyehategod, Fatalv, Fetus_In_Fetu, garretje, gogafob, Golfzilla, Indamage, killingod, KVRT, logunarm, MMMMM, PachakaKuraka, qwer80, staralex, varlam4,
Sep 15 2010, 00:23:21 Prohibitory - Battle Hymns From The Serpent Land (2008)


*Artist: Prohibitory
*Album: Battle Hymns From The Serpent Land
*Year: 2008
*Genre: Death Metal
*Country: Mexico
*Format: mp3@CBR320kbps
*Size: 107MB

Tracklist:
1. Mortal Day 05:51
2. Reasons to Die 04:55
3. Battle Hymns From the Serpent Land 04:14
4. Black God 04:53
5. I Hate Love 05:19
6. Life's Excess 05:24
7. Cocaine Transfusions 04:03
8. The Rebel One 06:22
******************************
Total playing time: 41:01




Register
(11) andreikun, BRUTAL06, garretje, Golfzilla, KVRT, lary_veel, MeathookSeed, MMMMM, satanas189, Tino, wgs73,
Sep 4 2010, 05:46:27 Gorevent - Worship Paganism (2010) (2) CoolON, Darkdreamer_178,
Sep 3 2010, 23:12:03 Amputator - Deathcult Barbaric Hell (2007) (10) BioMax, Blаckheart, Kerkerseele, RUSP73, Sathana, spiritualdecay666, triton, vov7609, whoregore, Северянин,
Sep 3 2010, 04:07:21 Machetazo - Ultratumba [best of/compilation] (2006)


*Artist: Machetazo
*Album: Ultratumba [best of/compilation]
*Year: 2006
*Genre: Death Metal/Grindcore
*Country: Spain
*Format: mp3@CBR320kbps
*Size: 157MB

Tracklist:
1. Garrote Vil 02:57
2. Potro de Tortura 01:59
3. Caverna de Antropófagos 01:06
4. Luto 02:20
5. El que Susurra en la Oscuridad 01:38
6. Black Metal (Venom Cover) 03:50
7. Petrificado 01:43
8. Sin Cabeza 01:52
9. Corpsegrinder (Death Cover) 02:04
10. Pestilent Decay (Repulsion Cover) 01:05
11. Trono de Huesos 03:50
12. Púdrete como un Cerdo / Bolsas con Sangre 01:44
13. Ataque Simio 01:32
14. Maruta 03:38
15. La Mascara del Demonio 02:06
16. (El Increíble) Prepucio Séptico 00:50
17. La Venganza de los Muertos sin Ojos 02:34
18. Suppuration (Carcass Cover) 02:21
19. Mortado (Impetigo Cover) 03:43
20. Potro de Tortura 02:05
21. Bitter Truth (Saint Vitus Cover) 03:29
22. Abducción 01:33
23. Humillado y Descuartizado por Mongólicos 01:18
24. La Flema 02:31
25. Yo fui un Caníbal Adolescente 02:13
26. Violador de Tumbas 01:09
27. Masticasesos 01:49
28. Children of the Grave (Black Sabbath Cover) 02:43
******************************
Total playing time: 1:01:42



[more=Extended info]Scans included[/more]

Register
(9) garretje, gotherion, gothik, Immortal Spirit, KVRT, Lord Noctua, qzmit4, StabWound, Styx,
Sep 2 2010, 03:46:00 Brutal Rebirth - Death Row (2010)


*Artist: Brutal Rebirth
*Album: Death Row
*Year: 2010
*Genre: Death Metal
*Country: France
*Format: mp3@CBR320kbps
*Size: 96MB

Tracklist:
1. Enter Death Row 04:20
2. Ordercide 04:27
3. Prefabicrated World 05:45
4. Laws Of War 06:54
5. Symbols Of Hate 04:06
6. Doomed To Granite 04:59
7. Abject Memories 05:45
8. Eternal Twilight Of Tyrants 05:51
******************************
Total playing time: 42:07



Register

Register
(29) aa144aa, agnosticj, andreikun, artscald, Ballisargon, BioMax, defamer666, Desert Eagle, e2_81, Fatalv, garretje, Golfzilla, GuldenDraak, hammer, Indamage, KVRT, LiarOfAngmar, metaljan, Nerevar, NickDeath, respect, satanas189, SnaP, spiritualdecay666, staralex, thrashes, Tino, Typhoid, vov7609,

32 Pages V   1 2 3 > » 
- Lo-Fi Version Support form
Copyrights and abuse reports form
Time is now: 14th June 2024 - 11:09:13