Welcome Guest ( Log In | Register )

История благодарностей участнику TheTrooper916 ::: Спасибо сказали: 1706 раз(а)
Дата поста: В теме: За сообщение: Спасибо сказали:
Oct 5 2016, 17:56:24 Red Fang - Only Ghosts (2016)


*Artist: Red Fang
*Album: Only Ghosts
*Year: 2016
*Genre: Stoner Metal/Rock
*Country: United States
*Format: mp3@CBR320kbps
*Size: 95MB

Tracklist:
01. Flies 03:38
02. Cut It Short 04:13
03. Flames 01:31
04. No Air 04:53
05. Shadows 03:12
06. Not For You 03:20
07. The Smell Of The Sound 05:24
08. The Deep 04:28
09. I Am A Ghost 04:09
10. Living In Lye 06:20
******************************
Total playing time: 41:08



[more=Extended info]Red Fang:
Aaron Beam: Bass, Vocals.
Maurice Bryan Giles: Guitars, Vocals.
David Sullivan: Guitars, Vocals.
John Sherman: Drums.[/more]

[more=Technical info]
Input File: 01 Flies.mp3
Channels : 2
Sample Rate : 44100
Precision : 16-bit
Duration : 00:03:38.77 = 9647889 samples = 16408 CDDA sectors
File Size : 8.88M
Bit Rate : 325k
Sample Encoding: MPEG audio (layer I, II or III)
Comments :
Title=Flies
Artist=Red Fang
Album=Only Ghosts
Tracknumber=1
Year=2016
Genre=Stoner Metal/Rock

[/more]

Register
(10) Daale, Femto, gena, jpvalentim, marilin, morbidangelo, Ostinato, Rosen, Tular, VALERY,
May 30 2016, 01:37:49 Churchburn & Opium Lord - Churchburn/Opium Lord [split] (2016)


*Artist: Churchburn & Opium Lord
*Album: Churchburn/Opium Lord [split]
*Year: 2016
*Genre: Blackened Sludge/Doom Metal | Doom/Sludge Metal
*Country: United States | United Kingdom
*Format: mp3@CBR320kbps
*Size: 28MB

Tracklist:
Churchburn:
1. Before The Inferno 06:42
Opium Lord:
2. Control 05:31
******************************
Total playing time: 12:13



[more=Extended info]Churchburn:
Timmy St. Amour: Guitars.
Ray McCaffrey: Drums.
Dave Suzuki: Guitars, Vocals.
Mike: Bass.
Neil: Bass

Opium Lord:
Bruce: Drums.
Simon Blewitt: Guitars.
Luke Fewtrell: Guitars.
Adam Beckley: Guitars.
Nathan Coyle: Vocals.[/more]

[more=Technical info]
Input File: 02 Control.mp3
Channels : 2
Sample Rate : 44100
Precision : 16-bit
Duration : 00:05:31.74 = 14629602 samples = 24880.3 CDDA sectors
File Size : 13.3M
Bit Rate : 322k
Sample Encoding: MPEG audio (layer I, II or III)
Comments :
Title=Control
Artist=Opium Lord
Album=Churchburn / Opium Lord
Tracknumber=2
Year=2016
Genre=Sludge/Doom Metal

[/more]

Register
(9) Boozer, Hell_Is_Here, marilin, Ostinato, Rosen, Sarcis, VALERY, varlam4, Герб,
May 11 2016, 22:37:55 Ethereal Riffian - I AM. Deathless [ep] (2016)


*Artist: Ethereal Riffian
*Album: I AM. Deathless [ep]
*Year: 2016
*Genre: Psychedelic Stoner/Doom Metal
*Country: Ukraine
*Format: mp3@CBR320kbps
*Size: 38MB

Tracklist:
1. Drum of the Deathless 06:19
2. Sword of the Deathless 09:57
******************************
Total playing time: 16:16



[more=Extended info]Ethereal Riffian:
Stonezilla: Guitars, Vocals, Didgeridoo.
Southman: Guitars.
Saf: Bass.
Ship: Drums.[/more]

[more=Technical info]
Input File: Drum Of The Deathless-Sample.mp3
Channels : 2
Sample Rate : 44100
Precision : 16-bit
Duration : 00:00:30.04 = 1324764 samples = 2253 CDDA sectors
File Size : 1.20M
Bit Rate : 320k
Sample Encoding: MPEG audio (layer I, II or III)
Comments :
Title=Drum Of The Deathless
Artist=Ethereal Riffian
Album=I AM. Deathless
Tracknumber=1
Year=2016
Genre=Psychedelic Stoner Metal/Rock

[/more]

Register
(12) Boozer, Hammaren, krmu2, marilin, Ostinato, Rosen, s810ic1, SatanicPanzer, snot, VALERY, varlam4, vosmidesijatye,
May 11 2016, 19:21:52 Dopethrone & Fister - Dopethrone/Fister [split] (2016)


*Artist: Dopethrone & Fister
*Album: Dopethrone/Fister [split]
*Year: 2016
*Genre: Doom/Sludge/Stoner Metal | Doom/Sludge/Stoner Metal
*Country: Canada | United States
*Format: mp3@CBR320kbps
*Size: 31MB

Tracklist:
1. Dopethrone - Host 05:09
2. Fister - The Failure 07:38
******************************
Total playing time: 12:47




[more=Extended info]Dopethrone:
Vincent Houde: Guitars, Vocals.
Vyk: Bass.
Big Borman: Drums.

Fister:
Kenny Snarzyk: Bass, Vocals.
Marcus Newstead: Guitars, Additional Vocals.
Kirk Gatterer: Drums.[/more]

[more=Technical info]
Input File: Host-Sample.mp3
Channels : 2
Sample Rate : 44100
Precision : 16-bit
Duration : 00:00:30.04 = 1324764 samples = 2253 CDDA sectors
File Size : 1.20M
Bit Rate : 320k
Sample Encoding: MPEG audio (layer I, II or III)
Comments :
Title=Host
Artist=Dopethrone
Album=Dopethrone / Fister
Tracknumber=1
Year=2016
Genre=Sludge/Doom Metal

[/more]

Register
(12) BeerBear, Boozer, Lanceatum, Mannard, marilin, Moonshtook, morbidangelo, Rosen, VALERY, varlam4, vosmidesijatye, Герб,
May 2 2016, 21:09:21 Sons Of Huns - Kiss The Goat [single] (2016)


*Artist: Sons Of Huns
*Album: Kiss The Goat [single]
*Year: 2016
*Genre: Stoner Metal/Rock
*Country: United States
*Format: mp3@CBR320kbps
*Size: 23MB

Tracklist:
1. Powerless to the Succubus 05:27
2. Fantasy/Reality 04:44
******************************
Total playing time: 10:11

Preview 1

[more=Extended info]Sons Of Huns:
Peter Hughes: Guitars, Vocals.
Aaron Powell: Bass.
Ryan Northrop: Drums.[/more]

[more=Technical info]
Input File: Fantasy - Reality-Sample.mp3
Channels : 2
Sample Rate : 44100
Precision : 16-bit
Duration : 00:00:30.04 = 1324764 samples = 2253 CDDA sectors
File Size : 1.20M
Bit Rate : 320k
Sample Encoding: MPEG audio (layer I, II or III)
Comments :
Title=Fantasy/Reality
Artist=Sons Of Huns
Album=Kiss The Goat
Tracknumber=2
Year=2016
Genre=Stoner Rock/Metal

[/more]

Register
(4) marilin, Rosen, varlam4, vosmidesijatye,
May 2 2016, 20:55:50 Sons Of Huns - While Sleeping Stay Awake (2015)


*Artist: Sons Of Huns
*Album: While Sleeping Stay Awake
*Year: 2015
*Genre: Stoner Metal/Rock
*Country: United States
*Format: mp3@CBR320kbps
*Size: 85MB

Tracklist:
1. Osiris Slain 05:00
2. Ad Astra 03:51
3. An Evil Unseen 03:41
4. Eye In The Sky 02:50
5. Philospher’s Stone 04:03
6. Alchemist Part I 02:22
7. Alchemist Part II 06:05
8. While Sleeping Stay Awake 04:05
9. The Reaper Is Waiting For You 05:02
******************************
Total playing time: 36:59

Preview 1

[more=Extended info]Sons Of Huns:
Peter Hughes: Guitars, Vocals.
Aaron Powell: Bass.
Ryan Northrop: Drums.[/more]

[more=Technical info]
Input File: 06 Alchemist Part I.mp3
Channels : 2
Sample Rate : 44100
Precision : 16-bit
Duration : 00:02:22.12 = 6267580 samples = 10659.1 CDDA sectors
File Size : 5.76M
Bit Rate : 324k
Sample Encoding: MPEG audio (layer I, II or III)
Comments :
Title=Alchemist Part I
Artist=Sons Of Huns
Album=While Sleeping Stay Awake
Tracknumber=6
Year=2015
Genre=Stoner Rock

[/more]

Register
(7) Amadeus, Buregon, marilin, Rosen, SatanicPanzer, varlam4, vosmidesijatye,
May 1 2016, 19:51:16 Heretic Rites - In Satan's Claws [demo] (2016)


*Artist: Heretic Rites
*Album: In Satan's Claws [demo]
*Year: 2016
*Genre: Heavy/Doom Metal/Rock
*Country: Serbia
*Format: mp3@CBR320kbps
*Size: 68MB

Tracklist:
1. Acid Wrath 07:56
2. Boot Knife Sacrifice 06:24
3. Return to the Castle 07:47
4. Holy Place 06:16
******************************
Total playing time: 28:23



[more=Extended info]Heretic Rites:
Daniel: Vocals, Guitars.
Željko: Bass.
Šmit: Drums.[/more]

[more=Technical info]
Input File: Acid Wrath-Sample.mp3
Channels : 2
Sample Rate : 44100
Precision : 16-bit
Duration : 00:00:30.04 = 1324764 samples = 2253 CDDA sectors
File Size : 1.20M
Bit Rate : 320k
Sample Encoding: MPEG audio (layer I, II or III)
Comments :
Title=Acid Wrath
Artist=Heretic Rites
Album=In Satan's Claws
Tracknumber=1
Year=2016
Genre=Doom Metal

[/more]

Register
(6) Goatrex, infiltrator, marilin, Rosen, VALERY, varlam4,
May 1 2016, 19:18:36 Holy Grove - Holy Grove (2016)


*Artist: Holy Grove
*Album: Holy Grove
*Year: 2016
*Genre: Doom Metal/Rock
*Country: United States
*Format: mp3@CBR320kbps
*Size: 102MB

Tracklist:
1. Death of Magic 04:23
2. Nix 07:10
3. Holy Grove 06:20
4. Huntress 04:51
5. Caravan 04:38
6. Hanged Man 08:49
7. Safe Return 07:28
******************************
Total playing time: 43:39



[more=Extended info]Holy Grove:
Andrea Vidal: Vocals.
Trent Jacobs: Guitar.
Gregg Emley: Bass.
Adam Jelsing: Drums.[/more]

[more=Technical info]
Input File: Holy Grove-Sample.mp3
Channels : 2
Sample Rate : 44100
Precision : 16-bit
Duration : 00:00:30.04 = 1324764 samples = 2253 CDDA sectors
File Size : 1.20M
Bit Rate : 320k
Sample Encoding: MPEG audio (layer I, II or III)
Comments :
Title=Holy Grove
Artist=Holy Grove
Album=Holy Grove
Tracknumber=3
Year=2016
Genre=Stoner Rock/Metal

[/more]

Register
(17) artscald, Boozer, Buregon, Hammaren, infiltrator, Lightbringer, marilin, MeatKnife, metala, Mogozoz, muskatnuss, Rosen, SatanicPanzer, Spunkynut, VALERY, varlam4, ZA670,
Apr 28 2016, 22:31:27 Witchthroat Serpent - Witchthroat Serpent (2014)
192 Kbps Mirror
Register
(3) kolar666, MEmethuselah, varlam4,
Apr 28 2016, 21:32:58 Witchthroat Serpent - Sang-Dragon (2016)


*Artist: Witchthroat Serpent
*Album: Sang-Dragon
*Year: 2016
*Genre: Stoner/Doom Metal
*Country: France
*Format: mp3@CBR192kbps
*Size: 58MB

Tracklist:
1. Hydra's Bewitchment 02:17
2. A Caw Rises from My Guts 05:55
3. Siberian Mist 05:45
4. Lady Sally 05:41
5. Into the Black Wood 06:12
6. Behind Green Eyes 08:44
7. Mystical Devotee 06:37
******************************
Total playing time: 41:11



[more=Extended info]Witchthroat Serpent:
Fredrik Bolzann: Vocals, Guitars.
Lo Klav: Bass.
Niko Lass: Drums.[/more]

Register


 ! 

Transcode
 
(8) Hammaren, marilin, MEmethuselah, muskatnuss, Ostinato, SatanicPanzer, VALERY, varlam4,
Apr 26 2016, 20:09:13 Intet - Demo [demo] (2016)


*Artist: Intet
*Album: Demo [demo]
*Year: 2016
*Genre: Sludge/Doom Metal
*Country: Sweden
*Format: mp3@CBR320kbps
*Size: 72MB

Tracklist:
1. Intret 04:54
2. Mänsklig Utgång 16:06
3. Extrovert Hat Från Nedan 10:15
******************************
Total playing time: 31:15



[more=Technical info]
Input File: Mänsklig Utgång-Sample.mp3
Channels : 2
Sample Rate : 44100
Precision : 16-bit
Duration : 00:00:30.04 = 1324764 samples = 2253 CDDA sectors
File Size : 1.20M
Bit Rate : 320k
Sample Encoding: MPEG audio (layer I, II or III)
Comments :
Title=Mänsklig Utgång
Artist=Intet
Album=Demo
Tracknumber=2
Year=2016
Genre=Sludge/Doom Metal

[/more]

Register
(4) Rosen, stub888, VALERY, varlam4,
Apr 26 2016, 18:31:16 Grasping Veld - Grasping Veld [ep] (2016)


*Artist: Grasping Veld
*Album: Grasping Veld [ep]
*Year: 2016
*Genre: Sludge/Post-Metal
*Country: Russian Federation
*Format: mp3@CBR320kbps
*Size: 59MB

Tracklist:
1. Obsessive Anxiety 03:31
2. Vultures 05:00
3. Deafening Howl 05:59
4. Rovers' Tombstones 05:54
5. Hoarfroast 04:15
******************************
Total playing time: 24:39



[more=Extended info]Grasping Veld:
Igor Gorkov: Vocals.
Alex Yablokov: Guitar.
Michail Vaneev: Guitar.
Andrey Laptev: Bass.
Evgeny Zalyzin: Drums.[/more]

[more=Technical info]
Input File: Obsessive Anxiety-Sample.mp3
Channels : 2
Sample Rate : 44100
Precision : 16-bit
Duration : 00:00:30.04 = 1324764 samples = 2253 CDDA sectors
File Size : 1.20M
Bit Rate : 320k
Sample Encoding: MPEG audio (layer I, II or III)
Comments :
Title=Obsessive Anxiety
Artist=Grasping Veld
Album=Grasping Veld
Tracknumber=1
Year=2016
Genre=Sludge/Post-Metal

[/more]

Register
(4) artscald, marilin, Rosen, varlam4,
Apr 26 2016, 03:00:44 Space God Ritual - Tentagram (2016)


*Artist: Space God Ritual
*Album: Tentagram
*Year: 2016
*Genre: Doom Metal
*Country: United States
*Format: mp3@VBR245kbps
*Size: 88MB

Tracklist:
1. Prophecy 01:41
2. The Gate 05:49
3. Altar Nights 04:49
4. House of the Breathless 01:50
5. Lunacy! 04:15
6. Playing With Darkness 05:53
7. The Slumbering 07:00
8. The Return of the Gibbering Thing 05:51
9. Tentagram 06:00
10. Graveyard Earth 06:00
******************************
Total playing time: 49:08



[more=Extended info]Space God Ritual:
Brendan Butler: All Instruments, Vocals.
Alexander Olaff: Vocals.[/more]

Register
(15) artscald, bka, Buregon, Jurmagund, Lightbringer, marilin, metala, Narasimha, Rosen, SatanicPanzer, VALERY, varlam4, vosmidesijatye, wreak, Герб,
Apr 25 2016, 22:49:48 Space God Ritual - From Void To Ocean (2014)


*Artist: Space God Ritual
*Album: From Void To Ocean
*Year: 2014
*Genre: Doom Metal
*Country: United States
*Format: mp3@VBR227kbps
*Size: 67MB

Tracklist:
1. Aeons Upon Aeons 01:51
2. The Secret People 03:56
3. War of the Elder Gods 05:24
4. From Void to Ocean 07:09
5. Vulnavia 01:44
6. Nightgaunts on the Rise 05:51
7. Skullsplitter 04:53
8. Yithian Overlords 09:43
******************************
Total playing time: 40:31



[more=Extended info]Space God Ritual:
Brendan Butler: Guitar, Drums, Keyboards.
Alexander Olaff: Vocals.
Lee Waldron: Rhythm Guitar.
Jerad Rykken: Bass.
Sophyra Blackwood: Additional Vocals.[/more]

Register
(12) artscald, Buregon, Jurmagund, marilin, metala, Rosen, SatanicPanzer, VALERY, varlam4, vosmidesijatye, wreak, Герб,
Apr 18 2016, 00:58:19 Watchtower - Radiant Moon [ep] (2015)


*Artist: Watchtower
*Album: Radiant Moon [ep]
*Year: 2015
*Genre: Stoner/Doom Metal
*Country: Australia
*Format: mp3@CBR320kbps
*Size: 37MB

Tracklist:
1. Radiant Moon 09:03
2. Living Heads 07:09
******************************
Total playing time: 16:12



[more=Extended info]Watchtower:
Ben Robertson Bass.
Joel McGann Drums.
Robbie Ingram Guitars.
Nico Guijt Vocals.[/more]

[more=Technical info]
Input File: Radiant Moon-Sample.mp3
Channels : 2
Sample Rate : 44100
Precision : 16-bit
Duration : 00:01:00.03 = 2647279 samples = 4502.18 CDDA sectors
File Size : 2.40M
Bit Rate : 320k
Sample Encoding: MPEG audio (layer I, II or III)
Comments :
Title=Radiant Moon
Artist=Watchtower
Album=Radiant Moon
Tracknumber=1
Year=2015
Genre=Stoner/Doom Metal

[/more]

Register
(5) Boozer, marilin, Rosen, SatanicPanzer, VALERY,
Apr 17 2016, 23:07:18 IZŌ - IZŌ (2016)


*Artist: IZŌ
*Album: IZŌ
*Year: 2016
*Genre: Stoner/Doom/Post-Metal
*Country: Italy
*Format: mp3@CBR320kbps
*Size: 85MB

Tracklist:
1. Izo (Intro) 01:34
2. We Are What We Are 07:31
3. Hikikomori 08:40
4. Kikusai 08:32
5. EuTONEsia 07:05
6. MudMut (Outro) 03:58
******************************
Total playing time: 37:20



[more=Extended info]IZŌ:
Paolo Barone: Guitar.
Maurizio Calò: Guitar.
Francesco De Pascali: Bass.
Luca Greco: Drums.[/more]

[more=Technical info]
Input File: We Are What We Are-Sample.mp3
Channels : 2
Sample Rate : 44100
Precision : 16-bit
Duration : 00:01:00.03 = 2647411 samples = 4502.4 CDDA sectors
File Size : 2.59M
Bit Rate : 346k
Sample Encoding: MPEG audio (layer I, II or III)
Comments :
Title=We Are What We Are
Artist=IZЕЊ
Album=IZЕЊ
Tracknumber=2
Year=2016
Genre=Metal

[/more]

Register
(7) Buregon, marilin, Rosen, SatanicPanzer, VALERY, varlam4, wreak,
Apr 17 2016, 21:57:34 Mount Soma - Origins [ep] (2016)


*Artist: Mount Soma
*Album: Origins [ep]
*Year: 2016
*Genre: Psychedelic Stoner Rock/Metal
*Country: Ireland
*Format: mp3@CBR320kbps
*Size: 46MB

Tracklist:
1. Nebula 09:41
2. Origin 02:47
3. Lazarus 06:30
******************************
Total playing time: 18:58



[more=Extended info]Mount Soma:
Brian: Vocals, Guitar.
Keith: Guitar.
Conrad: Bass.
Aaron: Drums.[/more]

[more=Technical info]
Input File: Nebula-Sample.mp3
Channels : 2
Sample Rate : 44100
Precision : 16-bit
Duration : 00:01:00.03 = 2647411 samples = 4502.4 CDDA sectors
File Size : 2.57M
Bit Rate : 343k
Sample Encoding: MPEG audio (layer I, II or III)
Comments :
Title=Nebula
Artist=Mount Soma
Album=Origins
Tracknumber=1
Year=2016
Genre=Stoner Metal/Rock

[/more]

Register
(5) marilin, Rosen, SatanicPanzer, varlam4, wreak,
Apr 14 2016, 21:39:55 DOwnhill & Hippie Doom Squad - DOwnhill/Hippie Doom Squad [split] (2016)


*Artist: DOwnhill & Hippie Doom Squad
*Album: DOwnhill/Hippie Doom Squad [split]
*Year: 2016
*Genre: Sludge/Post-Metal | Southern/Groove Metal
*Country: Belarus | Belarus
*Format: mp3@CBR320kbps
*Size: 104MB

Tracklist:
dOwnhill:
01. A Rake's Progress 04:40
02. The Harpy's Nest 04:28
03. Nvnces† 03:55
04. One Way Trip 02:10
05. Burial at Sea 05:24
Hippie Doom Squad:
06. Terrorist 02:26
07. God Bless Suffering 03:47
08. I Love Drugs 03:08
09. Depression 04:12
10. W.W.R.Y. (Queen Cover) 01:49
11. Hobo 04:31
12. Conspiracy 04:38
******************************
Total playing time: 45:08

Preview 1
Preview 2

[more=Extended info]dOwnhill:
Ilya: Bass.
Timur: Drums.
Pliha: Guitars.
Kotzubeer: Guitars, Backing Vocals.
Dog: Vocals.

Hippie Doom Squad:
Sergey Rogov: Bass.
Maxim Fedoruk: Drums.
Johnny: Guitars.
Kirill O. Wayne: Vocals.[/more]

[more=Technical info]
Input File: 04 One Way Trip.mp3
Channels : 2
Sample Rate : 44100
Precision : 16-bit
Duration : 00:02:10.97 = 5775645 samples = 9822.53 CDDA sectors
File Size : 5.34M
Bit Rate : 326k
Sample Encoding: MPEG audio (layer I, II or III)
Comments :
Title=One Way Trip
Artist=dOwnhill
Album=Split
Tracknumber=4
Year=2016
Genre=Sludge/Post-Metal

[/more]

Register
(2) Rosen, varlam4,
Apr 10 2016, 23:59:11 Astray - Beyond The Heights Of Lust (2016)


*Artist: Astray
*Album: Beyond The Heights Of Lust
*Year: 2016
*Genre: Stoner Rock/Metal
*Country: Greece
*Format: mp3@CBR320kbps
*Size: 100MB

Tracklist:
1. Teetotum 04:46
2. WiT(HC) 06:10
3. Cartridge 06:48
4. Last Ray 04:34
5. Huh? 04:07
6. Cast My Stone 04:29
7. E.D.A. 06:26
8. Idle Conversation 04:42
9. Magik Stallion 05:03
******************************
Total playing time: 47:05



[more=Extended info]Astray:
George: Vocals.
Kostas: Guitars.
Jellys: Guitars.
Tolis: Bass.
Apostolis: Drums.[/more]

[more=Technical info]
Input File: 05 Huh.mp3
Channels : 2
Sample Rate : 44100
Precision : 16-bit
Duration : 00:04:07.12 = 10898036 samples = 18534.1 CDDA sectors
File Size : 9.98M
Bit Rate : 323k
Sample Encoding: MPEG audio (layer I, II or III)
Comments :
Title=Huh?
Artist=Astray
Album=Beyond The Heights Of Lust
Tracknumber=5
Year=2016
Genre=Rock

[/more]

Register
(7) Buregon, marilin, Rosen, SatanicPanzer, VALERY, varlam4, wreak,
Apr 10 2016, 22:29:50 Deadsmoke - Deadsmoke (2016)


*Artist: Deadsmoke
*Album: Deadsmoke
*Year: 2016
*Genre: Stoner/Sludge/Doom Metal
*Country: Italy
*Format: mp3@CBR320kbps
*Size: 71MB

Tracklist:
1. Branches of Evil 05:48
2. Eyes of the Blind Man 04:41
3. Liar Behind Me 06:03
4. Tornado 07:30
5. Night of the Vipers 06:54
******************************
Total playing time: 30:56



[more=Extended info]Deadsmoke:
Gianmaria: Bass.
Maurice: Drums.
Matteo: Guitars.[/more]

[more=Technical info]
Input File: Branches Of Evil-Sample.mp3
Channels : 2
Sample Rate : 44100
Precision : 16-bit
Duration : 00:01:00.03 = 2647279 samples = 4502.18 CDDA sectors
File Size : 2.40M
Bit Rate : 320k
Sample Encoding: MPEG audio (layer I, II or III)
Comments :
Title=Branches Of Evil
Artist=Deadsmoke
Album=Deadsmoke
Tracknumber=1
Year=2016
Genre=Sludge/Doom Metal

[/more]

Register
(11) Buregon, KVRT, marilin, Ostinato, Rosen, SatanicPanzer, stub888, VALERY, varlam4, vosmidesijatye, wreak,
Apr 3 2016, 20:51:50 Aleph Null - Endtime Sisters [ep] (2016)


*Artist: Aleph Null
*Album: Endtime Sisters [ep]
*Year: 2016
*Genre: Stoner/Doom Metal
*Country: Germany
*Format: mp3@CBR320kbps
*Size: 64MB

Tracklist:
1. Isobel 09:26
2. Black Wine 03:59
3. Comrade 05:31
4. Endtime Sisters 07:40
******************************
Total playing time: 26:36



[more=Extended info]Aleph Null:
Philip: Guitars, Vocals.
Carsten: Bass.
Jens: Drums.[/more]

[more=Technical info]
Input File: 02 Black Wine.mp3
Channels : 2
Sample Rate : 44100
Precision : 16-bit
Duration : 00:03:59.70 = 10570726 samples = 17977.4 CDDA sectors
File Size : 9.81M
Bit Rate : 327k
Sample Encoding: MPEG audio (layer I, II or III)
Comments :
Title=Black Wine
Artist=Aleph Null
Album=Endtime Sisters
Tracknumber=2
Year=2016
Genre=Psychedelic Doom Metal

[/more]

Register
(7) artscald, Buregon, Lightbringer, marilin, Rosen, varlam4, wreak,
Mar 14 2016, 00:14:08 Deville - Make It Belong To Us (2015)


*Artist: Deville
*Album: Make It Belong To Us
*Year: 2015
*Genre: Stoner Rock/Metal
*Country: Sweden
*Format: mp3@CBR320kbps
*Size: 89MB

Tracklist:
1. Make It Belong to Me 03:36
2. Chief 02:28
3. Out of the Black 03:12
4. Mind on Hold 03:36
5. Lever 03:41
6. Drive 03:33
7. Life in Decay 04:11
8. Dying to Feel 04:14
9. Reflecting Surface 04:19
10. What Remains 04:29
******************************
Total playing time: 37:19



[more=Extended info]Deville:
Markus Åkesson: Bass.
Markus Nilsson: Drums.
Andreas Bengtsson: Guitars, Vocals.
Andreas Wulkan: Guitars.[/more]

[more=Technical info]
Input File: 02 Chief.mp3
Channels : 2
Sample Rate : 44100
Precision : 16-bit
Duration : 00:02:28.97 = 6569445 samples = 11172.5 CDDA sectors
File Size : 6.31M
Bit Rate : 339k
Sample Encoding: MPEG audio (layer I, II or III)
Comments :
Title=Chief
Artist=Deville
Album=Make It Belong To Us
Tracknumber=2
Year=2015
Genre=Stoner Metal/Rock

[/more]

Register
(9) Buregon, Hammaren, marilin, MeatKnife, orloff2000, Rosen, VALERY, varlam4, wreak,
Mar 13 2016, 21:18:46 Ethereal Riffian - Youniversal Voice [live] (2016)


*Artist: Ethereal Riffian
*Album: Youniversal Voice [live]
*Year: 2016
*Genre: Psychedelic Stoner/Doom Metal
*Country: Ukraine
*Format: mp3@CBR320kbps
*Size: 153MB

Tracklist:
1. Sword of the Deathless 03:56
2. Beyond 06:52
3. Thugdam 07:52
4. Wakan Tanka 12:08
5. March of Spiritu 11:06
6. Voice of Reason 04:01
7. Anatman 12:27
8. Drum of the Deathless 07:00
******************************
Total playing time: 1:05:22



[more=Extended info]Ethereal Riffian:
Val Kornev: Guitar, Vocals.
Alexander Kornev: Bass.
Max Yuhimenko: Guitar.
Nikita Shipovskoi: Drums.[/more]

[more=Technical info]
Input File: 06 Voice Of Reason.mp3
Channels : 2
Sample Rate : 48000
Precision : 16-bit
Duration : 00:04:08.18 = 11912688 samples ~ 18613.6 CDDA sectors
File Size : 10.2M
Bit Rate : 328k
Sample Encoding: MPEG audio (layer I, II or III)
Comments :
Title=Voice Of Reason
Artist=Ethereal Riffian
Album=Youniversal Voice (Live)
Tracknumber=6
Year=2016
Genre=Psychedelic Doom Metal

[/more]

Register
(6) marilin, Rosen, VALERY, varlam4, vosmidesijatye, wreak,
Mar 13 2016, 18:12:20 Concertina - Concertina [ep] (2015)


*Artist: Concertina
*Album: Concertina [ep]
*Year: 2015
*Genre: Stoner/Heavy Metal
*Country: United States
*Format: mp3@CBR320kbps
*Size: 61MB

Tracklist:
1. Blood Eagle 05:50
2. No Sympathy 05:13
3. Prejudicial Swine 05:13
4. Opportunity Lost 05:01
5. Death Grip 05:01
******************************
Total playing time: 26:18



[more=Extended info]Concertina:
Adrian Aragon: Bass.
Chastin Short: Drums.
Cameron White: Guitars.
Cade Miller: Guitars, Vocals.[/more]

[more=Technical info]
Input File: 01 Blood Eagle.mp3
Channels : 2
Sample Rate : 44100
Precision : 16-bit
Duration : 00:05:50.73 = 15467149 samples = 26304.7 CDDA sectors
File Size : 14.2M
Bit Rate : 324k
Sample Encoding: MPEG audio (layer I, II or III)
Comments :
Title=Blood Eagle
Artist=Concertina
Album=Concertina
Tracknumber=1
Year=2015
Genre=Stoner Metal/Rock

[/more]

Register
(2) marilin, Rosen,
Mar 13 2016, 17:21:29 Sour Cream - Step Stoned​/​Drink Alone [single] (2016)


*Artist: Sour Cream
*Album: Step Stoned​/​Drink Alone [single]
*Year: 2016
*Genre: Stoner/Doom Metal
*Country: Australia
*Format: mp3@CBR320kbps
*Size: 29MB

Tracklist:
1. Step Stoned 05:54
2. Drink Alone 06:25
******************************
Total playing time: 12:19



[more=Extended info]Sour Cream:
Sam White: Bass.
Ben Howell: Bass.
Julien Crendal: Drums.
Drew Montgomery: Guitars.
Morgan Anthony: Guitars, Vocals.[/more]

[more=Technical info]
Input File: Step Stoned-Sample.mp3
Channels : 2
Sample Rate : 44100
Precision : 16-bit
Duration : 00:01:00.03 = 2647279 samples = 4502.18 CDDA sectors
File Size : 2.40M
Bit Rate : 320k
Sample Encoding: MPEG audio (layer I, II or III)
Comments :
Title=Step Stoned
Artist=Sour Cream
Album=Step Stoned/Drink Alone
Tracknumber=1
Year=2016
Genre=Stoner/Doom Metal

[/more]

Register
(4) Rosen, varlam4, vosmidesijatye, wreak,

8 Pages V   1 2 3 > » 
- Lo-Fi Version Support form
Copyrights and abuse reports form
Time is now: 3rd August 2021 - 10:49:36