Welcome Guest ( Log In | Register )

История благодарностей участнику TheTrooper916 ::: Спасибо сказали: 1705 раз(а)
Дата поста: В теме: За сообщение: Спасибо сказали:
Nov 15 2012, 19:46:48 Funebrarum - Beneath The Columns Of Abandoned Gods (2001)
Register
(5) Borya_Tvorogov, igore2911, marilin, souldeathtoxic, Дилетант,
Nov 15 2012, 19:44:43 Funebrarum - Tombs Of Sleeping Darkness [demo] (2000)
Register
(6) abob, cranium14, ghaaran, marilin, MEmethuselah, skeletron215,
Nov 9 2012, 23:04:39 Tribulation - The Horror (2009)
Register
(5) JohnnyCrank, Mist13Signifier, muskatnuss, sumostig, yuratroll,
Nov 8 2012, 20:05:10 Repugnant - Epitome Of Darkness (2006)
Register
(8) dead4, marilin, milosdjor, Mist13Signifier, muskatnuss, Sky7Daemon, sperminator, VALERY,
Nov 8 2012, 20:02:57 Pentacle & Repugnant - Dunkel Besatthet [split] (2002)
Register
(3) kryptor, marilin, milosdjor,
Nov 8 2012, 20:00:35 Repugnant - Premature Burial [ep] (2004)
Register
(4) dead4, marilin, Mist13Signifier, muskatnuss,
Nov 8 2012, 19:57:13 Repugnant - Hecatomb [ep] (1999)
Register
(3) marilin, princeshr, Sky7Daemon,
Nov 8 2012, 00:12:53 Funebrarum - Triumphant Ascent [demo] (1999)


*Artist: Funebrarum
*Album: Triumphant Ascent [demo]
*Year: 1999
*Genre: Death Metal
*Country: United States
*Format: mp3@CBR320kbps
*Size: 36MB

Tracklist:
01. The Depths Of Misery 04:43
02. Kingdom Of Suffering Souls 04:35
03. Abandoned Gods 06:58
******************************
Total playing time: 16:16



[more=Extended info]Recorded and mixed by Dario Derna at Dungeon Studio, July 1999.

Originally released on CD-R (limitation unknown). Re-released on cassette in 2000, limited to 50 copies and containing a bonus rehearsal version of the Demigod cover "Perpetual Ascent".


Input File: 02 Kingdom Of Suffering Souls.mp3
Channels : 2
Sample Rate : 44100
Precision : 16-bit
Duration : 00:04:35.57 = 12152549 samples = 20667.6 CDDA sectors
File Size : 11.0M
Bit Rate : 320k
Sample Encoding: MPEG audio (layer I, II or III)
Comments :
Title=Kingdom Of Suffering Souls
Artist=Funebrarum
Album=Triumphant Ascent
Tracknumber=2
Year=1999
Genre=Blues

[/more]

Register
(11) abob, Alex5, andrey010577, ghaaran, Lanceatum, marilin, MEmethuselah, pichileon, potap03020100, Rosen, varlam4,
Nov 6 2012, 03:02:51 Cruciamentum - Convocation Of Crawling Chaos [demo] (2008)
Register
(3) AngelSlayerSoul, ImNotRussian, Proteus_666,
Nov 5 2012, 20:42:33 Cruciamentum & Vasaeleth - Eroding Chaos Unto Ascendant Flesh [split] (2011)
Register
(2) ImNotRussian, Mist13Signifier,
Nov 5 2012, 20:40:38 Cruciamentum - Engulfed In Desolation [ep] (2011)
Register
(5) apo1, ImNotRussian, Mist13Signifier, Proteus_666, troll_swamp,
Nov 5 2012, 20:38:17 Suicidal Angels - Bloodthirsty Humanity [ep] (2004)
Register
(1) metalfanatic666,
Nov 5 2012, 20:36:12 Gorephilia - Embodiment Of Death (2012)
Register
(2) e2_81, Rizzelet,
Nov 5 2012, 20:35:40 Gorephilia - Ascend To Chaos [ep] (2011)
Register
(3) e2_81, Rizzelet, troll_swamp,
Nov 4 2012, 20:20:54 Morbus Chron - Sleepers In The Rift (2011)
Register
(17) Darkthronefoad, ENDSMOUTH, Evgundel, Galactus, ImNotRussian, MEmethuselah, metaljan, Mist13Signifier, muskatnuss, Phlebotomized, Redesecretor, Rizzelet, SatanicPanzer, Skald_of_Death, Typhoid, yuratroll, Дерсу Узала,
Nov 4 2012, 20:19:24 Morbus Chron - Creepy Creeping Creeps [ep] (2010)
Register
(11) Darkthronefoad, ENDSMOUTH, Evilded, grimordum, ImNotRussian, killfer696, MEmethuselah, milosdjor, Mist13Signifier, Rizzelet, Skald_of_Death,
Nov 3 2012, 20:24:15 Gorephilia - In Death [demo] (2010)


*Artist: Gorephilia
*Album: In Death [demo]
*Year: 2010
*Genre: Death Metal
*Country: Finland
*Format: mp3@CBR320kbps
*Size: 29MB

Tracklist:
1. Enbodiment Of Death
2. Planet Sized Mass Grave
3. Exist To Suffer
******************************
Total playing time: 13:23



[more=Extended info]CD-R.
Recorded in February 2010.
Produced, mixed and mastered by Tommi Otsavaara of ArchiTorture.
Artwork by Roni Дrling of Lie in Ruins

Released on tape by Me Saco Un Ojo Records in March 2011.
There were two pressings, one on black tapes and one on red tapes, both limited to 150 copies.


Input File: Embodiment Of Death Preview.mp3
Channels : 2
Sample Rate : 44100
Precision : 16-bit
Duration : 00:00:45.25 = 1995437 samples = 3393.6 CDDA sectors
File Size : 1.81M
Bit Rate : 320k
Sample Encoding: MPEG audio (layer I, II or III)
Comments :
Title=Embodiment In Death
Artist=Gorephilia
Album=In Death
Tracknumber=1
Year=2010
Genre=Death Metal

[/more]

Register
(8) Alex5, Hell_Is_Here, Koscheyushka, MeathookSeed, Mist13Signifier, sperminator, varlam4, wreak,

8 Pages V  « < 6 7 8
- Lo-Fi Version Support form
Copyrights and abuse reports form
Time is now: 23rd June 2021 - 22:39:14