Welcome Guest ( Log In | Register )

История благодарностей участнику TheTrooper916 ::: Спасибо сказали: 1705 раз(а)
Дата поста: В теме: За сообщение: Спасибо сказали:
Mar 7 2016, 01:23:52 Sonic Ritual - The Last Exodus From The Land Of The Dead [ep] (2013)


*Artist: Sonic Ritual
*Album: The Last Exodus From The Land Of The Dead [ep]
*Year: 2013
*Genre: Heavy Metal
*Country: Sweden
*Format: mp3@CBR320kbps
*Size: 43MB

Tracklist:
1. Final Halt (Retain Control) 03:36
2. Early Graves 02:53
3. Iron & Stone (The Obsessed cover) 02:27
4. Dark World Deceiver 04:24
5. Harm's Highway 04:19
******************************
Total playing time: 17:39



[more=Extended info]Sonic Ritual:
Linnéa Olsson: Guitars, Vocals (backing).
Viktor Bergman: Drums.
Henrik Palm: Guitars, Vocals (lead).
Christoffer Röstlund Jonsson: Bass, Vocals (backing) .[/more]

[more=Technical info]
Input File: 03 Iron & Stone (The Obsessed Cover).mp3
Channels : 2
Sample Rate : 44100
Precision : 16-bit
Duration : 00:02:27.58 = 6508366 samples = 11068.6 CDDA sectors
File Size : 6.10M
Bit Rate : 331k
Sample Encoding: MPEG audio (layer I, II or III)
Comments :
Title=Iron & Stone (The Obsessed Cover)
Artist=Sonic Ritual
Album=Last Exodus From The Land Of The Dead
Tracknumber=3
Year=2013
Genre=Heavy Metal

[/more]

Register
(6) Boozer, gwynnbleid, Mogozoz, Rosen, varlam4, wreak,
Mar 1 2016, 00:12:22 Barbarian Hermit - Demo 2016 [demo] (2016)


*Artist: Barbarian Hermit
*Album: Demo 2016 [demo]
*Year: 2016
*Genre: Stoner Metal/Sludge
*Country: United Kingdom
*Format: mp3@CBR320kbps
*Size: 90MB

Tracklist:
1. Mermaid 06:50
2. Tigerhorse 06:45
3. Burn the Fire 04:35
4. B.E.A. 09:00
5. Alma 04:40
6. Widowmaker 07:26
******************************
Total playing time: 39:16



[more=Extended info]Barbarian Hermit:
Chris Wood: Bass.
Loz Brindley: Drums.
Adam Robertshaw: Guitar.
Mike Regan: Guitars.
Si Scarlett: Vocals.[/more]

[more=Technical info]
Input File: 03 Burn The Fire.mp3
Channels : 2
Sample Rate : 44100
Precision : 16-bit
Duration : 00:04:35.18 = 12135262 samples = 20638.2 CDDA sectors
File Size : 11.1M
Bit Rate : 322k
Sample Encoding: MPEG audio (layer I, II or III)
Comments :
Title=Burn The Fire
Artist=Barbarian Hermit
Album=Demo 2016
Tracknumber=3
Year=2016
Genre=Stoner/Sludge Metal

[/more]

Register
(4) marilin, stub888, varlam4, wreak,
Nov 29 2015, 18:30:02 Wo Fat & The Re-Stoned - Wo Fat/The Re-Stoned [split] (2015)


*Artist: Wo Fat & The Re-Stoned
*Album: Wo Fat/The Re-Stoned [split]
*Year: 2015
*Genre: Psychedelic Doom Metal/Stoner Rock | Instrumental Psychedelic/Stoner Rock
*Country: United States | Russian Federation
*Format: mp3@CBR320kbps
*Size: 23MB

Tracklist:
Wo Fat:
1. They Say I'm Different 05:12
The Re-Stoned:
2. Apocalypse Of A Phantom 04:10
******************************
Total playing time: 9:22



[more=Extended info]Wo Fat:
Kent Stump: Guitars, Vocals.
Tim Wilson: Bass.
Michael Walter: Drums.
Ilya Lipkin: Guitar.

The Re-Stoned:
Veronika Martynova Vocals.
Ilya Lipkin: Guitars.
Alexander Romanov: Bass.
V.M.: Drums.[/more]

[more=Technical info]
Input File: They Say I\'m Different-Sample.mp3
Channels : 2
Sample Rate : 44100
Precision : 16-bit
Duration : 00:01:00.03 = 2647279 samples = 4502.18 CDDA sectors
File Size : 2.40M
Bit Rate : 320k
Sample Encoding: MPEG audio (layer I, II or III)
Comments :
Title=They Say I'm Different
Artist=Wo Fat
Album=Wo Fat / The Re-Stoned
Tracknumber=1
Year=2015
Genre=Stoner Metal

[/more]

Register
(9) Lanceatum, marilin, Ostinato, Rosen, SatanicPanzer, squall8fr, Unkle Jonny, varlam4, wreak,
Nov 29 2015, 18:17:21 Wo Fat - Live Juju: Wo Fat At Freak Valley [live] (2015)


*Artist: Wo Fat
*Album: Live Juju: Wo Fat At Freak Valley [live]
*Year: 2015
*Genre: Psychedelic/Stoner Metal/Rock
*Country: United States
*Format: mp3@CBR320kbps
*Size: 127MB

Tracklist:
1. The Black Code 10:34
2. Read the Omens 07:26
3. Bayou Juju 07:24
4. Enter the Riffian 04:59
5. Sleep of the Black Lotus 09:57
6. Dark Snow (Bonus Live Studio Jam) 14:16
******************************
Total playing time: 54:36



[more=Extended info]Wo Fat:
Kent Stump: Guitars, Vocals.
Tim Wilson: Bass.
Michael Walter: Drums, Backing vocals.[/more]

[more=Technical info]
Input File: The Black Code (Live)-Sample.mp3
Channels : 2
Sample Rate : 44100
Precision : 16-bit
Duration : 00:01:00.03 = 2647279 samples = 4502.18 CDDA sectors
File Size : 2.40M
Bit Rate : 320k
Sample Encoding: MPEG audio (layer I, II or III)
Comments :
Title=The Black Code (Live)
Artist=Wo Fat
Album=Live Juju: Wo Fat At Freak Valley
Tracknumber=1
Year=2015
Genre=Psychedelic Stoner Metal

[/more]

Register
(5) marilin, Ostinato, Rosen, varlam4, wreak,
Nov 23 2015, 22:29:24 Ruby The Hatchet - Valley Of The Snake (2015)


*Artist: Ruby The Hatchet
*Album: Valley Of The Snake
*Year: 2015
*Genre: Psychedelic Rock/Doom Metal
*Country: United States
*Format: mp3@CBR320kbps
*Size: 92MB

Tracklist:
1. Heavy Blanket 05:57
2. Vast Acid 05:23
3. Tomorrow Never Comes 08:49
4. The Unholy Behemoth 06:04
5. Demons 06:34
6. Valley Of The Snake 07:19
******************************
Total playing time: 40:06



[more=Extended info]Ruby The Hatchet:
Jillian Taylor: Vocals.
John Scarperia: Guitar.
Lake Muir: Bass.
Owen Stewart: Drums.
Sean Hur: Organ.[/more]

[more=Technical info]
Input File: Heavy Blanket-Sample.mp3
Channels : 2
Sample Rate : 44100
Precision : 16-bit
Duration : 00:00:30.07 = 1326043 samples = 2255.18 CDDA sectors
File Size : 1.20M
Bit Rate : 320k
Sample Encoding: MPEG audio (layer I, II or III)
Comments :
Title=Heavy Blanket
Artist=Ruby The Hatchet
Album=Valley Of The Snake
Tracknumber=1
Year=2015
Genre=Stoner

[/more]

Register
(10) csgmnk, Jurmagund, marilin, Rosen, skidnik, Spunkynut, StabWound, VALERY, varlam4, wreak,
Nov 23 2015, 22:24:25 Ruby The Hatchet - Eliminator [ep] (2013)


*Artist: Ruby The Hatchet
*Album: Eliminator [ep]
*Year: 2013
*Genre: Psychedelic Rock/Doom Metal
*Country: United States
*Format: mp3@CBR320kbps
*Size: 32MB

Tracklist:
1. Paralyzed 04:19
2. Eliminator 09:02
******************************
Total playing time: 13:21



[more=Extended info]Ruby The Hatchet:
Jillian Taylor: Vocals.
John Scarperia: Guitar.
Mike Parise: Bass.
Owen Stewart: Drums, Vocals and Percussion.
Sean Hur: Organ.[/more]

[more=Technical info]
Input File: Eliminator-Sample.mp3
Channels : 2
Sample Rate : 44100
Precision : 16-bit
Duration : 00:00:30.07 = 1326043 samples = 2255.18 CDDA sectors
File Size : 1.20M
Bit Rate : 320k
Sample Encoding: MPEG audio (layer I, II or III)
Comments :
Title=Eliminator
Artist=Ruby The Hatchet
Album=Eliminator
Tracknumber=2
Year=2014
Genre=Stoner Metal

[/more]

Register
(7) csgmnk, Jurmagund, marilin, Rosen, VALERY, varlam4, wreak,
Nov 23 2015, 22:19:25 Ruby The Hatchet - Ouroboros (2012)


*Artist: Ruby The Hatchet
*Album: Ouroboros
*Year: 2012
*Genre: Psychedelic Rock/Doom Metal
*Country: United States
*Format: mp3@CBR320kbps
*Size: 90MB

Tracklist:
1. Taking Sides 04:15
2. Black Tongue 04:13
3. Can't Get Him Away 05:17
4. Strange Hold 02:58
5. The Lean 04:34
6. Holy Father 03:07
7. Wicked Ones 03:45
8. Nowhere 04:28
9. Good God Damn 05:39
******************************
Total playing time: 38:16



[more=Extended info]Ruby The Hatchet:
Jillian Taylor: Vocals.
John Scarperia: Guitar.
Mike Parise: Bass.
Owen Stewart: Drums, Vocals and Percussion.
Sean Hur: Organ.[/more]

[more=Technical info]
Input File: Wicked Ones-Sample.mp3
Channels : 2
Sample Rate : 44100
Precision : 16-bit
Duration : 00:00:30.07 = 1326043 samples = 2255.18 CDDA sectors
File Size : 1.20M
Bit Rate : 320k
Sample Encoding: MPEG audio (layer I, II or III)
Comments :
Title=Wicked Ones
Artist=Ruby The Hatchet
Album=Ouroboros
Tracknumber=7
Year=2012
Genre=Rock

[/more]

Register
(10) Buregon, csgmnk, Jurmagund, marilin, metala, Rosen, Spunkynut, VALERY, varlam4, wreak,
Nov 8 2015, 20:58:53 Worshipper - Place Beyond The Light/Step Behind [single] (2015)


*Artist: Worshipper
*Album: Place Beyond The Light/Step Behind [single]
*Year: 2015
*Genre: Heavy Metal/Rock
*Country: United States
*Format: mp3@CBR320kbps
*Size: 23MB

Tracklist:
1. Place Beyond the Light 05:04
2. Step Behind 04:46
******************************
Total playing time: 9:50



[more=Extended info]Worshipper:
Bob Maloney: Bass.
Dave Jarvis: Drums.
Alejandro Necochea: Guitars.
John Brookhouse: Vocals, Guitars.[/more]

[more=Technical info]
Input File: 02 Step Behind.mp3
Channels : 2
Sample Rate : 44100
Precision : 16-bit
Duration : 00:04:46.93 = 12653569 samples = 21519.7 CDDA sectors
File Size : 11.7M
Bit Rate : 326k
Sample Encoding: MPEG audio (layer I, II or III)
Comments :
Title=Step Behind
Artist=Worshipper
Album=Place Beyond the Light | Step Behind
Tracknumber=2
Year=2015

[/more]

Register
(3) Rosen, varlam4, wreak,
Nov 8 2015, 20:51:38 Worshipper - Black Corridor/High Above The Clouds [single] (2015)


*Artist: Worshipper
*Album: Black Corridor/High Above The Clouds [single]
*Year: 2015
*Genre: Stoner/Heavy Metal/Rock
*Country: United States
*Format: mp3@CBR320kbps
*Size: 21MB

Tracklist:
1. Black Corridor 04:05
2. High Above the Clouds 04:51
******************************
Total playing time: 8:56



[more=Extended info]Worshipper:
Bob Maloney: Bass.
Dave Jarvis: Drums.
Alejandro Necochea: Guitars.
John Brookhouse: Vocals, Guitars.[/more]

[more=Technical info]
Input File: 01 Black Corridor.mp3
Channels : 2
Sample Rate : 44100
Precision : 16-bit
Duration : 00:04:05.34 = 10819406 samples = 18400.4 CDDA sectors
File Size : 9.94M
Bit Rate : 324k
Sample Encoding: MPEG audio (layer I, II or III)
Comments :
Title=Black Corridor
Artist=Worshipper
Album=Black Corridor | High Above the Clouds
Tracknumber=1
Year=2015

[/more]

Register
(3) Rosen, varlam4, wreak,
Aug 3 2014, 00:53:58 Khemmis - Khemmis [ep] (2013)


*Artist: Khemmis
*Album: Khemmis [ep]
*Year: 2013
*Genre: Doom/Sludge Metal
*Country: United States
*Format: mp3@CBR320kbps
*Size: 53MB

Tracklist:
1. Sunrise/Sunset 06:56
2. Take The Knife 06:22
3. The Bereaved 09:45
******************************
Total playing time: 23:03



[more=Extended info]Khemmis:
Phil: Vocals, Guitars.
Ben: Vocals, Guitars.
Dan: Bass.
Zach: Drums.[/more]

[more=Technical info]
Input File: Sunrise-Sunset-Sample.mp3
Channels : 2
Sample Rate : 44100
Precision : 16-bit
Duration : 00:00:30.07 = 1326043 samples = 2255.18 CDDA sectors
File Size : 1.20M
Bit Rate : 320k
Sample Encoding: MPEG audio (layer I, II or III)
Comments :
Title=Sunrise/Sunset
Artist=Khemmis
Album=Khemmis
Tracknumber=1
Year=2013
Genre=Doom/Stoner/Sludge Metal

[/more]

Register
(10) denver, Hell_Is_Here, marilin, randumbum, Rosen, spiritualdecay666, stub888, VALERY, varlam4, wreak,
Jul 24 2014, 20:02:29 Red Fang - Teamrock.Com Presents An Absolute Music Bunker Session With Red Fang [ep] (2014)


*Artist: Red Fang
*Album: Teamrock.Com Presents An Absolute Music Bunker Session With Red Fang [ep]
*Year: 2014
*Genre: Stoner Metal/Rock
*Country: United States
*Format: mp3@CBR320kbps
*Size: 60MB

Tracklist:
1. Failure (Acoustic) 04:38
2. Human Herd (Acoustic) 03:44
3. Malverde (Acoustic) 03:51
4. Failure (Album Version) 04:57
5. Human Herd (Album Version) 03:51
6. Malverde (Album Version) 04:02
******************************
Total playing time: 25:03



[more=Extended info]Red Fang:
Aaron Beam: Bass, Vocals.
John Sherman: Drums.
David Sullivan: Guitars, Vocals.
Maurice Bryan Giles: Guitars, Vocals.[/more]

[more=Technical info]
Input File: Malverde (Acoustic)-Sample.mp3
Channels : 2
Sample Rate : 44100
Precision : 16-bit
Duration : 00:00:30.07 = 1326043 samples = 2255.18 CDDA sectors
File Size : 1.20M
Bit Rate : 320k
Sample Encoding: MPEG audio (layer I, II or III)
Comments :
Title=Malverde (Acoustic)
Artist=Red Fang
Album=TeamRock.com Presents An Absolute Music Bunker Session With Red Fang
Tracknumber=3
Year=2014
Genre=Stoner Metal/Rock

[/more]

Register
(6) Black Cat, LaBombonera, marilin, Rosen, VALERY, wreak,
Jul 24 2014, 19:39:25 Red Fang - Scion A/V Presents: Red Fang [ep] (2014)


*Artist: Red Fang
*Album: Scion A/V Presents: Red Fang [ep]
*Year: 2014
*Genre: Stoner Metal/Rock
*Country: United States
*Format: mp3@CBR320kbps
*Size: 16MB

Tracklist:
1. The Meadows 03:40
2. The Shadows 03:34
******************************
Total playing time: 7:14



[more=Extended info]Red Fang:
Aaron Beam: Bass, Vocals.
John Sherman: Drums.
David Sullivan: Guitars, Vocals.
Maurice Bryan Giles: Guitars, Vocals.[/more]

[more=Technical info]
Input File: The Meadows-Sample.mp3
Channels : 2
Sample Rate : 48000
Precision : 16-bit
Duration : 00:00:30.07 = 1443456 samples ~ 2255.4 CDDA sectors
File Size : 1.20M
Bit Rate : 320k
Sample Encoding: MPEG audio (layer I, II or III)
Comments :
Title=The Meadows
Artist=Red Fang
Album=Scion A/V Presents: Red Fang
Tracknumber=1
Year=2014
Genre=Rock

[/more]

Register
(5) Black Cat, marilin, Rosen, wreak, ZA670,
Jul 23 2014, 00:29:46 Remote - The Great Bong Of Buchenwald (2014)


*Artist: Remote
*Album: The Great Bong Of Buchenwald
*Year: 2014
*Genre: Sludge/Doom Metal
*Country: Russian Federation
*Format: mp3@CBR320kbps
*Size: 98MB

Tracklist:
1. Oymyakon 05:49
2. 150 07:30
3. Doped 09:32
4. Pandemonium 08:21
5. Lilies 03:57
6. Ashes To Ashes 07:38
******************************
Total playing time: 42:47



[more=Extended info]Remote:
Evgeniy Kravchenko: Bass, Vocals.
Pavel Stasev: Guitars.
Nikita Goryachev: Drums.[/more]

[more=Technical info]
Input File: Oymyakon-Sample.mp3
Channels : 2
Sample Rate : 44100
Precision : 16-bit
Duration : 00:00:30.07 = 1326043 samples = 2255.18 CDDA sectors
File Size : 1.20M
Bit Rate : 320k
Sample Encoding: MPEG audio (layer I, II or III)
Comments :
Title=150
Artist=Remote
Album=The Great Bong Of Buchenwald
Tracknumber=2
Year=2014
Genre=Sludge/Doom Metal

[/more]

Register
(8) Lightbringer, Nidhöggr, old, Rosen, SatanicPanzer, VALERY, varlam4, wreak,
Jul 22 2014, 20:36:42 Nuclear Devastation & Ramlord - Nuclear Devastation/Ramlord [split] (2014)


*Artist: Nuclear Devastation & Ramlord
*Album: Nuclear Devastation/Ramlord [split]
*Year: 2014
*Genre: Thrash/Death Metal/Crust | Blackened Crust
*Country: Netherlands | United States
*Format: mp3@CBR320kbps
*Size: 32MB

Tracklist:
Nuclear Devastation:
1. Wolves of Hades 05:23
Ramlord:
2. The Breaking of Swans † The Eulogy of Crows 06:45
******************************
Total playing time: 12:08




[more=Extended info]Nuclear Devastation:
Kalv: Guitars.
Lemmy: Drums.
Geor: Guitars, Vocals.
Jelle: Bass.

Ramlord:
Jan: Vocals, Guitars.
Ben: Drums, Vocals.
Mike: Bass.[/more]

[more=Technical info]
Input File: Wolves Of Hades-Sample.mp3
Channels : 2
Sample Rate : 44100
Precision : 16-bit
Duration : 00:00:30.07 = 1326043 samples = 2255.18 CDDA sectors
File Size : 1.20M
Bit Rate : 320k
Sample Encoding: MPEG audio (layer I, II or III)
Comments :
Title=Wolves Of Hades
Artist=Nuclear Devastation
Album=Nuclear Devastation / Ramlord
Tracknumber=1
Year=2014
Genre=Metal

[/more]

Register
(11) artscald, Hell_Is_Here, killingod, Lanceatum, marilin, Rosen, satanas189, varlam4, wreak, ZA670, Герб,
Jul 21 2014, 21:00:25 Sleep - The Clarity [single] (2014)


*Artist: Sleep
*Album: The Clarity [single]
*Year: 2014
*Genre: Stoner/Doom Metal
*Country: United States
*Format: mp3@CBR256kbps
*Size: 17MB

Tracklist:
01. The Clarity 09:50
******************************
Total playing time: 9:50



[more=Extended info]Sleep:
Al Cisneros: Bass, Vocals.
Matt Pike: Guitars.
Jason Roeder: Drums.[/more]

Register
(8) BERZERK, Borderline1991, danilenish, HMHamster, randumbum, Rosen, VALERY, wreak,
Jul 19 2014, 23:18:36 Dead For Ten Weeks - Bloodline Detriment (2007)
Register
(1) Proteus_666,
Jun 28 2014, 03:17:58 Pist - Riffology [ep] (2014)


*Artist: Pist
*Album: Riffology [ep]
*Year: 2014
*Genre: Stoner Metal
*Country: United Kingdom
*Format: mp3@CBR320kbps
*Size: 40MB

Tracklist:
1. Wither 04:33
2. Gutter Slut 02:58
3. Rats In Their Own Haunts 01:36
4. Dispose 03:26
5. Pist 04:44
******************************
Total playing time: 17:17



[more=Extended info]Pist:
Mike Collins: Bass.
Andy Hunt: Drums.
John Nicholson: Guitars.
Dave Rowlands: Vocals.[/more]

[more=Technical info]
Input File: Wither-Sample.mp3
Channels : 2
Sample Rate : 44100
Precision : 16-bit
Duration : 00:00:30.07 = 1326043 samples = 2255.18 CDDA sectors
File Size : 1.20M
Bit Rate : 320k
Sample Encoding: MPEG audio (layer I, II or III)
Comments :
Title=Wither
Artist=Pist
Album=Riffology
Tracknumber=1
Year=2014
Genre=Stoner Metal

[/more]

Register
(8) Emhyr var Emreis, infiltrator, marilin, randumbum, Rosen, VALERY, wreak, ZA670,
Jun 23 2014, 01:12:27 Hyperwülff - Hyperwülff [ep] (2014)


*Artist: Hyperwülff
*Album: Hyperwülff [ep]
*Year: 2014
*Genre: Sludge/Stoner Metal
*Country: Italy
*Format: mp3@CBR265kbps
*Size: 34MB

Tracklist:
1. March For Erion 02:03
2. Hyperwülff 01:44
3. Robogoat 04:30
4. Raging Hunger 06:30
5. Glandula 01:59
******************************
Total playing time: 16:46



[more=Extended info]Hyperwülff:
The Wülff: drums, fists & drones
The Sarge: strings, nerves & throats[/more]

Register
(7) artscald, denver, marilin, nitzebb, Rosen, VALERY, wreak,
Jun 22 2014, 23:06:10 Satan's Satyrs - Black Souls [single] (2014)


*Artist: Satan's Satyrs
*Album: Black Souls [single]
*Year: 2014
*Genre: Heavy/Doom Metal/Punk
*Country: United States
*Format: mp3@CBR320kbps
*Size: 19MB

Tracklist:
01. Black Souls 03:39
02. There's No Escapin' (The Power of Satan) 03:52
******************************
Total playing time: 7:31



[more=Extended info]US pressing, by Trash King Productions, features "There's No Escapin' (The Power of Satan)" as the B-Side.

Satan's Satyrs:
Clayton Burgess: Vocals, Bass, Hammond.
Jarrett Nettnin: Guitars.
Stephen Fairfield: Drums.[/more]

[more=Technical info]
Input File: Black Souls-Sample.mp3
Channels : 2
Sample Rate : 44100
Precision : 16-bit
Duration : 00:00:30.07 = 1326043 samples = 2255.18 CDDA sectors
File Size : 1.20M
Bit Rate : 320k
Sample Encoding: MPEG audio (layer I, II or III)
Comments :
Title=Black Souls
Artist=Satan's Satyrs
Album=Black Souls
Tracknumber=1
Year=2014
Genre=Heavy/Doom Metal/Punk

[/more]

Register
(12) Boozer, Daale, denver, FILDV, killingod, LordHaart, maochen, marilin, Rosen, satanas189, wreak, ZA670,
Jun 21 2014, 22:26:33 Metallica - Lords Of Summer (First Pass Version) [single] (2014)


*Artist: Metallica
*Album: Lords Of Summer (First Pass Version) [single]
*Year: 2014
*Genre: Heavy/Thrash Metal
*Country: United States
*Format: mp3@CBR320kbps
*Size: 19MB

Tracklist:
01. Lords Of Summer (First Pass Version) 08:20
******************************
Total playing time: 8:20



[more=Extended info]Metallica:
James Hetfield: Vocals, Guitars (rhythm).
Kirk Hammett: Guitars (lead).
Lars Ulrich: Drums.
Robert Trujillo: Bass.[/more]

[more=Technical info]
Input File: Lords Of Summer-Sample.mp3
Channels : 2
Sample Rate : 44100
Precision : 16-bit
Duration : 00:00:30.07 = 1326043 samples = 2255.18 CDDA sectors
File Size : 1.20M
Bit Rate : 320k
Sample Encoding: MPEG audio (layer I, II or III)
Comments :
Title=Lords Of Summer (First Pass Version)
Artist=Metallica
Album=Lords Of Summer
Tracknumber=1
Year=2014
Genre=Thrash Metal

[/more]

Register
(9) avkruchinin, Black Cat, cesar, Diflock, LightWizard, nekrokilldozer, princeshr, raritetum, Rosen,
Jun 21 2014, 18:31:58 Ice Dragon - Demons From Hell [single] (2014)


*Artist: Ice Dragon
*Album: Demons From Hell [single]
*Year: 2014
*Genre: Stoner/Doom Metal/Rock
*Country: United States
*Format: mp3@CBR320kbps
*Size: 11MB

Tracklist:
01. Demons From Hell 04:10
******************************
Total playing time: 4:10



[more=Extended info]Ice Dragon:
Carter: Guitar.
Joe: Bass.
Brad: Drums.[/more]

[more=Technical info]
Input File: Demons From Hell-Sample.mp3
Channels : 2
Sample Rate : 44100
Precision : 16-bit
Duration : 00:00:30.07 = 1326043 samples = 2255.18 CDDA sectors
File Size : 1.20M
Bit Rate : 320k
Sample Encoding: MPEG audio (layer I, II or III)
Comments :
Title=Demons From Hell
Artist=Ice Dragon
Album=Demons From Hell
Tracknumber=1
Year=2014
Genre=Heavy/Doom Metal

[/more]

Register
(10) abob, denver, Emhyr var Emreis, infiltrator, krmu2, marilin, postED, randumbum, spiritualdecay666, wreak,
Jun 21 2014, 05:15:39 Ice Dragon & Kroh - Ice Dragon/Kroh [split] (2012)


*Artist: Ice Dragon & Kroh
*Album: Ice Dragon/Kroh [split]
*Year: 2012
*Genre: Psychedelic Stoner Metal | Stoner/Doom Metal
*Country: United States | United Kingdom
*Format: mp3@CBR320kbps
*Size: 23MB

Tracklist:
Ice Dragon:
1. The Hooves Of My Lord 05:12
Kroh:
2. White Lies 04:48
******************************
Total playing time: 10:00




[more=Extended info]Ice Dragon:
Brad: Drums.
Joe: Bass, Acoustic Guitars.
Carter: Guitars.
Ron: Vocals, Drums, Synths, Theremin.[/more]

[more=Technical info]
Input File: The Hooves Of My Lord-Sample.mp3
Channels : 2
Sample Rate : 44100
Precision : 16-bit
Duration : 00:00:30.07 = 1326043 samples = 2255.18 CDDA sectors
File Size : 1.20M
Bit Rate : 320k
Sample Encoding: MPEG audio (layer I, II or III)
Comments :
Title=The Hooves Of My Lord
Artist=Ice Dragon
Album=Ice Dragon / Kroh
Tracknumber=1
Year=2012
Genre=Psychedelic Stoner Metal

[/more]

Register
(16) abob, denver, drbutcher, El_Chibo, Emhyr var Emreis, KVRT, Lanceatum, marilin, nitzebb, postED, Rosen, snot, Ugly13, VALERY, wreak, ZA670,
Jun 21 2014, 03:02:39 Slomatics & Comply Or Die - Comply Or Die/Slomatics [split] (2011)


*Artist: Slomatics & Comply Or Die
*Album: Comply Or Die/Slomatics [split]
*Year: 2011
*Genre: Sludge/Doom Metal | Sludge/Punk Rock/Post-Hardcore
*Country: United Kingdom | United Kingdom
*Format: mp3@CBR320kbps
*Size: 48MB

Tracklist:
Comply Or Die:
1. Vermin 11:16
Slomatics:
2. Hold The Skull 03:09
3. Expert Marksman 06:38
******************************
Total playing time: 21:03



[more=Extended info]Slomatics:
David: Guitars.
Chris: Guitars.
Joe: Drums, Vocals.

Comply Or Die:
Michael Smyth: Guitars, Vocals.
Ian Pearce: Bass, Vocals.
Matt Crothers: Drums.[/more]

[more=Technical info]
Input File: Vermin-Sample.mp3
Channels : 2
Sample Rate : 44100
Precision : 16-bit
Duration : 00:00:30.07 = 1326043 samples = 2255.18 CDDA sectors
File Size : 1.20M
Bit Rate : 320k
Sample Encoding: MPEG audio (layer I, II or III)
Comments :
Title=Vermin
Artist=Comply Or Die
Album=Comply Or Die / Slomatics
Tracknumber=1
Year=2011
Genre=Sludge/Punk Rock

[/more]

Register
(11) denver, Hell_Is_Here, Lanceatum, marilin, nitzebb, old, randumbum, VALERY, varlam4, wreak, Герб,
Jun 16 2014, 00:17:21 Boris - Noise (2014)


*Artist: Boris
*Album: Noise
*Year: 2014
*Genre: Progressive/Stoner/Drone Metal/Experimental
*Country: Japan
*Format: mp3@CBR320kbps
*Size: 127MB

Tracklist:
1. Melody 06:40
2. Vanilla 04:15
3. Ghost of Romance 05:50
4. Heavy Rain 06:13
5. Taiyo no Baka 03:36
6. Angel 18:43
7. Quicksilver 09:50
8. Siesta 02:52
******************************
Total playing time: 57:59



[more=Extended info]Boris:
Takeshi: Bass, Guitars, Vocals.
Atsuo: Drums, Vocals.
Wata: Guitars, Vocals.[/more]

[more=Technical info]
Input File: Melody-Sample.mp3
Channels : 2
Sample Rate : 44100
Precision : 16-bit
Duration : 00:00:30.10 = 1327190 samples = 2257.13 CDDA sectors
File Size : 1.20M
Bit Rate : 320k
Sample Encoding: MPEG audio (layer I, II or III)
Comments :
Title=Melody
Artist=Boris
Album=Noise
Tracknumber=1
Year=2014
Genre=Drone/Doom

[/more]

Register
(18) Chasm, Emhyr var Emreis, Evgundel, fishish, Hell_Is_Here, johnbutoff, Jurmagund, Leolomb, Mr_M15T3RY, muskatnuss, old, randumbum, Rikardo90, sarcophagus, skriva, Torlof, wreak, Варонъ,
Jun 15 2014, 23:11:59 Slomatics & Selaah - Slomatics/Selaah [split] (2009)


*Artist: Slomatics & Selaah
*Album: Slomatics/Selaah [split]
*Year: 2009
*Genre: Sludge/Doom Metal | Experimental Rock
*Country: United Kingdom | United Kingdom
*Format: mp3@CBR320kbps
*Size: 66MB

Tracklist:
Slomatics:
1. Superlab 06:15
2. It Won't Make You Happy 03:51
3. Emperor Boards the Ship 01:18
Selaah:
4. 17-36 17:36
******************************
Total playing time: 29:00



[more=Extended info]Slomatics:
David: Guitars.
Chris: Guitars.
Joe: Drums, Vocals.

Selaah:
Hornby: All Instruments.[/more]

[more=Technical info]
Input File: 03 Emperor Boards The Ship.mp3
Channels : 2
Sample Rate : 44100
Precision : 16-bit
Duration : 00:01:18.69 = 3470273 samples = 5901.82 CDDA sectors
File Size : 3.18M
Bit Rate : 324k
Sample Encoding: MPEG audio (layer I, II or III)
Comments :
Title=Emperor Boards The Ship
Artist=Slomatics
Album=Slomatics / Selaah
Tracknumber=3
Year=2009
Genre=Sludge/Doom Metal

[/more]

Register
(11) denver, Hell_Is_Here, Lanceatum, marilin, nitzebb, old, randumbum, spiritualdecay666, VALERY, varlam4, wreak,

8 Pages V  < 1 2 3 4 > » 
- Lo-Fi Version Support form
Copyrights and abuse reports form
Time is now: 22nd June 2021 - 11:35:04