Welcome Guest ( Log In | Register )

История благодарностей участнику TheTrooper916 ::: Спасибо сказали: 1705 раз(а)
Дата поста: В теме: За сообщение: Спасибо сказали:
May 2 2014, 03:43:31 Hooded Menace & Ilsa - Hooded Menace/Ilsa [split] (2011)
QUOTE(ozzyrulz777 @ May 2 2014, 04:11:21) *
Could this please be re-uploaded?

Register

(1) nofate,
Mar 15 2014, 04:33:26 Amoeba - Counterweight (2014)


*Artist: Amoeba
*Album: Counterweight
*Year: 2014
*Genre: Brutal Death Metal
*Country: France
*Format: mp3@CBR320kbps
*Size: 66MB

Tracklist:
1. Mind Coercion 03:03
2. A Wretched Domain 03:05
3. Depths of Deceit 03:27
4. In Loathsome Avarice 03:43
5. Outrageous 01:25
6. Plague Mongers 03:03
7. Abnegate 02:14
8. Martyrdom 03:42
9. By Lawful Violence 04:59
******************************
Total playing time: 28:41



[more=Extended info]Amoeba:
Louis Schmidt: Drums.
Marius Philippi: Guitars, Backing Vocals.
Lucas Hahl: Vocals.
Simon Reiss: Bass, Backing Vocals.[/more]

[more=Technical info]
Input File: Mind Coercion-Sample.mp3
Channels : 2
Sample Rate : 44100
Precision : 16-bit
Duration : 00:00:30.07 = 1326043 samples = 2255.18 CDDA sectors
File Size : 1.20M
Bit Rate : 320k
Sample Encoding: MPEG audio (layer I, II or III)
Comments :
Title=Mind Coercion
Artist=Amoeba
Album=Counterweight
Tracknumber=1
Year=2014
Genre=Brutal Death Metal

[/more]

Register
(22) AHBAnep, andrey010577, C7X, caro, DarkHorde, deathrashergavo, Diflock, grobator, Hell_Is_Here, InFestus, jollo, Korpse, logunarm, metala, realexxx75, Rosen, samokot, satanist666, Typhoid, wgs73, wreak, Герб,
Feb 27 2014, 01:33:46 Satellite Beaver - Trip Outside Your Mind [demo] (2009)


*Artist: Satellite Beaver
*Album: Trip Outside Your Mind [demo]
*Year: 2009
*Genre: Stoner Metal/Rock
*Country: Poland
*Format: mp3@CBR320kbps
*Size: 34MB

Tracklist:
1. Fat Man In Wellingtons 04:30
2. OD&D 03:11
3. Mighty Sasquatch 05:57
******************************
Total playing time: 13:38



[more=Extended info]Satellite Beaver:
Szymon: Guitars, Vocals.
Adrian: Guitars.
Michał: Bass.
Robert: Drums.[/more]

[more=Technical info]
Input File: Fat Man In Wellingtons-Sample.mp3
Channels : 2
Sample Rate : 44100
Precision : 16-bit
Duration : 00:00:30.07 = 1326043 samples = 2255.18 CDDA sectors
File Size : 1.20M
Bit Rate : 320k
Sample Encoding: MPEG audio (layer I, II or III)
Comments :
Title=Fat Man In Wellingtons
Artist=Satellite Beaver
Album=Trip Outside Your Mind
Tracknumber=1
Year=2009
Genre=Stoner Rock

[/more]

Register
(6) caro, denver, marilin, Saalingurth, VALERY, wreak,
Feb 23 2014, 18:32:28 Vaporizer - Vaporizer [ep] (2011)


*Artist: Vaporizer
*Album: Vaporizer [ep]
*Year: 2011
*Genre: Stoner/Doom/Melodic Death Metal
*Country: United States
*Format: mp3@CBR320kbps
*Size: 40MB

Tracklist:
1. Horn Of The Narwhal 02:58
2. Renegade Mage 03:42
3. Blood Oak 03:43
4. Wolves In The Woods 03:40
5. The Great Hunter 02:58
******************************
Total playing time: 17:01



[more=Extended info]Vaporizer:
Jake Devries: Bass.
Eli Wood: Drums.
Austin Mills: Guitars.
Max Pogacar: Guitars.
Dan Davidson: Vocals.[/more]

[more=Technical info]
Input File: Horn Of The Narwhal-Sample.mp3
Channels : 2
Sample Rate : 44100
Precision : 16-bit
Duration : 00:00:30.07 = 1326043 samples = 2255.18 CDDA sectors
File Size : 1.20M
Bit Rate : 320k
Sample Encoding: MPEG audio (layer I, II or III)
Comments :
Title=Horn Of The Narwhal
Artist=Vaporizer
Album=Vaporizer
Tracknumber=1
Year=2012
Genre=Stoner/Doom/Melodic Death Metal

[/more]

Register
(6) caro, denver, marilin, VALERY, wreak, Дерсу Узала,
Feb 23 2014, 15:50:55 Dragons Bane - Harbingers Of Glory [ep] (2014)


*Artist: Dragons Bane
*Album: Harbingers Of Glory [ep]
*Year: 2014
*Genre: Stoner Metal
*Country: United States
*Format: mp3@CBR320kbps
*Size: 37MB

Tracklist:
1. Apollo's Chariot 05:58
2. The Wolf Goddess 04:01
3. Bridge 4 06:00
******************************
Total playing time: 15:59



[more=Extended info]Dragons Bane:
Nick Pugliese: Bass.
Anthony Santiago: Drums.
TJ Trimboli: Guitars.
James O'Reilly: Guitars.
Dan Sanicola: Vocals.[/more]

[more=Technical info]
Input File: The Wolf Goddess-Sample.mp3
Channels : 2
Sample Rate : 44100
Precision : 16-bit
Duration : 00:00:30.07 = 1326043 samples = 2255.18 CDDA sectors
File Size : 1.20M
Bit Rate : 320k
Sample Encoding: MPEG audio (layer I, II or III)
Comments :
Title=The Wolf Goddess
Artist=Dragons Bane
Album=Harbingers Of Glory
Tracknumber=2
Year=2014
Genre=Stoner Metal

[/more]

Register
(6) caro, denver, Emhyr var Emreis, marilin, VALERY, wreak,
Feb 22 2014, 03:11:35 Worshiper - To Binge And Purge In LA [ep] (2010)


*Artist: Worshiper
*Album: To Binge And Purge In LA [ep]
*Year: 2010
*Genre: Sludge Metal
*Country: United States
*Format: mp3@CBR320kbps
*Size: 69MB

Tracklist:
1. Pleasure Of The Flesh 02:29
2. Porcelain Egg 03:48
3. Birds 02:36
4. Up Stream 02:47
5. Death To Pigs 03:18
6. Live At Red Planet (01/22/11) 15:00
******************************
Total playing time: 29:58



[more=Extended info]Worshiper:
Mike Parry: Guitars, Vocals.
Benji Davis: Guitars.
Curt Howard: Drums.[/more]

[more=Technical info]
Input File: Pleasure Of The Flesh-Sample.mp3
Channels : 2
Sample Rate : 44100
Precision : 16-bit
Duration : 00:00:30.07 = 1326043 samples = 2255.18 CDDA sectors
File Size : 1.20M
Bit Rate : 320k
Sample Encoding: MPEG audio (layer I, II or III)
Comments :
Title=Pleasure Of The Flesh
Artist=Worshiper
Album=To Binge And Purge In LA
Tracknumber=1
Year=2010
Genre=Sludge Metal

[/more]

Register
(8) bka, caro, denver, Hell_Is_Here, jpvalentim, marilin, stub888, VALERY,
Feb 22 2014, 00:22:20 Goatchrist - Death Prayer [demo] (2014)


*Artist: Goatchrist
*Album: Death Prayer [demo]
*Year: 2014
*Genre: Raw Black Metal
*Country: United States
*Format: mp3@CBR320kbps
*Size: 16MB

Tracklist:
1. Orgiastic Ceremonies In The Nunnery 02:11
2. Fallen Angel Into Blackest Hell 02:39
3. Summoned Beast 01:58
******************************
Total playing time: 6:48



[more=Extended info]Goatchrist:
Profanation Of Deity: All Instruments.[/more]

[more=Technical info]
Input File: Orgiastic Ceremonies In The Nunnery-Sample.mp3
Channels : 2
Sample Rate : 44100
Precision : 16-bit
Duration : 00:00:30.07 = 1326043 samples = 2255.18 CDDA sectors
File Size : 1.20M
Bit Rate : 320k
Sample Encoding: MPEG audio (layer I, II or III)
Comments :
Title=Orgiastic Ceremonies In The Nunnery
Artist=Goatchrist
Album=Death Prayer
Tracknumber=1
Year=2014
Genre=Raw Black Metal

[/more]

Register
(16) blacky66, caro, desekrator, Hell_Is_Here, kefka, marilin, rebornflms95, RUSP73, SameMan, satanas189, satanist666, tont, varlam4, vasiljev_sergej, wendigo, wreak,
Feb 21 2014, 23:12:12 Bounty Hunter - Bounty Hunter [demo] (2014)


*Artist: Bounty Hunter
*Album: Bounty Hunter [demo]
*Year: 2014
*Genre: Thrash Metal
*Country: Australia
*Format: mp3@CBR320kbps
*Size: 15MB

Tracklist:
1. Guerrilla 03:04
2. Soul Swallower 02:55
******************************
Total playing time: 5:59



[more=Technical info]
Input File: Guerrilla-Sample.mp3
Channels : 2
Sample Rate : 44100
Precision : 16-bit
Duration : 00:00:30.04 = 1324896 samples = 2253.22 CDDA sectors
File Size : 1.20M
Bit Rate : 320k
Sample Encoding: MPEG audio (layer I, II or III)
Comments :
Title=Guerrilla
Artist=Bounty Hunter
Album=Bounty Hunter
Tracknumber=1
Year=2014
Genre=Thrash Metal

[/more]

Register

Register
(5) caro, Diflock, potap03020100, Rosen, wreak,
Feb 20 2014, 03:32:11 Centipede - Brazen Bull [ep] (2013)


*Artist: Centipede
*Album: Brazen Bull [ep]
*Year: 2013
*Genre: Stoner Metal
*Country: Finland
*Format: mp3@CBR320kbps
*Size: 70MB

Tracklist:
1. Caskets 06:28
2. Brazen Bull 05:00
3. Desert Lair 07:04
4. Nights Of The Incubi 04:45
5. Times Long Gone 07:25
******************************
Total playing time: 30:42



[more=Extended info]Centipede:
Markus: Guitars, Vocals.
Ville: Bass.
Eero: Drums.[/more]

[more=Technical info]
Input File: Nights Of The Incubi-Sample.mp3
Channels : 2
Sample Rate : 44100
Precision : 16-bit
Duration : 00:00:30.07 = 1326043 samples = 2255.18 CDDA sectors
File Size : 1.20M
Bit Rate : 320k
Sample Encoding: MPEG audio (layer I, II or III)
Comments :
Title=Nights Of The Incubi
Artist=Centipede
Album=Brazen Bull
Tracknumber=4
Year=2013
Genre=Stoner Metal

[/more]

Register
(6) caro, denver, Emhyr var Emreis, marilin, Saalingurth, wreak,
Feb 20 2014, 03:17:22 Centipede - Demo [demo] (2011)


*Artist: Centipede
*Album: Demo [demo]
*Year: 2011
*Genre: Stoner Metal
*Country: Finland
*Format: mp3@CBR320kbps
*Size: 39MB

Tracklist:
1. Warmonger 06:48
2. Asbestos 06:25
3. The Madness From The Sea 03:59
******************************
Total playing time: 17:12



[more=Extended info]Centipede:
Markus: Guitars, Vocals.
Ville: Bass.
Eero: Drums.[/more]

[more=Technical info]
Input File: The Madness From The Sea-Sample.mp3
Channels : 2
Sample Rate : 44100
Precision : 16-bit
Duration : 00:00:30.07 = 1326043 samples = 2255.18 CDDA sectors
File Size : 1.20M
Bit Rate : 320k
Sample Encoding: MPEG audio (layer I, II or III)
Comments :
Title=The Madness From The Sea
Artist=Centipede
Album=Demo
Tracknumber=3
Year=2011
Genre=Stoner Metal

[/more]

Register
(6) bka, caro, denver, marilin, Saalingurth, wreak,
Feb 19 2014, 19:24:01 Paramnesia & Unru - Paramnesia/Unru [split] (2014)


*Artist: Paramnesia & Unru
*Album: Paramnesia/Unru [split]
*Year: 2014
*Genre: Black Metal | Black Metal/Crust
*Country: France | Germany
*Format: mp3@CBR320kbps
*Size: 64MB

Tracklist:
Paramnesia:
1. III 14:57
Unru:
2. Die Welt In Der Wir Sterben 12:39
******************************
Total playing time: 27:36




[more=Extended info]Recorded, Mixed and Mastered by Rouven Bienert.[/more]

[more=Technical info]
Input File: III-Sample.mp3
Channels : 2
Sample Rate : 44100
Precision : 16-bit
Duration : 00:00:30.07 = 1326043 samples = 2255.18 CDDA sectors
File Size : 1.20M
Bit Rate : 320k
Sample Encoding: MPEG audio (layer I, II or III)
Comments :
Title=III
Artist=Paramnesia
Album=Paramnesia / Unru
Tracknumber=1
Year=2014
Genre=Black Metal

[/more]

Register
(13) artscald, caro, Constantinus I, Indamage, kim666, lestllk, r1348, randumbum, tont, varg-38ru, varlam4, vasiljev_sergej, wreak,
Feb 17 2014, 18:03:59 Iron Witch & The Atrocity Exhibit - Iron Witch/The Atrocity Exhibit [split] (2013)


*Artist: Iron Witch & The Atrocity Exhibit
*Album: Iron Witch/The Atrocity Exhibit [split]
*Year: 2013
*Genre: Sludge/Doom Metal | Grindcore/Death Metal
*Country: United Kingdom | United Kingdom
*Format: mp3@CBR320kbps
*Size: 30MB

Tracklist:
Iron Witch:
1. Her Cheating Heart 06:42
The Atrocity Exhibit:
2. Throne Of Bile 06:03
******************************
Total playing time: 12:45




[more=Extended info]Iron Witch:
Rick: Bass.
Will: Drums.
Sam: Guitars.
Dan: Guitars.
Chris: Vocals.

The Atrocity Exhibit:
James Caygill: Vocals, Guitars.
Fuzzy Dave: Bass.
Matt Downes: Drums.[/more]

[more=Technical info]
Input File: Her Cheating Heart-Sample.mp3
Channels : 2
Sample Rate : 44100
Precision : 16-bit
Duration : 00:00:30.07 = 1326043 samples = 2255.18 CDDA sectors
File Size : 1.20M
Bit Rate : 320k
Sample Encoding: MPEG audio (layer I, II or III)
Comments :
Title=Her Cheating Heart
Artist=Iron Witch
Album=Iron Witch / The Atrocity Exhibit
Tracknumber=1
Year=2013
Genre=Sludge/Doom Metal

[/more]

Register
(9) caro, denver, Hell_Is_Here, marilin, randumbum, satanas189, VALERY, wreak, Герб,
Feb 17 2014, 03:06:59 Merciless Attack - Mercy For None [demo] (2013)


*Artist: Merciless Attack
*Album: Mercy For None [demo]
*Year: 2013
*Genre: Thrash Metal
*Country: Italy
*Format: mp3@CBR320kbps
*Size: 54MB

Tracklist:
1. The Toxic Avenger 05:12
2. In The Pit 03:00
3. Nuclear Tsunami 03:33
4. Leatherface 04:45
5. Pray To Your God 02:53
6. Merciless Attack 04:09
******************************
Total playing time: 23:32



[more=Extended info]Merciless Attack:
Alessandro Punzo: Bass, Backing Vocals.
Marco Casabianca: Drums.
Fede: Guitars, Backing Vocals.
Marco De Giorgio: Vocals.[/more]

[more=Technical info]
Input File: 05 Pray To Your God.mp3
Channels : 2
Sample Rate : 44100
Precision : 16-bit
Duration : 00:02:53.32 = 7643192 samples = 12998.6 CDDA sectors
File Size : 7.01M
Bit Rate : 323k
Sample Encoding: MPEG audio (layer I, II or III)
Comments :
Title=Pray To Your God
Artist=Merciless Attack
Album=Mercy For None
Tracknumber=5
Year=2013
Genre=Thrash Metal

[/more]

Register
(9) caro, Diflock, Genuine Thrashiac, Hell_Is_Here, killingod, potap03020100, Rosen, vosmidesijatye, wreak,
Feb 16 2014, 15:35:08 War Bong - World War Weed [demo] (2013)


*Artist: War Bong
*Album: World War Weed [demo]
*Year: 2013
*Genre: Blackened Thrash/Doom Metal
*Country: United States
*Format: mp3@VBR252kbps
*Size: 28MB

Tracklist:
1. Black + Green 02:17
2. World War Weed 04:01
3. Holocaust Of Roaches 03:42
4. 21 Blunt Salute 01:31
5. Omega Rip 03:44
******************************
Total playing time: 15:15



[more=Extended info]War Bong:
Mutant Chieftain: Guitars, Vocals.
The High Ghoul: Bass, Backing Vocals.
Lord Freak: Drums.[/more]

Register
(12) caro, denver, marilin, MEmethuselah, Rosen, serach, spiritualdecay666, VALERY, varlam4, vasiljev_sergej, vosmidesijatye, wreak,
Feb 14 2014, 23:21:44 Earth Witch - Earthbound [ep] (2013)


*Artist: Earth Witch
*Album: Earthbound [ep]
*Year: 2013
*Genre: Sludge/Doom/Stoner Metal
*Country: United States
*Format: mp3@CBR320kbps
*Size: 63MB

Tracklist:
1. Sky Knight 07:08
2. Lunar 07:43
3. Aggregate 03:32
4. Wizard's Cloak 03:49
5. Earthbound 05:11
******************************
Total playing time: 27:23



[more=Extended info]Earth Witch:
Ivan: Vocals, Guitars.
Sean: Bass.
Nathan Drums.[/more]

[more=Technical info]
Input File: Aggregate-Sample.mp3
Channels : 2
Sample Rate : 44100
Precision : 16-bit
Duration : 00:00:30.15 = 1329527 samples = 2261.1 CDDA sectors
File Size : 1.21M
Bit Rate : 320k
Sample Encoding: MPEG audio (layer I, II or III)
Comments :
Title=Aggregate
Artist=Earth Witch
Album=Earthbound
Tracknumber=3
Year=2013
Genre=Sludge/Stoner/Doom Metal

[/more]

Register
(12) abob, artscald, Boozer, caro, denver, Emhyr var Emreis, J0k3r, old, VALERY, vosmidesijatye, wreak, Дерсу Узала,
Feb 14 2014, 22:17:11 King Goat - King Goat [ep] (2013)


*Artist: King Goat
*Album: King Goat [ep]
*Year: 2013
*Genre: Psychedelic Doom Metal
*Country: United Kingdom
*Format: mp3@CBR320kbps
*Size: 61MB

Tracklist:
1. The Final Decline 12:51
2. Cult Obscene 07:09
3. Melian's Trance 06:18
******************************
Total playing time: 26:18



[more=Extended info]King Goat:
Reza: Bass.
Jon: Drums.
Petros: Guitars.
Joe: Guitars.
Anthony Trimming: Vocals.[/more]

[more=Technical info]
Input File: Melian\\\'s Trance-Sample.mp3
Channels : 2
Sample Rate : 44100
Precision : 16-bit
Duration : 00:00:30.07 = 1326043 samples = 2255.18 CDDA sectors
File Size : 1.20M
Bit Rate : 320k
Sample Encoding: MPEG audio (layer I, II or III)
Comments :
Title=Melian's Trance
Artist=King Goat
Album=King Goat
Tracknumber=3
Year=2013
Genre=Psychedelic Doom Metal

[/more]

Register
(16) BERZERK, bka, Buregon, caro, ENDSMOUTH, muskatnuss, old, Old Vyaine, randumbum, RENыч, StabWound, Unkle Jonny, VALERY, varlam4, wreak, Дерсу Узала,
Feb 12 2014, 01:37:56 Outer Heaven - Demo 2013 [demo] (2013)


*Artist: Outer Heaven
*Album: Demo 2013 [demo]
*Year: 2013
*Genre: Death/Doom Metal/Hardcore
*Country: United States
*Format: mp3@CBR320kbps
*Size: 38MB

Tracklist:
1. Eden Burns 03:58
2. Vultures 01:05
3. Death Grip 01:46
4. Vessel Empty 02:52
5. Creator 01:48
6. Towards The Sun 02:11
7. Chained 02:38
******************************
Total playing time: 16:18



[more=Extended info]Outer Heaven:
Austin Haines: Vocals.
Jon Kunz: Guitars.
Phil Jaquez: Bass.
Paul Chrismer: Drums.[/more]

[more=Technical info]
Input File: 02 Vultures.mp3
Channels : 2
Sample Rate : 44100
Precision : 16-bit
Duration : 00:01:06.02 = 2911482 samples = 4951.5 CDDA sectors
File Size : 2.70M
Bit Rate : 327k
Sample Encoding: MPEG audio (layer I, II or III)
Comments :
Title=Vultures
Artist=Outer Heaven
Album=Demo 2013
Tracknumber=2
Year=2013
Genre=Death/Doom Metal

[/more]

Register
(9) crackedbrain, marilin, Rosen, scrollbar, spiritualdecay666, VALERY, varlam4, wreak, Герб,
Feb 11 2014, 18:49:41 Cocaine Cobras - III [ep] (2014)


*Artist: Cocaine Cobras
*Album: III [ep]
*Year: 2014
*Genre: Stoner Metal/Rock
*Country: Brazil
*Format: mp3@CBR320kbps
*Size: 27MB

Tracklist:
1. I'm Born Again 04:05
2. Obey The Boss 02:29
3. White Ayatollah 04:33
******************************
Total playing time: 11:07



[more=Extended info]Cocaine Cobras:
Antonio Lauder: Bass, Vocals.
Davy Rider: Drums.
Rafael Leafar: Guitars.[/more]

[more=Technical info]
Input File: Obey The Boss-Sample.mp3
Channels : 2
Sample Rate : 44100
Precision : 16-bit
Duration : 00:00:30.07 = 1326043 samples = 2255.18 CDDA sectors
File Size : 1.20M
Bit Rate : 320k
Sample Encoding: MPEG audio (layer I, II or III)
Comments :
Title=Obey The Boss
Artist=Cocaine Cobras
Album=III
Tracknumber=2
Year=2014
Genre=Stoner Metal/Rock

[/more]

Register
(6) bka, caro, denver, marilin, VALERY, wreak,
Feb 10 2014, 17:53:39 Monumentomb - Ritual Exhumation [ep] (2014)


*Artist: Monumentomb
*Album: Ritual Exhumation [ep]
*Year: 2014
*Genre: Death Metal
*Country: United Kingdom
*Format: mp3@CBR320kbps
*Size: 65MB

Tracklist:
1. Intro 00:58
2. Ritual Exhumation 06:05
3. In The Crypt Devoured 04:27
4. Perennial Interment 06:04
5. Perpetual Execution Torment 04:14
6. Citadel Of The Living Dead 06:26
******************************
Total playing time: 28:14



[more=Extended info]Monumentomb:
Lee Charlton: Drums.
Alex Brown: Guitars.
Byron Braidwood: Guitars, Vocals.[/more]

[more=Technical info]
Input File: Ritual Exhumation-Sample.mp3
Channels : 2
Sample Rate : 44100
Precision : 16-bit
Duration : 00:00:30.07 = 1326043 samples = 2255.18 CDDA sectors
File Size : 1.20M
Bit Rate : 320k
Sample Encoding: MPEG audio (layer I, II or III)
Comments :
Title=Ritual Exhumation
Artist=Monumentomb
Album=Ritual Exhumation
Tracknumber=2
Year=2014
Genre=Death Metal

[/more]

Register
(21) Analien, andreikun, caro, Darkthronefoad, Deathbringer, Hell_Is_Here, KVRT, marilin, MeathookSeed, Mist13Signifier, MMMMM, muskatnuss, Old Vyaine, potap03020100, randumbum, Samaritianin, samokot, satanist666, Tino, VALERY, wreak,
Feb 9 2014, 20:36:55 Saviours - The Eye Obscene [single] (2011)


*Artist: Saviours
*Album: The Eye Obscene [single]
*Year: 2011
*Genre: Heavy/Stoner Metal
*Country: United States
*Format: mp3@CBR320kbps
*Size: 25MB

Tracklist:
1. The Eye Obscene 07:07
2. Come On Back (Holocaust Cover) 03:48
******************************
Total playing time: 10:55



[more=Extended info]Saviours:
Sonny Reinhardt: Guitars.
Scott Batiste: Drums.
Austin Barber: Guitars, Vocals.
Carson Binks: Bass.[/more]

[more=Technical info]
Input File: The Eye Obscene-Sample.mp3
Channels : 2
Sample Rate : 44100
Precision : 16-bit
Duration : 00:00:30.07 = 1326043 samples = 2255.18 CDDA sectors
File Size : 1.20M
Bit Rate : 320k
Sample Encoding: MPEG audio (layer I, II or III)
Comments :
Title=The Eye Obscene
Artist=Saviours
Album=The Eye Obscene
Tracknumber=1
Year=2011
Genre=Heavy/Thrash/Stoner Metal

[/more]

Register
(3) caro, denver, marilin,
Feb 9 2014, 20:27:47 Saviours - Crete'n [single] (2011)


*Artist: Saviours
*Album: Crete'n [single]
*Year: 2011
*Genre: Heavy/Stoner Metal
*Country: United States
*Format: mp3@CBR320kbps
*Size: 26MB

Tracklist:
1. Crete'n 05:04
2. Dixie Dieway 06:16
******************************
Total playing time: 11:20



[more=Extended info]Saviours:
Sonny Reinhardt: Guitars.
Scott Batiste: Drums.
Austin Barber: Guitars, Vocals.
Carson Binks: Bass.[/more]

[more=Technical info]
Input File: Crete\\\'n-Sample.mp3
Channels : 2
Sample Rate : 44100
Precision : 16-bit
Duration : 00:00:30.07 = 1326043 samples = 2255.18 CDDA sectors
File Size : 1.20M
Bit Rate : 320k
Sample Encoding: MPEG audio (layer I, II or III)
Comments :
Title=Crete'n
Artist=Saviours
Album=Crete'n
Tracknumber=1
Year=2011
Genre=Heavy/Thrash/Stoner Metal

[/more]

Register
(4) caro, denver, marilin, Rosen,
Feb 9 2014, 00:10:24 Sunburster - SolarBipolar [ep] (2013)


*Artist: Sunburster
*Album: SolarBipolar [ep]
*Year: 2013
*Genre: Sludge/Doom/Stoner Metal
*Country: United States
*Format: mp3@CBR320kbps
*Size: 32MB

Tracklist:
1. War Torn 02:54
2. Candle In The Wound 04:11
3. Setting Sun 06:57
******************************
Total playing time: 14:02



[more=Extended info]Sunburster:
Jason Dost: Bass.
Jeff Barow: Drums.
Jordan Berk: Guitars.
Mike Murro: Vocals.[/more]

[more=Technical info]
Input File: War Torn-Sample.mp3
Channels : 2
Sample Rate : 44100
Precision : 16-bit
Duration : 00:00:29.91 = 1319119 samples = 2243.4 CDDA sectors
File Size : 1.20M
Bit Rate : 320k
Sample Encoding: MPEG audio (layer I, II or III)
Comments :
Title=War Torn
Artist=Sunburster
Album=SolarBipolar
Tracknumber=1
Year=2013
Genre=Sludge/Doom/Stoner Metal

[/more]

Register
(6) caro, denver, marilin, randumbum, VALERY, varlam4,
Feb 7 2014, 18:35:25 Ampacity - Encounter One (2013)


*Artist: Ampacity
*Album: Encounter One
*Year: 2013
*Genre: Stoner Metal/Psychedelic Rock
*Country: Poland
*Format: mp3@CBR320kbps
*Size: 94MB

Tracklist:
1. Ultima Hombre 13:08
2. Asimov's Sideburns 09:49
3. Masters Of Earth 19:04
******************************
Total playing time: 42:01



[more=Extended info]Ampacity:
Jan Galbas: Vocals, Guitars.
Marek Kostecki: Electric Piano, Organ, Synthesizer.
Wojciech Lacki: Bass.
Piotr Paciorkowski: Guitars.
Sebastian Sawicz: Drums.[/more]

[more=Technical info]
Input File: Ultima Hombre-Sample.mp3
Channels : 2
Sample Rate : 44100
Precision : 16-bit
Duration : 00:00:30.07 = 1326043 samples = 2255.18 CDDA sectors
File Size : 1.20M
Bit Rate : 320k
Sample Encoding: MPEG audio (layer I, II or III)
Comments :
Title=Ultima Hombre
Artist=Ampacity
Album=Encounter One
Tracknumber=1
Year=2013
Genre=Psychedelic Rock

[/more]

Register
(10) caro, Daale, denver, metala, qpMM, randumbum, SatanicPanzer, StabWound, VALERY, vosmidesijatye,
Feb 6 2014, 21:05:41 Youngblood Supercult - Season Of The Witch (2014)


*Artist: Youngblood Supercult
*Album: Season Of The Witch
*Year: 2014
*Genre: Heavy Metal/Stoner Rock
*Country: United States
*Format: mp3@CBR320kbps
*Size: 88MB

Tracklist:
1. Fever Machine 03:57
2. The Wealth 03:30
3. Chautauqua 03:54
4. Ten Paces 05:34
5. Tex 04:21
6. Strawberry Tongue Cutters 05:54
7. Wicked Woman 04:44
8. Season Of The Witch 05:43
******************************
Total playing time: 37:37




[more=Extended info]Youngblood Supercult:
Bailey Smith: Guitars.
Weston Alford: Drums.
Coder Potts: Bass.
Wyatt Desch: Vocals.[/more]

[more=Technical info]
Input File: Fever Machine-Sample.mp3
Channels : 2
Sample Rate : 44100
Precision : 16-bit
Duration : 00:00:30.07 = 1326043 samples = 2255.18 CDDA sectors
File Size : 1.20M
Bit Rate : 320k
Sample Encoding: MPEG audio (layer I, II or III)
Comments :
Title=Fever Machine
Artist=Youngblood Supercult
Album=Season Of The Witch
Tracknumber=1
Year=2014
Genre=Heavy Metal/Stoner/Hard Rock

[/more]

Register
(12) Analien, caro, crackedbrain, denver, marilin, mordengrom, old, Rosen, SatanicPanzer, varlam4, wreak, Zaephar,
Feb 6 2014, 17:29:54 Mephorash & Ashencult - Opus Serpens [split] (2013)


*Artist: Mephorash & Ashencult
*Album: Opus Serpens [split]
*Year: 2013
*Genre: Black Metal | Black Metal
*Country: Sweden | United States
*Format: mp3@CBR320kbps
*Size: 36MB

Tracklist:
Ashencult:
1. My Tenth Death 06:06
Mephorash:
2. Atramentous Ungod Aspect 09:21
******************************
Total playing time: 15:27




[more=Extended info]Mephorash:
Lethargus: Guitars, Bass, Vocals (Backing).
Siatris: Guitars.
Ors: Vocals.

Ashencult:
W: Guitars.
S: Guitars.
E: Drums.
R: Bass.
A: Vocals.[/more]

[more=Technical info]
Input File: Atramentous Ungod Aspect-Sample.mp3
Channels : 2
Sample Rate : 44100
Precision : 16-bit
Duration : 00:00:30.07 = 1326043 samples = 2255.18 CDDA sectors
File Size : 1.20M
Bit Rate : 320k
Sample Encoding: MPEG audio (layer I, II or III)
Comments :
Title=Atramentous Ungod Aspect
Artist=Mephorash
Album=Opus Serpens
Tracknumber=2
Year=2013
Genre=Black Metal

[/more]

Register
(34) andrey010577, caro, Darkthronefoad, Hell_Is_Here, helvetesrike, kefka, kim666, Koscheyushka, Lanceatum, marilin, milosdjor, Nerevar, Ostinato, randumbum, Reverend, rickzammuto, rom666, satanas189, satanist666, serach, shitsic, Sjelekval, spiritualdecay666, SSBandera, toly1917, tont, Typhon88, Unknown, VALERY, varg-38ru, varlam4, vasiljev_sergej, wreak, Герб,

8 Pages V  < 1 2 3 4 5 > » 
- Lo-Fi Version Support form
Copyrights and abuse reports form
Time is now: 23rd June 2021 - 22:39:48