Welcome Guest ( Log In | Register )

История благодарностей участнику lestllk ::: Спасибо сказали: 53900 раз(а)
Дата поста: В теме: За сообщение: Спасибо сказали:
Jan 11 2021, 04:46:37 Kêres - Xxi/Xxii/Xxiii [compilation] (2020)


*Artist: Kêres
*Album: Xxi/Xxii/Xxiii [compilation]
*Year: 2020
*Genre: Black Metal
*Country: Finland
*Format: mp3@VBR240kbps
*Size: 69MB

Tracklist:
1. Bones from the Well
2. Fall to the Underworld
3. Back Together
4. Future Shadow
5. Lost to the Jaws of Time
6. Luniolatry
7. Calaeno's Arms
8. A Beast Dies
9. Suomujen syleilyyn
10. Salaisuus sisimassa
11. Surman siemen
******************************
Total playing time: 39:45

[more=Extended info]Tracks A1-A3 from Lies From The Gutter Demo XXI
Tracks A4-B2 from Hearse To The Church Demo XXII
Tracks B3-B5 from Sumuksi Syvyyteen Demo XXIII


Satanik Requiem
Co-released with Vermines Pestifera.[/more]

[more=Technical info]
Input File: 04 Future Shadow.mp3
Channels : 2
Sample Rate : 44100
Precision : 16-bit
Duration : 00:02:27.54 = 6506470 samples = 11065.4 CDDA sectors
File Size : 4.73M
Bit Rate : 257k
Sample Encoding: MPEG audio (layer I, II or III)
Comments :
Title=Future Shadow
Artist=Kêres
Album=XXI / XXII / XXIII
Tracknumber=4
Year=2020
Genre=Black Metal
Discnumber=1/1

[/more]

Register
(27) ambre, andivi, El_Chibo, ent404, foreverisforgotten, FUDEDOR, infiltrator, kim666, Moonshtook, Namnlos, Olethros, Ostinato, Premature_Devotion, randumbum, robertho777, Rosen, sacrut, satanist666, SilentNidhogg, supremo, Taakeferd, VALERY, varlam4, vasiljev_sergej, Vidder242, Wail, ZambuL,
Jan 11 2021, 04:41:05 Aym - Buried, Forgotten [demo] (2019)


*Artist: Aym
*Album: Buried, Forgotten [demo]
*Year: 2019
*Genre: Black Metal
*Country: Finland
*Format: mp3@VBR265kbps
*Size: 27MB

Tracklist:
1. I
2. II
3. III
******************************
Total playing time: 14:04

[more=Extended info]Gramschap

Tape-rip by Zero[/more]

[more=Technical info]
Input File: 01 I.mp3
Channels : 2
Sample Rate : 44100
Precision : 16-bit
Duration : 00:04:10.64 = 11053400 samples = 18798.3 CDDA sectors
File Size : 8.68M
Bit Rate : 277k
Sample Encoding: MPEG audio (layer I, II or III)
Comments :
Title=I
Artist=AYM
Album=Buried, Forgotten
Tracknumber=1/3
Year=2019
Genre=Black Metal
Discnumber=1/1

[/more]

Register
(15) ambre, ent404, infiltrator, kim666, Olethros, Ostinato, randumbum, Rosen, satanist666, SilentNidhogg, Taakeferd, VALERY, varlam4, vasiljev_sergej, Wail,
Jan 11 2021, 04:34:41 Moraš - Clandescent Ceremonies In Obeisance To The Unsung [compilation] (2020)


*Artist: Moraš
*Album: Clandescent Ceremonies In Obeisance To The Unsung [compilation]
*Year: 2020
*Genre: Black Metal
*Country: Finland
*Format: mp3@VBR260kbps
*Size: 135MB

Tracklist:
1. Gateway to Cessation
2. Evoking The Unhuman Entities
3. Languishing In Depths of Sorrow
4. Caged In Flesh
5. Mourning
6. Untitled
7. Untitled
8. Untitled
9. Untitled
10. Untitled
11. Lair Of The Inanimated
12. Soulless Watchers
13. Binded Into Eternity
14. Untitled
15. Untitled
16. Untitled
******************************
Total playing time: 1:12:12

[more=Extended info]Archaic Memories
2 × Cassette, Compilation, Limited Edition, Reissue

x2 Pro tapes inclusing demos Manifest Death and Gaze of the Void plus material taken from split with UVSS and the Ossuary Vol.1 compilation and some unreleaed material.

Tape-rip by Zero[/more]

[more=Technical info]
Input File: 03 Languishing In Depths Of Sorrow.mp3
Channels : 2
Sample Rate : 44100
Precision : 16-bit
Duration : 00:05:47.72 = 15334232 samples = 26078.6 CDDA sectors
File Size : 12.5M
Bit Rate : 289k
Sample Encoding: MPEG audio (layer I, II or III)
Comments :
Title=Languishing In Depths Of Sorrow
Artist=Moraš
Album=Clandescent Ceremonies In Obeisance To The Unsung
Tracknumber=3/16
Year=2020
Genre=Black Metal
Discnumber=1/1

[/more]

Register
(21) ambre, El_Chibo, foreverisforgotten, heinz88, infiltrator, kim666, Olethros, Ostinato, randumbum, Rosen, sacrut, satanist666, SilentNidhogg, smysl, supremo, Taakeferd, VALERY, varlam4, vasiljev_sergej, Wail, Zaephar,
Jan 11 2021, 04:27:32 Black Spirit - In A Vortex To The Infinite Night/Behind The Light That Fades [compilation] (2019)


*Artist: Black Spirit
*Album: In A Vortex To The Infinite Night/Behind The Light That Fades [compilation]
*Year: 2019
*Genre: Black Metal
*Country: Spain
*Format: mp3@VBR285kbps
*Size: 75MB

Tracklist:
1. On the Threshold of Unconsciousness
2. In Vortex to Infinite Blackness
3. A Terrifying Mystery Underlies
4. Night Without Origin or End
5. Behind the Light That Fades
6. The Descent
7. The White Dyed Black
8. Mystical Infinity
******************************
Total playing time: 36:01

[more=Extended info]Signal Rex

Side A was originally released as the In A Vortex To The Infinite Night demo cassette.
Side B was originally released as the Behind The Light That Fades demo cassette.

Vinyl-rip by Zero[/more]

[more=Technical info]
Input File: 03 A Terrifying Mystery Underlies.mp3
Channels : 2
Sample Rate : 44100
Precision : 16-bit
Duration : 00:05:01.82 = 13310174 samples = 22636.4 CDDA sectors
File Size : 11.7M
Bit Rate : 310k
Sample Encoding: MPEG audio (layer I, II or III)
Comments :
Title=A Terrifying Mystery Underlies
Artist=Black Spirit
Album=In A Vortex To The Infinite Night / Behind The Light That Fades
Tracknumber=03/8
Year=2019
Genre=Black Metal
Discnumber=1/1

[/more]

Register
(19) Bzth, El_Chibo, foreverisforgotten, infiltrator, kim666, Occultas, Olethros, Ostinato, randumbum, Rosen, sacrut, satanist666, SilentNidhogg, supremo, Taakeferd, VALERY, varlam4, vasiljev_sergej, Wail,
Jan 11 2021, 04:21:12 Torpefied Bloodlust - Promo 2020 [demo] (2020)


*Artist: Torpefied Bloodlust
*Album: Promo 2020 [demo]
*Year: 2020
*Genre: Raw Black Metal
*Country: Unknown
*Format: mp3@CBR320kbps
*Size: 21MB

Tracklist:
1. I
2. II
3. III
4. IV
******************************
Total playing time: 9:08



[more=Extended info]Debut demo from this mysterious project.
Raw Black Metal with a Death Metal edge to it, although drenched with filth and grime.

Released on CDr via Death's Radiance.

CD-rip[/more]

[more=Technical info]
Input File: 02 II.mp3
Channels : 2
Sample Rate : 44100
Precision : 16-bit
Duration : 00:02:26.59 = 6464443 samples = 10994 CDDA sectors
File Size : 5.95M
Bit Rate : 325k
Sample Encoding: MPEG audio (layer I, II or III)
Comments :
Title=II
Artist=Torpefied Bloodlust
Album=Promo 2020
Tracknumber=02/4
Year=2020
Genre=Black Metal
Discnumber=1/1

[/more]

Register
(12) infiltrator, Olethros, Ostinato, randumbum, Rosen, satanist666, smysl, Taakeferd, VALERY, varlam4, vasiljev_sergej, Wail,
Jan 11 2021, 04:14:45 Gruesomealtar - Beast Ferocious With Hunger [demo] (2020)


*Artist: Gruesomealtar
*Album: Beast Ferocious With Hunger [demo]
*Year: 2020
*Genre: Raw Black Metal
*Country: United States
*Format: mp3@VBR270kbps
*Size: 14MB

Tracklist:
1. Untitled 00:49
2. Untitled 01:49
3. Untitled 02:35
4. Untitled 02:20
******************************
Total playing time: 7:33



[more=Extended info]Spiritual Disease

Gnarly Black Metal of Death, with definite Punk-ish traits, somewhat in the vein of Beherit, Necromonarchia Daemonum , Baphomancia, Bestial Summoning, etc,
Crushing sound reeking of filth and rot.

Tape-rip by Zero[/more]

[more=Technical info]
Input File: 02 Untitled.mp3
Channels : 2
Sample Rate : 44100
Precision : 16-bit
Duration : 00:01:46.74 = 4707058 samples = 8005.2 CDDA sectors
File Size : 3.84M
Bit Rate : 288k
Sample Encoding: MPEG audio (layer I, II or III)
Comments :
Title=Untitled
Artist=Gruesomealtar
Album=Beast Ferocious With Hunger
Tracknumber=02/4
Year=2020
Genre=Black Metal
Discnumber=1/1

[/more]

Register
(16) Alexis The Best, Bzth, infiltrator, Olethros, Ostinato, randumbum, Rosen, sacrut, satanist666, SilentNidhogg, smysl, Taakeferd, VALERY, varlam4, vasiljev_sergej, Wail,
Jan 11 2021, 04:10:53 Absolute Key - My Mortal Share/The Towers [ep] (2020)


*Artist: Absolute Key
*Album: My Mortal Share/The Towers [ep]
*Year: 2020
*Genre: Experimental Black Metal/Industrial/Ambient/Drone
*Country: Finland
*Format: mp3@VBR240kbps
*Size: 18MB

Tracklist:
1. My Mortal Share
2. The Towers
******************************
Total playing time: 9:53



[more=Extended info]Music By: Antti Klemi
See also: Circle of Ouroborus, Mental Terror, Absava


"My Mortal Share / Towers", a seven inch EP by an obscure black metal/noise/industrial artist, Absolute Key, is the work of a sick man. Ridden with a blood disease, A. Klemi, the sole member of the band, faced the gates of the unknown last Autumn, and from those experiences this EP was born.

"My Mortal Share", a mid-tempo piece full of the dirtiest screeches and ethereal wails somewhere between industrial and Summoning, paints a vision of a prisoner: where are the boundaries of our physical and spiritual existence, and is it possible to break these chains in the pressure of the overwhelming universe?

B-side "Towers" is a soundscape of Above and Below, a man's never ending quest for truth and rebellion. How can we rip the heavens apart when our hands are tied by our own materialism? Musically Towers is a more abstract piece of work, combining slow rhythms, religious sound imagery and agonizing screams – being a modern psalm, perhaps?


Vinyl-rip by Zero[/more]

[more=Technical info]
Input File: 01 My Mortal Share.mp3
Channels : 2
Sample Rate : 44100
Precision : 16-bit
Duration : 00:05:30.42 = 14571610 samples = 24781.6 CDDA sectors
File Size : 9.59M
Bit Rate : 232k
Sample Encoding: MPEG audio (layer I, II or III)
Comments :
Title=My Mortal Share
Artist=Absolute Key
Album=My Mortal Share//The Towers
Tracknumber=01/2
Year=2020
Genre=Black Metal, Industrial, Ambient, Drone
Discnumber=1/1

[/more]

Register
(15) Boozer, ent404, infiltrator, kimkayoung, Olethros, Ostinato, randumbum, Rosen, SilentNidhogg, Taakeferd, VALERY, varlam4, vasiljev_sergej, Vitald, Wail,
Jan 11 2021, 04:03:22 Vestibulum Vacuüi - Gezalfd In Gal [demo] (2015)


*Artist: Vestibulum Vacuüi
*Album: Gezalfd In Gal [demo]
*Year: 2015
*Genre: Atmospheric Black Metal
*Country: Netherlands
*Format: mp3@VBR242kbps
*Size: 22MB

Tracklist:
1. Gal I 04:03
2. Gal II 02:35
3. Zalving I 02:39
4. Zalving II 03:16
******************************
Total playing time: 12:33

[more=Extended info]The Throat

Tape-rip by Zero[/more]

[more=Technical info]
Input File: 01 Gal I.mp3
Channels : 2
Sample Rate : 44100
Precision : 16-bit
Duration : 00:04:01.08 = 10631804 samples = 18081.3 CDDA sectors
File Size : 7.28M
Bit Rate : 242k
Sample Encoding: MPEG audio (layer I, II or III)
Comments :
Title=Gal I
Artist=Vestibulum Vacuüi
Album=Gezalfd In Gal
Tracknumber=01/4
Year=2015
Genre=Black Metal
Discnumber=1/1

[/more]

Register
(16) Alexis The Best, infiltrator, kim666, Olethros, Ostinato, randumbum, robertho777, Rosen, sacrut, satanist666, SilentNidhogg, Taakeferd, VALERY, varlam4, vasiljev_sergej, Wail,
Jan 11 2021, 03:52:01 Ghriéving - 2017/2019 Discography [compilation] (2019)


*Artist: Ghriéving
*Album: 2017/2019 Discography [compilation]
*Year: 2019
*Genre: Black Metal
*Country: Venezuela
*Format: mp3@CBR320kbps
*Size: 160MB

Tracklist:
1. Spiritual Arsonism (Pt I)
2. Fvoreliturgiae
3. Πιστεύομεν
4. Speech Of His Envoy
5. The Simonic Coven
6. Crvrifragivm Woe Cathedral
7. Mental Sigil Esoterica
8. Voertigina (Channelization)
9. Oath Of Nervous Paroxysm
10. As The Waxing Moon Became An Egregor...
11. ... And The Sun Becomes Spectral...
******************************
Total playing time: 1:09:45

[more=Extended info]Vigor Deconstruct

CD-rip[/more]

[more=Technical info]
Input File: 04 Speech Of His Envoy.mp3
Channels : 2
Sample Rate : 44100
Precision : 16-bit
Duration : 00:05:13.69 = 13833861 samples = 23527 CDDA sectors
File Size : 12.8M
Bit Rate : 327k
Sample Encoding: MPEG audio (layer I, II or III)
Comments :
Title=Speech Of His Envoy
Artist=Ghriéving
Album=2017/2019 Discography
Tracknumber=04/11
Year=2019
Discnumber=1/2

[/more]

Register
(16) El_Chibo, foreverisforgotten, infiltrator, kim666, Olethros, Ostinato, randumbum, Rosen, sacrut, satanist666, supremo, Taakeferd, VALERY, varlam4, vasiljev_sergej, Wail,
Jan 11 2021, 03:48:16 Malthusian Kommand - Demo Mmxx [demo] (2020)


*Artist: Malthusian Kommand
*Album: Demo Mmxx [demo]
*Year: 2020
*Genre: Raw Black Metal
*Country: United States
*Format: mp3@CBR320kbps
*Size: 28MB

Tracklist:
1. I 03:04
2. II 02:21
3. III 03:10
4. IV 03:08
******************************
Total playing time: 11:43



[more=Technical info]
Input File: 02 II.mp3
Channels : 2
Sample Rate : 44100
Precision : 16-bit
Duration : 00:02:41.92 = 7140452 samples = 12143.6 CDDA sectors
File Size : 6.55M
Bit Rate : 324k
Sample Encoding: MPEG audio (layer I, II or III)
Comments :
Title=II
Artist=Malthusian Kommand
Album=DEMO MMXX
Tracknumber=2
Year=2020

[/more]

Register
(14) Cramloth, infiltrator, kim666, Olethros, randumbum, Rosen, sacrut, satanist666, SilentNidhogg, Taakeferd, VALERY, varlam4, vasiljev_sergej, Wail,
Jan 11 2021, 03:45:52 Atrium Malum - Spirale Démentielle [demo] (2019)


*Artist: Atrium Malum
*Album: Spirale Démentielle [demo]
*Year: 2019
*Genre: Dark Ambient/Black Ambient
*Country: France
*Format: mp3@VBR245kbps
*Size: 67MB

Tracklist:
A1. Sombre Lueur
A2. Décrépitude
A3. Svaëertzvrëh • Chant de Folte •
B1. Le Murmure de la Vanité
B2. Le Sercle
******************************
Total playing time: 37:40



[more=Extended info]Les Fleurs du Mal Productions

Garde Noire collective (France).

Raw, twisted, unholy, grim and terrifying music from this mysterious French collective. Influenced by Les Legions Noires, ABRUPTUM and MONS VENERIS

Tape-rip by Zero[/more]

[more=Technical info]
Input File: 02 Décrépitude.mp3
Channels : 2
Sample Rate : 44100
Precision : 16-bit
Duration : 00:06:32.88 = 17326052 samples = 29466.1 CDDA sectors
File Size : 12.6M
Bit Rate : 256k
Sample Encoding: MPEG audio (layer I, II or III)
Comments :
Title=Décrépitude
Artist=Atrium Malum
Album=Spirale Démentielle
Tracknumber=02/5
Year=2019
Genre=Dark Ambient
Discnumber=1/1

[/more]

Register
(14) Cramloth, infiltrator, kim666, Occultas, Olethros, Ostinato, randumbum, robertho777, Rosen, SilentNidhogg, Taakeferd, varlam4, vasiljev_sergej, Wail,
Jan 10 2021, 23:59:24 Mysteria Mystica Aeterna - Into The Kingdom Of Shadows (2021)


*Artist: Mysteria Mystica Aeterna
*Album: Into The Kingdom Of Shadows
*Year: 2021
*Genre: Black Metal
*Country: Germany
*Format: mp3@CBR320kbps
*Size: 85MB

Tracklist:
1. Preludium
2. Kiss of the Goat
3. Order of the Black Light
4. Intermezzo
5. The Gates of Hell
6. Into the Kingdom of Shadows
******************************
Total playing time: 36:46



[more=Extended info]Narbentage Produktionen

Lineup

Frater Noxathra - All instruments, Vocals (2020-present)
See also: Belzazel, Lunar Chalice, Malefica, Nightwalker, Sacrilegious Rite, Todesweihe, ex-Adversum[/more]

[more=Technical info]
Input File: 02 Kiss of the Goat.mp3
Channels : 2
Sample Rate : 44100
Precision : 16-bit
Duration : 00:07:06.08 = 18790128 samples = 31956 CDDA sectors
File Size : 17.1M
Bit Rate : 322k
Sample Encoding: MPEG audio (layer I, II or III)
Comments :
Title=Kiss of the Goat
Artist=Mysteria Mystica Aeterna
Album=Into the Kingdom of Shadows
Tracknumber=2
Year=2020

[/more]

Register
(31) AlexSmith, alikkon, atavist, caro, El_Chibo, ent404, foreverisforgotten, infiltrator, judaz, kim666, kimkayoung, legion01, Moonshtook, Olethros, Ostinato, randumbum, robertho777, Rosen, sabr, SaintVitus, satanist666, scorpionmk, SilentNidhogg, smysl, Taakeferd, thenecromancer, VALERY, varlam4, vasiljev_sergej, VECTOR, Wail,
Jan 4 2021, 01:08:07 Askeregn & Kêres - Askeregn/Kêres [split] (2019)


*Artist: Askeregn & Kêres
*Album: Askeregn/Kêres [split]
*Year: 2019
*Genre: Black Metal | Black Metal
*Country: Norway | Finland
*Format: mp3@VBR270kbps
*Size: 28MB

Tracklist:
Askeregn:
1. Fra avgrunnens rumlende dyp 06:27
Kêres:
2. Forging the Forbidden Stone 07:17
******************************
Total playing time: 13:44

[more=Extended info]Terratur Possessions

Vinyl-rip by Zero[/more]

[more=Technical info]
Input File: 01 Fra Avgrunnens Rumlende Dyp.mp3
Channels : 2
Sample Rate : 44100
Precision : 16-bit
Duration : 00:06:27.79 = 17101407 samples = 29084 CDDA sectors
File Size : 13.3M
Bit Rate : 275k
Sample Encoding: MPEG audio (layer I, II or III)
Comments :
Title=Fra Avgrunnens Rumlende Dyp
Artist=Askeregn
Album=Askeregn / Kêres
Tracknumber=01/2
Year=2019
Genre=Black Metal
Discnumber=1/1

[/more]

Register
(20) Boozer, cancer1974, El_Chibo, IncendiaryMight, infiltrator, kim666, Namnlos, Ostinato, randumbum, robertho777, Rosen, SilentNidhogg, Sjelekval, Taakeferd, VALERY, varlam4, vasiljev_sergej, Vidder242, Wail, ZA670,
Jan 4 2021, 01:01:52 Effroi & Crypts Of Wallachia - Black Riders From Outer Darkness/Woeful Gleam Upon Snowy Stronghold [split] (2020)


*Artist: Effroi & Crypts Of Wallachia
*Album: Black Riders From Outer Darkness/Woeful Gleam Upon Snowy Stronghold [split]
*Year: 2020
*Genre: Black Metal | Black Metal
*Country: Belgium | Belgium
*Format: mp3@VBR280kbps
*Size: 24MB

Tracklist:
Effroi:
1. Black Riders from Outer Darkness 06:05
Crypts of Wallachia:
2. Woeful Gleam upon Snowy Stronghold 05:38
******************************
Total playing time: 11:43



[more=Extended info]Medieval Prophecy Records

Vinyl-rip by Zero[/more]

[more=Technical info]
Input File: 01 Black Riders From Outer Darkness.mp3
Channels : 2
Sample Rate : 44100
Precision : 16-bit
Duration : 00:06:05.22 = 16106070 samples = 27391.3 CDDA sectors
File Size : 12.7M
Bit Rate : 278k
Sample Encoding: MPEG audio (layer I, II or III)
Comments :
Title=Black Riders From Outer Darkness
Artist=Effroi
Album=Black Riders From Outer Darkness/ Woeful Gleam Upon Snowy Stronghold
Tracknumber=01/2
Year=2020
Genre=Black Metal
Discnumber=1/1

[/more]

Register
(18) Boozer, El_Chibo, igore2911, infiltrator, kim666, MushroomGoat, Ostinato, rammmirez, randumbum, Rosen, satanist666, SilentNidhogg, Taakeferd, VALERY, varg-38ru, varlam4, vasiljev_sergej, Wail,
Jan 4 2021, 00:55:45 Wandelaars - Het Gloren Van De Dooi [ep] (2017)


*Artist: Wandelaars
*Album: Het Gloren Van De Dooi [ep]
*Year: 2017
*Genre: Atmospheric Black Metal
*Country: Netherlands
*Format: mp3@CBR320kbps
*Size: 94MB

Tracklist:
1. Het gloren van de dooi 06:24
2. Untitled 03:20
3. Untitled 04:17
4. Callisto en Arlas 10:34
******************************
Total playing time: 24:35



[more=Extended info]Consistentis Veritatis Peremptoria


Tape-rip + Scans[/more]

[more=Technical info]
Input File: 01-04. Het Gloren Van De Dooi.mp3
Channels : 2
Sample Rate : 48000
Precision : 16-bit
Duration : 00:06:36.80 = 19046160 samples ~ 29759.6 CDDA sectors
File Size : 16.2M
Bit Rate : 327k
Sample Encoding: MPEG audio (layer I, II or III)
Comments :
Title=Het Gloren Van De Dooi
Artist=Wandelaars
Album=Het Gloren Van De Dooi
Tracknumber=01/04
Year=2017
Genre=Black Metal

[/more]

Register
(19) El_Chibo, foreverisforgotten, infiltrator, kim666, Marek, Olethros, Ostinato, randumbum, robertho777, Rosen, sergsazan, SileniusLegard, SilentNidhogg, Taakeferd, Tyrone, VALERY, varlam4, vasiljev_sergej, Wail,
Jan 4 2021, 00:51:41 Raio Negro - Galactic Portals Of The 7 Infernal Suns [ep] (2020)


*Artist: Raio Negro
*Album: Galactic Portals Of The 7 Infernal Suns [ep]
*Year: 2020
*Genre: Dark Ambient
*Country: Portugal
*Format: mp3@CBR320kbps
*Size: 46MB

Tracklist:
A1. 1st Portal Of The Blacksun
A2. 2nd Portal Of The Blacksun
A3. 3rd Portal Of The Blacksun
A4. 4th Portal Of The Blacksun
A5. 5th Portal Of The Blacksun
A6. 6th Portal Of The Blacksun
A7. 7th Portal Of The Blacksun
B1. Stellar Sorrow And Blood Raining
B2. The King Of Thule Dancing At The Center Of The Black Sun
******************************
Total playing time: 20:31

[more=Extended info]ASRAR ‎– ASR093


Hyperborean Madness

This is the first concept album by Raio Negro.
9 ambient chants honoring the King.
Stellar Blood and Sorrow.[/more]

[more=Technical info]
Input File: 01 Side A.mp3
Channels : 2
Sample Rate : 48000
Precision : 16-bit
Duration : 00:13:43.68 = 39536640 samples ~ 61776 CDDA sectors
File Size : 33.3M
Bit Rate : 323k
Sample Encoding: MPEG audio (layer I, II or III)
Comments :
Title=Side A
Artist=Raio Negro
Album=Galactic Portals Of The 7 Infernal Suns
Tracknumber=01
Year=2020
Genre=Dark Ambient

[/more]

Register
(5) Alexis The Best, fylopaloma, gena, infiltrator, Olethros,
Jan 4 2021, 00:43:57 Absolute Key - Puut Kantavat Valoa (2020)


*Artist: Absolute Key
*Album: Puut Kantavat Valoa
*Year: 2020
*Genre: Ambient/Drone/Experimental
*Country: Finland
*Format: mp3@VBR272kbps
*Size: 80MB

Tracklist:
1. Minä Näin Puun
2. Lepää Vain Unessa
3. Syyskesän Yöt
4. Ikävyys
5. Hyvä On Hiihtäjän Hiihdellä
6. Uusi Asiallisuuteni.
7. Unohtuneita Polkuja, Jotka Ovat Kasvaneet Umpeen
8. Puut Kantavat Valoa
******************************
Total playing time: 40:51




[more=Extended info]Tampereen levyt


Artwork By – Katri Siippainen
Mastered By – Jarno Alho
Music By – Antti Klemi[/more]

[more=Technical info]
Input File: 02 Lepää vain unessa.mp3
Channels : 2
Sample Rate : 44100
Precision : 16-bit
Duration : 00:04:35.83 = 12163927 samples = 20687 CDDA sectors
File Size : 9.48M
Bit Rate : 275k
Sample Encoding: MPEG audio (layer I, II or III)
Comments :
Title=Lepää vain unessa
Artist=Absolute Key
Album=Puut kantavat valoa
Tracknumber=02/8
Year=2020
Genre=Ambient, Drone, Experimental, Electro, Poetry
Discnumber=1/1

[/more]

Register
(10) Boozer, DHS, ent404, Hell_Is_Here, infiltrator, Occultas, Olethros, Premature_Devotion, smes, varlam4,
Dec 31 2020, 19:48:27 Decoherence - Unitarity (2020)
Register

mp3@CBR320kbps
(1) doomTemplar,
Dec 31 2020, 19:46:49 Eigenlicht - Self-Annihilating Consciousness (2018)
Register

mp3@CBR320kbps
(1) varlam4,
Dec 24 2020, 20:25:14 Onda Makter - The Misanthropic Blasphemy (2020)


*Artist: Onda Makter
*Album: The Misanthropic Blasphemy
*Year: 2020
*Genre: Black Metal
*Country: Sweden
*Format: mp3@CBR320kbps
*Size: 128MB

Tracklist:
1. Baptised in Styx 06:26
2. Mistress of the Moon 06:43
3. Keepers of the Black Flame 06:12
4. Burn Their Souls 08:14
5. Curse Me Father 09:37
6. Song of the Mourning 03:54
7. Heathen Hatred 08:16
8. Misanthropic Blasphemy 05:59
******************************
Total playing time: 55:21



[more=Technical info]
Input File: 02 Mistress of the Moon.mp3
Channels : 2
Sample Rate : 44100
Precision : 16-bit
Duration : 00:06:43.09 = 17776313 samples = 30231.8 CDDA sectors
File Size : 16.4M
Bit Rate : 325k
Sample Encoding: MPEG audio (layer I, II or III)
Comments :
Title=Mistress of the Moon
Artist=Onda Makter
Album=The Misanthropic Blasphemy
Tracknumber=2
Year=2020

[/more]

Register
(35) AlexSmith, atavist, craP_cillA, dermarsoran, El_Chibo, IncendiaryMight, infernallord, infiltrator, Kabv, kim666, Legacy100, Marek, multizwilling, nsk2008, Occultas, older68, Olethros, Ostinato, randumbum, rimfrost, robertho777, Rosen, SadistikSlayer, satanist666, SilentNidhogg, Sjelekval, smes, stub888, THROWER666, toly1917, VALERY, varg-38ru, varlam4, vasiljev_sergej, Wail,
Dec 14 2020, 01:26:58 Throane - Plus Une Main À Mordre (2017)
Register

mp3@CBR320kbps
(1) varlam4,
Dec 13 2020, 07:40:50 Eternal Majesty - Black Metal Excommunication (2020)


*Artist: Eternal Majesty
*Album: Black Metal Excommunication
*Year: 2020
*Genre: Black Metal
*Country: France
*Format: mp3@CBR320kbps
*Size: 70MB

Tracklist:
1. L'appel de Neptune / Éternelle Majesté 09:01
2. Excommunication 06:47
3. Les Damnés 04:14
4. L'aube sanglante 03:03
5. Aux Portes du Temple Noir 04:48
6. L'appel de Neptune (Part. II) 02:22
******************************
Total playing time: 30:15



[more=Extended info]Those Opposed Records[/more]

[more=Technical info]
Input File: 02 Excommunication.mp3
Channels : 2
Sample Rate : 44100
Precision : 16-bit
Duration : 00:06:48.08 = 17996372 samples = 30606.1 CDDA sectors
File Size : 16.6M
Bit Rate : 325k
Sample Encoding: MPEG audio (layer I, II or III)
Comments :
Title=Excommunication
Artist=Eternal Majesty
Album=Black Metal Excommunication
Tracknumber=2
Year=2020

[/more]

Register
(42) 1968_janeart, acerbus, alikkon, andivi, Bitchkiller, cancer1974, Daale, Dirt_ORFEY, El_Chibo, gena, Ildjarn, infiltrator, kim666, kimkayoung, korovakaska, Legacy100, multizwilling, nadin85, Olethros, Olrak, Ostinato, randumbum, ripper33, robertho777, Rosen, SaintVitus, sandr666, SilentNidhogg, smes, smysl, stub888, supremo, thenecromancer, the_cleanser, toly1917, varlam4, vasiljev_sergej, Vidder242, wolverine, wreak, wtk.412, yuratroll,
Nov 30 2020, 01:35:00 Stiriah - Into The Depths (2020)


*Artist: Stiriah
*Album: Into The Depths
*Year: 2020
*Genre: Black Metal
*Country: Germany
*Format: mp3@CBR320kbps
*Size: 98MB

Tracklist:
1. The Water 08:51
2. The Sun 09:14
3. The Light Bearer 06:45
4. The Darkness 08:12
5. The Flesh 09:36
******************************
Total playing time: 42:38



[more=Technical info]
Input File: 01 The Water.mp3
Channels : 2
Sample Rate : 44100
Precision : 16-bit
Duration : 00:08:52.09 = 23465213 samples = 39906.8 CDDA sectors
File Size : 21.5M
Bit Rate : 324k
Sample Encoding: MPEG audio (layer I, II or III)
Comments :
Title=The Water
Artist=Stiriah
Album=Into the Dephts
Tracknumber=1
Year=2020

[/more]

Register
(23) 1968_janeart, deadterror, Ildjarn, infiltrator, kim666, Marek, Morgoth, multizwilling, nord6666, Olethros, Ostinato, randumbum, rimfrost, robertho777, Rosen, SilentNidhogg, stub888, VALERY, varlam4, vasiljev_sergej, Vitald, Wail, wreak,
Nov 30 2020, 01:29:05 Old Growth - Mossweaver (2020)


*Artist: Old Growth
*Album: Mossweaver
*Year: 2020
*Genre: Atmospheric Post-Black Metal
*Country: Germany
*Format: mp3@CBR320kbps
*Size: 125MB

Tracklist:
1.Old Growth
2.Oakenheart
3.Red Clouds video
4.The Seedling
5.Queen Of The Woodland Realm
6.Call Of The Night Spirit
7.Altar Of Wisdom
******************************
Total playing time: 53:40

Preview 1

[more=Extended info]Supreme Chaos Records

Shaman Animist creates a nature-inspired musical scenery of atmospheric black metal guiding you into wilderness and primal landscape. A breath taking, overwhelming piece of art.[/more]

[more=Technical info]
Input File: 3. Red Clouds.mp3
Channels : 2
Sample Rate : 44100
Precision : 16-bit
Duration : 00:07:02.08 = 18613860 samples = 31656.2 CDDA sectors
File Size : 17.2M
Bit Rate : 326k
Sample Encoding: MPEG audio (layer I, II or III)
Comments :
Title=Red Clouds
Artist=Old Growth
Album=Mossweaver
Tracknumber=3
Year=2020

[/more]

Register
(32) 1968_janeart, Buregon, ctulhudagon, Druidir, Fallen Soul, infernallord, infiltrator, Kayo_Erased, kim666, Kwaad, MeatWolf, Morgoth, multizwilling, murayne, Olethros, Ostinato, pahail, randumbum, robertho777, Rosen, sergsazan, serjred, Shadechaser, SilentNidhogg, sludge666, The_Hound, VALERY, varlam4, vasiljev_sergej, vikt11, Wail, wreak,
Nov 21 2020, 21:17:23 Sargeras - Return Of The Dancing Whores (2020)
Register

mp3@CBR320kbps
(2) MortSathynr, thenecromancer,

175 Pages V   1 2 3 > » 
- Lo-Fi Version Support form
Copyrights and abuse reports form
Time is now: 17th January 2021 - 19:05:46