Welcome Guest ( Log In | Register )

История благодарностей участнику lestllk ::: Спасибо сказали: 63677 раз(а)
Дата поста: В теме: За сообщение: Спасибо сказали:
Dec 27 2023, 20:45:18 Frangar - Vomini Vincere (2020)
Register

Register
(1) Fryz,
Dec 23 2023, 04:59:28 Kriegsmaschine - Enemy Of Man (2014)
Register

Register
(3) flep, milosdjor, Occultas,
Dec 17 2023, 05:09:51 Lucifer's Child - The Wiccan (2015)
Register

Register
(1) rimfrost,
Dec 17 2023, 04:58:33 Lucifer's Child - The Order (2018)
Register

Register

(1) rimfrost,
Dec 17 2023, 04:26:08 Suffering Hour - The Cyclic Reckoning (2021)
Register
(1) Occultas,
Dec 1 2023, 19:49:37 Triumph - The Beginning Of Chaos [best of/compilation] (2006)
Register
(1) kim666,
Dec 1 2023, 03:01:49 Demon's Gate - Pekelnou Bránu Otevírají [demo] (2017)


*Artist: Demon's Gate
*Album: Pekelnou Bránu Otevírají [demo]
*Year: 2017
*Genre: Black/Thrash Metal
*Country: Finland
*Format: mp3@CBR320kbps
*Size: 53MB

Tracklist:
1. Rotting Paradise 05:43
2. A Procession 03:55
3. Down to Hell 06:22
4. Sacrifice 06:38
******************************
Total playing time: 22:38




[more=Technical info]
Input File: 01 Intro - Rotting Paradise.mp3
Channels : 2
Sample Rate : 44100
Precision : 16-bit
Duration : 00:05:43.66 = 15155362 samples = 25774.4 CDDA sectors
File Size : 13.9M
Bit Rate : 322k
Sample Encoding: MPEG audio (layer I, II or III)
Comments :
Title=Intro - Rotting Paradise
Artist=Demon's Gate
Album=Pekelnou bránu otevírají
Tracknumber=1
Year=2017

[/more]

Register
(9) artscald, Carcharoth, Grev, marilin, METALHUNTER, stumpheavyrock, wgs73, wreak, Xtohar,
Dec 1 2023, 02:50:47 Chevalier - Chapitre II [ep] (2018)


*Artist: Chevalier
*Album: Chapitre II [ep]
*Year: 2018
*Genre: Heavy/Speed Metal
*Country: Finland
*Format: mp3@VBR270kbps
*Size: 45MB

Tracklist:
1. The Messenger 07:08
2. Wrath of Steel 06:15
3. The Curse of the Dead Star 06:49
4. Fly High (Brocas Helm cover) 02:56
******************************
Total playing time: 23:08



[more=Extended info]Remastered Limited Edition Green Vinyl

Vinyl-rip by Zero[/more]

[more=Technical info]
Input File: 1-01 The Messenger.mp3
Channels : 2
Sample Rate : 44100
Precision : 16-bit
Duration : 00:07:05.87 = 18781043 samples = 31940.5 CDDA sectors
File Size : 14.9M
Bit Rate : 279k
Sample Encoding: MPEG audio (layer I, II or III)
Comments :
Title=The Messenger
Artist=Chevalier
Album=Chapitre II
Tracknumber=01/4
Year=2018
Discnumber=1/1

[/more]

Register
(13) 747metaller, AHBAnep, artscald, Grev, Marek, Mogozoz, sergsazan, smysl, stumpheavyrock, Wail, Weikai, wgs73, wreak,
Nov 27 2023, 01:09:10 Totenwache - Kriegswesen [ep] (2020)
Register

Register
(2) Lucju, Piob,
Nov 15 2023, 08:00:44 Ventos & Myśliwy - Murmurio Noturno/Reflections Of Steel [split] (2021)


*Artist: Ventos & Myśliwy
*Album: Murmurio Noturno/Reflections Of Steel [split]
*Year: 2021
*Genre: Black Metal | Black Metal
*Country: Brazil | Unknown
*Format: mp3@VBR289kbps
*Size: 79MB

Tracklist:
Ventos:
1. Intro 01:31
2. Sopro Impio 04:31
3. A Noite Mais Escura 04:19
4. Anfitria Taciturna 04:12
5. Palavras De Sal 03:12
Myśliwy:
6. Awakening (Intro) 00:40
7. Triumph Under Shadow 03:23
8. A Presence Cloaked by Howling Winds 04:03
9. Wolfish Call 03:49
10. Journey Through Corridors 02:00
11. Hearkening to the Battlesong 04:42
12. Nightfall (Outro) 01:10
******************************
Total playing time: 37:32



[more=Extended info]Final Agony Records
Vinyl-rip by Zero

An introductory text artfully composed by Rites of Pestilence:

An extraordinary split from these two hordes, released on LP format via the inimitable, Final Agony Records.

Ventos finally returns 4 years after its latest demo with another excellent piece of freezing, hopeless Raw Black Metal, in the greatest tradition of american 90s USBM. Absolutely bleak and inert Black Metal, hailing the night and its perversions.

Myśliwy follows up after its split with Dobhar Chú, released in 2020, with another brilliant tape on stomping, feral Black Metal, deeply rooted in the germanic and polish 90's. Thunderous, unrelenting Black Metal riffage, excellently accompanied by an tremendous, solemn keyboard work.[/more]

[more=Technical info]
Input File: 1-02 Sopro Impio.mp3
Channels : 2
Sample Rate : 44100
Precision : 16-bit
Duration : 00:04:31.41 = 11969269 samples = 20355.9 CDDA sectors
File Size : 10.6M
Bit Rate : 314k
Sample Encoding: MPEG audio (layer I, II or III)
Comments :
Title=Sopro Impio
Artist=Ventos
Album=Murmurio Noturno / Reflections Of Steel
Tracknumber=02/12
Year=2021
Genre=Black Metal
Discnumber=1/1

[/more]

Register
(11) artscald, Grev, Ildjarn, kim666, sacrut, SileniusLegard, supremo, VALERY, vasiljev_sergej, Wotanwatch, wreak,
Nov 15 2023, 07:55:11 Kurnugia - Blood And Necrosemen [ep] (2020)


*Artist: Kurnugia
*Album: Blood And Necrosemen [ep]
*Year: 2020
*Genre: Black Metal
*Country: Finland
*Format: mp3@VBR251kbps
*Size: 33MB

Tracklist:
1. Intro 01:47
2. Ritual of Deathstench 03:18
3. Might of Lucifer 03:27
4. Interlude: Codes of Baphomet 00:56
5. Dawn of Morbid Darkness 04:08
6. Blasphemic Rites/Shemhamforash 03:51
******************************
Total playing time: 17:27




[more=Extended info]Vinyl-rip by Zero[/more]

[more=Technical info]
Input File: 1-02 Ritual Of Deathstench.mp3
Channels : 2
Sample Rate : 44100
Precision : 16-bit
Duration : 00:03:21.51 = 8886503 samples = 15113.1 CDDA sectors
File Size : 6.73M
Bit Rate : 267k
Sample Encoding: MPEG audio (layer I, II or III)
Comments :
Title=Ritual Of Deathstench
Artist=Kurnugia
Album=Blood And Necrosemen
Tracknumber=02/6
Year=2021
Genre=Black Metal
Discnumber=1/1

[/more]

Register
(13) Altkiller, artscald, Carcharoth, dermarsoran, Grev, Ildjarn, kim666, sacrut, VALERY, vasiljev_sergej, Wail, Weikai, wreak,
Nov 15 2023, 07:50:06 Heidentum - Rest In Battle [compilation] (2006)


*Artist: Heidentum
*Album: Rest In Battle [compilation]
*Year: 2006
*Genre: Pagan Black Metal
*Country: Germany
*Format: mp3@CBR320kbps
*Size: 177MB

Tracklist:
1. Heil den Uralten 03:34
2. Thronhymne 06:25
3. Schwarzer stolzer Krieger 05:51
4. Heidenskampf im Sturmgewitter 04:02
5. Rache wird kommen 04:57
6. Ende 01:45
7. Intro 00:46
8. Within the Iron Sunwheel 04:36
9. Dis Thias 01:28
10. Helio Celtoi Furor 04:29
11. Wanderung durch die Reihen niederfallender Widersacher 04:30
12. Und schwarzer Stahl zerfetzt das Fleisch 04:26
13. Siegesruf 04:45
14. Schützemond 06:50
15. Urahnenzeit Wolfszeit 04:00
16. Grimetat 03:09
17. Sturmhatz 04:47
18. Pfad der Wölfe 05:34
******************************
Total playing time: 1:15:54



[more=Extended info]Heidentum - 2006 - RIB (Reissue 2023)
CD-Rip by Zero


An introductory text artfully composed by Rites of Pestilence:

Absolutely brilliant compilation of the three Heidentum demos, "Lughnasa" and "Helio Celtoi Furor" from 2004, and "Atenoux" from 2005.

This would be the repress of the Satanic Terror Organisation compilation, originally out on tape in 2006.

The solo project of S.S.M.G. (The True Beltron, Dunkelheim, Kraah Dunum), an elusive artist from Germany's fertile late 90's to early 00's scene, Heidentum plays furious, warmongering Pagan Black Metal in the veins of that era of wrath and pride. Honoring the Germanic tribes, their heritage, and the might of Odin, Heidentum delivered excellent heathen strife, following on a similar tradition to many Central European hordes such as Graveland or compatriots in Mjölnir, Absurd, Flammentod, etc., delivered with primitive, stoic honor, and excellently layered with belligerent drums, mystical keys and various vocal registers from cold, hateful screams to epic clean chants similar to Martial Neofolk classics, while delivering the guitars in a very atmospheric, blizzard-like manner, resembling the likes of Hate Forest or the Blazebirth Hall bands.

A real gem and true example of primeval Central European Pagan BM brimming with real, unabashed spirit, vision and dedication.

Released on CD via the legendary Final Agony Records.[/more]

[more=Technical info]
Input File: 1-02 Thronhymne.mp3
Channels : 2
Sample Rate : 44100
Precision : 16-bit
Duration : 00:06:24.03 = 16935547 samples = 28802 CDDA sectors
File Size : 15.6M
Bit Rate : 325k
Sample Encoding: MPEG audio (layer I, II or III)
Comments :
Title=Thronhymne
Artist=Heidentum
Album=Rest In Battle
Tracknumber=02/18
Year=2023
Genre=Black Metal
Discnumber=1/1

[/more]

Register
(12) artscald, Carcharoth, Grev, Ildjarn, kim666, supremo, thenecromancer, VALERY, vasiljev_sergej, Wail, Weikai, wreak,
Nov 15 2023, 07:42:04 Brakel - Akelven [demo] (2022)


*Artist: Brakel
*Album: Akelven [demo]
*Year: 2022
*Genre: Raw Black Metal
*Country: Belgium
*Format: mp3@VBR260kbps
*Size: 63MB

Tracklist:
1. Le Chemin Trempé 03:22
2. Wanneer Dit Hoofd 02:11
3. Nooddrult 02:52
4. Le Soleil 04:42
5. Februarie 03:38
6. La Fontaine 01:55
7. Tranendeer 03:29
8. Le Cygne 02:33
9. Komt Nu De Tijd 08:28
******************************
Total playing time: 33:10



[more=Extended info]Final Agony Records

Debut demo from this new putrid act of belgian lands.
Absolutely vile and degrading mixture between haunted Dark Ambient, demented and old school Raw Black Metal, and hateful Power Electronics.

Tape-rip by Zero[/more]

[more=Technical info]
Input File: 1-04 Le Soleil.mp3
Channels : 2
Sample Rate : 44100
Precision : 16-bit
Duration : 00:04:41.10 = 12396642 samples = 21082.7 CDDA sectors
File Size : 9.30M
Bit Rate : 265k
Sample Encoding: MPEG audio (layer I, II or III)
Comments :
Title=Le Soleil
Artist=Brakel
Album=Akelven
Tracknumber=04/9
Year=2022
Genre=Black Metal, Power Electronics
Discnumber=1/1

[/more]

Register
(7) artscald, Carcharoth, Grev, kim666, vasiljev_sergej, Weikai, wreak,
Nov 15 2023, 06:36:21 Swampbeast - Seven Evils Spawned Of Seven Heads (2021)
Register

Register
(1) wreak,
Nov 13 2023, 22:24:47 Bhleg - Ödhin (2021)
Register

Register
(1) Wail,
Nov 13 2023, 21:44:18 White Nights - Solanaceae [ep] (2021)
Register

Register
(1) Wail,
Nov 12 2023, 16:20:24 Anachitis - The Sorcerer's Sorrow (2020)
Register

Register
(2) kimkayoung, wreak,
Nov 12 2023, 15:22:42 Funeral Procession - Funeral Procession (2006)
Register

Register


00. Under A Funeral Moon (Darkthrone cover) (05:03) hidden track
01. Heavenlie Aeons Grimlie Torne Apart (06:39)
02. When Moonshine Is The Only Light (05:23)
03. Beholde The Stars Fall From The Heavens (01:59)
04. Bloode Of The Elder (Building The Anti-Kosmos) (07:21)
05. Doom (03:11)
06. The Death Empire On Burial Ground Pt. I (05:59)
07. The Death Empire On Burial Ground Pt. II (01:36)
08. Millennium Of Revenge / Jerusalem In Ashes (10:55)


(1) rimfrost,
Nov 12 2023, 13:07:49 Lucifugum - Infernalistica (2018)
Register

Register
(4) acerbus, sacrut, thenecromancer, wreak,
Nov 12 2023, 13:04:10 Sanctus Hexe - Unholy Cult (2020)
Register

Register

CD-rip
(1) Lucju,
Nov 12 2023, 12:30:16 Lucifugum - Tri Nity Limb Ritual (2020)
Register

Register

(2) acerbus, wreak,
Nov 12 2023, 12:23:45 Anguis Dei - Angeist (2021)
Register

Register

CD-Rip
(2) kimkayoung, wreak,
Nov 12 2023, 03:49:50 Mightiest & Funeral Procession - Of Deathfires, A Tomb & The Night Without End [split] (2022)
Register

Register

(2) Velkaarn, wreak,
Nov 12 2023, 03:10:57 Khashm - Serpents Of Death (2013)
Register
(2) milosdjor, obituarydark,
Nov 12 2023, 03:09:03 Circle Of Ouroborus - Old Ghosts [compilation] (2009)
Register
(3) gadyakhrenova, kim666, kimkayoung,

192 Pages V   1 2 3 > » 
- Lo-Fi Version Support form
Copyrights and abuse reports form
Time is now: 1st March 2024 - 11:25:52