Welcome Guest ( Log In | Register )

История благодарностей участнику lestllk ::: Спасибо сказали: 55282 раз(а)
Дата поста: В теме: За сообщение: Спасибо сказали:
Jul 25 2021, 16:25:04 Lamentaciones - Memorias (2018)
Register

mp3@CBR320kbps
(2) aleon, wreak,
Jul 25 2021, 16:23:43 Saor - Forgotten Paths (2019)
Register

mp3@CBR320kbps
(1) metamfer,
May 28 2021, 22:52:55 Torqverem - Vber Crvciatvs (2011)
Register

mp3@CBR256kbps
CD-RIP
(2) varlam4, wendigo,
May 26 2021, 07:41:37 Stoft - Nihil [demo] (2012)


*Artist: Stoft
*Album: Nihil [demo]
*Year: 2012
*Genre: Raw Black Metal
*Country: Sweden
*Format: mp3@CBR192kbps
*Size: 32MB

Tracklist:
1. Nihil 14:15
2. Tall Grass 08:20
******************************
Total playing time: 22:35

[more=Extended info]Private release
Cassette limited to 16 copies

Improvised and recorded during the summer of MMXII with an analog 4 tracker.[/more]

[more=Technical info]
Input File: 01 - Nihil.mp3
Channels : 2
Sample Rate : 44100
Precision : 16-bit
Duration : 00:14:15.26 = 37717142 samples = 64144.8 CDDA sectors
File Size : 20.5M
Bit Rate : 192k
Sample Encoding: MPEG audio (layer I, II or III)
Comments :
Title=Nihil
Artist=Stoft
Album=Nihil
Tracknumber=01

[/more]

Register
(10) Ildjarn, kim666, Olethros, sacrut, SilentNidhogg, Sjelekval, Svafrlami, varlam4, vasiljev_sergej, wreak,
May 26 2021, 07:28:12 Ováte - Ováte (2018)
Register

mp3@CBR320kbps
(2) varlam4, Wail,
May 26 2021, 07:26:26 Nortt - Endeligt (2017)
Register

mp3@CBR320kbps
(3) Occultas, varlam4, Wail,
May 26 2021, 07:23:16 FDS - Nagranie Z Muzyką Naiwną (2011)
Register

mp3@CBR320kbps
(3) kim666, varlam4, wreak,
May 26 2021, 06:40:46 Wilted - Echoes In My Mind (2011)
Register

mp3@CBR320kbps
(3) kim666, morte, varlam4,
May 26 2021, 06:25:17 Lascowiec - Unbroken Spirit (2011)
Register


Unbroken Spirit (Re-issue 2012)

MP3@CBR320kbps (CD-rip) + Covers | 109 MB
(1) thenecromancer,
May 26 2021, 06:10:49 Ringarë - Sorrow Befell [demo] (2020)
Register

mp3@CBR320kbps
(1) Occultas,
Feb 19 2021, 03:15:39 Dauþuz & Schattenvald & Rimruna & Nemesis Sopor - Quintessenz [split] (2020)


*Artist: Dauþuz & Schattenvald & Rimruna & Nemesis Sopor
*Album: Quintessenz [split]
*Year: 2020
*Genre: Black Metal | Black Metal | Black Metal | Black Metal
*Country: Germany | Germany | Germany | Germany
*Format: mp3@CBR320kbps
*Size: 112MB

Tracklist:
Dauþuz:
1. Erþæ 08:57
Rimruna:
2. Winterreigen 14:04
Schattenvald:
3. Wenn der Blutdunst von den Zinnen weht 13:12
Nemesis Sopor:
4. Demiurg 11:21
******************************
Total playing time: 47:34




[more=Extended info]Our take on the classical notion of the four elements, with every band telling a tale that is connected to a specific element.

Vinyl released by Schattenpfade.[/more]

[more=Technical info]
Input File: 1. Dauþuz - Erþæ.mp3
Channels : 2
Sample Rate : 44100
Precision : 16-bit
Duration : 00:08:52.09 = 23465213 samples = 39906.8 CDDA sectors
File Size : 22.0M
Bit Rate : 331k
Sample Encoding: MPEG audio (layer I, II or III)
Comments :
Title=Erþæ
Artist=Dauþuz
Album=Quintessenz
Tracknumber=1
Year=2020

[/more]

Register
(33) Boozer, craP_cillA, dagger666, DrStan, Druidir, El_Chibo, Geisteswaffe, Golodomor, grimoir, Hell_Is_Here, Ildjarn, infiltrator, Kazoth, kim666, Kvlt, Lanceatum, murian, NachtWulf, nemx, Ostinato, randumbum, satanist666, SilentNidhogg, smysl, squall8fr, Storky, Taakeferd, thenecromancer, VALERY, varlam4, vasiljev_sergej, vovenom, wreak,
Jan 24 2021, 04:19:57 Profane Creation - Prelude To The Dark Side [best of/compilation] (2013)
Register

mp3@VBR250kbps
(2) Occultas, stumpheavyrock,
Jan 24 2021, 04:15:07 Tyranny - The Demise Of A Hymn: Part Two (2018)
Register

mp3@VBR267kbps
(1) kimkayoung,
Jan 23 2021, 18:43:59 Alpgeist - Bergteufel Und Waldgeister [ep] (2020)


*Artist: Alpgeist
*Album: Bergteufel Und Waldgeister [ep]
*Year: 2020
*Genre: Atmospheric Black Metal
*Country: Germany
*Format: mp3@CBR320kbps
*Size: 48MB

Tracklist:
1. Bergteufel und Waldgeister 20:30
******************************
Total playing time: 20:30




[more=Extended info]Dominance of Darkness Records[/more]

[more=Technical info]
Input File: 1. Bergteufel und Waldgeister.mp3
Channels : 2
Sample Rate : 44100
Precision : 16-bit
Duration : 00:20:30.12 = 54248380 samples = 92259.1 CDDA sectors
File Size : 49.6M
Bit Rate : 323k
Sample Encoding: MPEG audio (layer I, II or III)
Comments :
Title=Bergteufel und Waldgeister
Artist=Alpgeist
Album=Bergteufel und Waldgeister
Tracknumber=1
Year=2020

[/more]

Register
(24) blacky66, djsema4, Dr.Grind Oim, El_Chibo, infiltrator, kim666, Korpse, murian, Olethros, Ostinato, randumbum, Razorbladeswaltz, robertho777, Rosen, satanist666, sergsazan, SileniusLegard, sludge666, squall8fr, Taakeferd, VALERY, varlam4, vasiljev_sergej, wreak,
Jan 23 2021, 18:38:34 Drudensang - Rauhnachtszeremonie [live] (2020)


*Artist: Drudensang
*Album: Rauhnachtszeremonie [live]
*Year: 2020
*Genre: Black Metal
*Country: Germany
*Format: mp3@CBR320kbps
*Size: 123MB

Tracklist:
1. Prolog - Fäulnis 07:53
2. Metamorphose 04:11
3. Sterbelicht 07:19
4. Todesstoß 05:33
5. Parasit 06:10
6. Todgeweiht 09:02
7. Geistes Fluch 05:04
8. Watzmannsage - Epilog 07:55
******************************
Total playing time: 53:07




[more=Extended info]Dominance of Darkness Records

Recorded live at Iron Eagle, Lugau in 2018.
Mixed and mastered at Soundtempel Studio.[/more]

[more=Technical info]
Input File: 1. Prolog - Fäulnis.mp3
Channels : 2
Sample Rate : 44100
Precision : 16-bit
Duration : 00:07:53.10 = 20863842 samples = 35482.7 CDDA sectors
File Size : 19.0M
Bit Rate : 321k
Sample Encoding: MPEG audio (layer I, II or III)
Comments :
Title=Prolog - Fäulnis
Artist=Drudensang
Album=Rauhnachtszeremonie
Tracknumber=1
Year=2020

[/more]

Register
(17) Dr.Grind Oim, Geisteswaffe, Hell_Is_Here, infiltrator, Knorkator666, Marek, Occultas, Olethros, Rosen, smysl, Taakeferd, undeadlich, VALERY, varlam4, vasiljev_sergej, Vidder242, wreak,
Jan 11 2021, 04:46:37 Kêres - Xxi/Xxii/Xxiii [compilation] (2020)


*Artist: Kêres
*Album: Xxi/Xxii/Xxiii [compilation]
*Year: 2020
*Genre: Black Metal
*Country: Finland
*Format: mp3@VBR240kbps
*Size: 69MB

Tracklist:
1. Bones from the Well
2. Fall to the Underworld
3. Back Together
4. Future Shadow
5. Lost to the Jaws of Time
6. Luniolatry
7. Calaeno's Arms
8. A Beast Dies
9. Suomujen syleilyyn
10. Salaisuus sisimassa
11. Surman siemen
******************************
Total playing time: 39:45

[more=Extended info]Tracks A1-A3 from Lies From The Gutter Demo XXI
Tracks A4-B2 from Hearse To The Church Demo XXII
Tracks B3-B5 from Sumuksi Syvyyteen Demo XXIII


Satanik Requiem
Co-released with Vermines Pestifera.[/more]

[more=Technical info]
Input File: 04 Future Shadow.mp3
Channels : 2
Sample Rate : 44100
Precision : 16-bit
Duration : 00:02:27.54 = 6506470 samples = 11065.4 CDDA sectors
File Size : 4.73M
Bit Rate : 257k
Sample Encoding: MPEG audio (layer I, II or III)
Comments :
Title=Future Shadow
Artist=Kêres
Album=XXI / XXII / XXIII
Tracknumber=4
Year=2020
Genre=Black Metal
Discnumber=1/1

[/more]

Register
(31) ambre, andivi, El_Chibo, ent404, foreverisforgotten, FUDEDOR, Hell_Is_Here, Ildjarn, infiltrator, kim666, Moonshtook, Namnlos, Olethros, Ostinato, Premature_Devotion, randumbum, rimfrost, robertho777, Rosen, sacrut, satanist666, SilentNidhogg, supremo, Taakeferd, VALERY, varlam4, vasiljev_sergej, Vidder242, Wail, wreak, ZambuL,
Jan 11 2021, 04:41:05 Aym - Buried, Forgotten [demo] (2019)


*Artist: Aym
*Album: Buried, Forgotten [demo]
*Year: 2019
*Genre: Black Metal
*Country: Finland
*Format: mp3@VBR265kbps
*Size: 27MB

Tracklist:
1. I
2. II
3. III
******************************
Total playing time: 14:04

[more=Extended info]Gramschap

Tape-rip by Zero[/more]

[more=Technical info]
Input File: 01 I.mp3
Channels : 2
Sample Rate : 44100
Precision : 16-bit
Duration : 00:04:10.64 = 11053400 samples = 18798.3 CDDA sectors
File Size : 8.68M
Bit Rate : 277k
Sample Encoding: MPEG audio (layer I, II or III)
Comments :
Title=I
Artist=AYM
Album=Buried, Forgotten
Tracknumber=1/3
Year=2019
Genre=Black Metal
Discnumber=1/1

[/more]

Register
(19) ambre, ent404, Hell_Is_Here, infiltrator, kim666, Olethros, Ostinato, randumbum, Rosen, satanist666, SilentNidhogg, Storky, Taakeferd, thenecromancer, VALERY, varlam4, vasiljev_sergej, Wail, wreak,
Jan 11 2021, 04:34:41 Moraš - Clandescent Ceremonies In Obeisance To The Unsung [compilation] (2020)


*Artist: Moraš
*Album: Clandescent Ceremonies In Obeisance To The Unsung [compilation]
*Year: 2020
*Genre: Black Metal
*Country: Finland
*Format: mp3@VBR260kbps
*Size: 135MB

Tracklist:
1. Gateway to Cessation
2. Evoking The Unhuman Entities
3. Languishing In Depths of Sorrow
4. Caged In Flesh
5. Mourning
6. Untitled
7. Untitled
8. Untitled
9. Untitled
10. Untitled
11. Lair Of The Inanimated
12. Soulless Watchers
13. Binded Into Eternity
14. Untitled
15. Untitled
16. Untitled
******************************
Total playing time: 1:12:12

[more=Extended info]Archaic Memories
2 × Cassette, Compilation, Limited Edition, Reissue

x2 Pro tapes inclusing demos Manifest Death and Gaze of the Void plus material taken from split with UVSS and the Ossuary Vol.1 compilation and some unreleaed material.

Tape-rip by Zero[/more]

[more=Technical info]
Input File: 03 Languishing In Depths Of Sorrow.mp3
Channels : 2
Sample Rate : 44100
Precision : 16-bit
Duration : 00:05:47.72 = 15334232 samples = 26078.6 CDDA sectors
File Size : 12.5M
Bit Rate : 289k
Sample Encoding: MPEG audio (layer I, II or III)
Comments :
Title=Languishing In Depths Of Sorrow
Artist=Moraš
Album=Clandescent Ceremonies In Obeisance To The Unsung
Tracknumber=3/16
Year=2020
Genre=Black Metal
Discnumber=1/1

[/more]

Register
(24) ambre, El_Chibo, foreverisforgotten, heinz88, Hell_Is_Here, infiltrator, kim666, Olethros, Ostinato, randumbum, Reverend, Rosen, sacrut, satanist666, SilentNidhogg, smysl, supremo, Taakeferd, VALERY, varlam4, vasiljev_sergej, Wail, wreak, Zaephar,
Jan 11 2021, 04:27:32 Black Spirit - In A Vortex To The Infinite Night/Behind The Light That Fades [compilation] (2019)


*Artist: Black Spirit
*Album: In A Vortex To The Infinite Night/Behind The Light That Fades [compilation]
*Year: 2019
*Genre: Black Metal
*Country: Spain
*Format: mp3@VBR285kbps
*Size: 75MB

Tracklist:
1. On the Threshold of Unconsciousness
2. In Vortex to Infinite Blackness
3. A Terrifying Mystery Underlies
4. Night Without Origin or End
5. Behind the Light That Fades
6. The Descent
7. The White Dyed Black
8. Mystical Infinity
******************************
Total playing time: 36:01

[more=Extended info]Signal Rex

Side A was originally released as the In A Vortex To The Infinite Night demo cassette.
Side B was originally released as the Behind The Light That Fades demo cassette.

Vinyl-rip by Zero[/more]

[more=Technical info]
Input File: 03 A Terrifying Mystery Underlies.mp3
Channels : 2
Sample Rate : 44100
Precision : 16-bit
Duration : 00:05:01.82 = 13310174 samples = 22636.4 CDDA sectors
File Size : 11.7M
Bit Rate : 310k
Sample Encoding: MPEG audio (layer I, II or III)
Comments :
Title=A Terrifying Mystery Underlies
Artist=Black Spirit
Album=In A Vortex To The Infinite Night / Behind The Light That Fades
Tracknumber=03/8
Year=2019
Genre=Black Metal
Discnumber=1/1

[/more]

Register
(23) Bzth, dvlz, El_Chibo, foreverisforgotten, Hell_Is_Here, infiltrator, kim666, Occultas, Olethros, Ostinato, randumbum, Rosen, sacrut, satanist666, SilentNidhogg, Storky, supremo, Taakeferd, VALERY, varlam4, vasiljev_sergej, Wail, wreak,
Jan 11 2021, 04:21:12 Torpefied Bloodlust - Promo 2020 [demo] (2020)


*Artist: Torpefied Bloodlust
*Album: Promo 2020 [demo]
*Year: 2020
*Genre: Raw Black Metal
*Country: Unknown
*Format: mp3@CBR320kbps
*Size: 21MB

Tracklist:
1. I
2. II
3. III
4. IV
******************************
Total playing time: 9:08



[more=Extended info]Debut demo from this mysterious project.
Raw Black Metal with a Death Metal edge to it, although drenched with filth and grime.

Released on CDr via Death's Radiance.

CD-rip[/more]

[more=Technical info]
Input File: 02 II.mp3
Channels : 2
Sample Rate : 44100
Precision : 16-bit
Duration : 00:02:26.59 = 6464443 samples = 10994 CDDA sectors
File Size : 5.95M
Bit Rate : 325k
Sample Encoding: MPEG audio (layer I, II or III)
Comments :
Title=II
Artist=Torpefied Bloodlust
Album=Promo 2020
Tracknumber=02/4
Year=2020
Genre=Black Metal
Discnumber=1/1

[/more]

Register
(13) infiltrator, Olethros, Ostinato, randumbum, Rosen, satanist666, smysl, Taakeferd, VALERY, varlam4, vasiljev_sergej, Wail, wreak,
Jan 11 2021, 04:14:45 Gruesomealtar - Beast Ferocious With Hunger [demo] (2020)


*Artist: Gruesomealtar
*Album: Beast Ferocious With Hunger [demo]
*Year: 2020
*Genre: Raw Black Metal
*Country: United States
*Format: mp3@VBR270kbps
*Size: 14MB

Tracklist:
1. Untitled 00:49
2. Untitled 01:49
3. Untitled 02:35
4. Untitled 02:20
******************************
Total playing time: 7:33



[more=Extended info]Spiritual Disease

Gnarly Black Metal of Death, with definite Punk-ish traits, somewhat in the vein of Beherit, Necromonarchia Daemonum , Baphomancia, Bestial Summoning, etc,
Crushing sound reeking of filth and rot.

Tape-rip by Zero[/more]

[more=Technical info]
Input File: 02 Untitled.mp3
Channels : 2
Sample Rate : 44100
Precision : 16-bit
Duration : 00:01:46.74 = 4707058 samples = 8005.2 CDDA sectors
File Size : 3.84M
Bit Rate : 288k
Sample Encoding: MPEG audio (layer I, II or III)
Comments :
Title=Untitled
Artist=Gruesomealtar
Album=Beast Ferocious With Hunger
Tracknumber=02/4
Year=2020
Genre=Black Metal
Discnumber=1/1

[/more]

Register
(19) Alexis The Best, Bzth, CannibalGluttony, Hell_Is_Here, infiltrator, Olethros, Ostinato, randumbum, Rosen, sacrut, satanist666, SilentNidhogg, smysl, Taakeferd, VALERY, varlam4, vasiljev_sergej, Wail, wreak,
Jan 11 2021, 04:10:53 Absolute Key - My Mortal Share/The Towers [ep] (2020)


*Artist: Absolute Key
*Album: My Mortal Share/The Towers [ep]
*Year: 2020
*Genre: Experimental Black Metal/Industrial/Ambient/Drone
*Country: Finland
*Format: mp3@VBR240kbps
*Size: 18MB

Tracklist:
1. My Mortal Share
2. The Towers
******************************
Total playing time: 9:53



[more=Extended info]Music By: Antti Klemi
See also: Circle of Ouroborus, Mental Terror, Absava


"My Mortal Share / Towers", a seven inch EP by an obscure black metal/noise/industrial artist, Absolute Key, is the work of a sick man. Ridden with a blood disease, A. Klemi, the sole member of the band, faced the gates of the unknown last Autumn, and from those experiences this EP was born.

"My Mortal Share", a mid-tempo piece full of the dirtiest screeches and ethereal wails somewhere between industrial and Summoning, paints a vision of a prisoner: where are the boundaries of our physical and spiritual existence, and is it possible to break these chains in the pressure of the overwhelming universe?

B-side "Towers" is a soundscape of Above and Below, a man's never ending quest for truth and rebellion. How can we rip the heavens apart when our hands are tied by our own materialism? Musically Towers is a more abstract piece of work, combining slow rhythms, religious sound imagery and agonizing screams – being a modern psalm, perhaps?


Vinyl-rip by Zero[/more]

[more=Technical info]
Input File: 01 My Mortal Share.mp3
Channels : 2
Sample Rate : 44100
Precision : 16-bit
Duration : 00:05:30.42 = 14571610 samples = 24781.6 CDDA sectors
File Size : 9.59M
Bit Rate : 232k
Sample Encoding: MPEG audio (layer I, II or III)
Comments :
Title=My Mortal Share
Artist=Absolute Key
Album=My Mortal Share//The Towers
Tracknumber=01/2
Year=2020
Genre=Black Metal, Industrial, Ambient, Drone
Discnumber=1/1

[/more]

Register
(19) Boozer, ent404, Hell_Is_Here, infiltrator, kimkayoung, Olethros, Ostinato, randumbum, Rosen, SilentNidhogg, smes, Taakeferd, VALERY, varlam4, vasiljev_sergej, Vitald, vlad74, Wail, wreak,
Jan 11 2021, 04:03:22 Vestibulum Vacuüi - Gezalfd In Gal [demo] (2015)


*Artist: Vestibulum Vacuüi
*Album: Gezalfd In Gal [demo]
*Year: 2015
*Genre: Atmospheric Black Metal
*Country: Netherlands
*Format: mp3@VBR242kbps
*Size: 22MB

Tracklist:
1. Gal I 04:03
2. Gal II 02:35
3. Zalving I 02:39
4. Zalving II 03:16
******************************
Total playing time: 12:33

[more=Extended info]The Throat

Tape-rip by Zero[/more]

[more=Technical info]
Input File: 01 Gal I.mp3
Channels : 2
Sample Rate : 44100
Precision : 16-bit
Duration : 00:04:01.08 = 10631804 samples = 18081.3 CDDA sectors
File Size : 7.28M
Bit Rate : 242k
Sample Encoding: MPEG audio (layer I, II or III)
Comments :
Title=Gal I
Artist=Vestibulum Vacuüi
Album=Gezalfd In Gal
Tracknumber=01/4
Year=2015
Genre=Black Metal
Discnumber=1/1

[/more]

Register
(18) Alexis The Best, Hell_Is_Here, infiltrator, kim666, Olethros, Ostinato, randumbum, robertho777, Rosen, sacrut, satanist666, SilentNidhogg, Taakeferd, VALERY, varlam4, vasiljev_sergej, Wail, wreak,
Jan 11 2021, 03:52:01 Ghriéving - 2017/2019 Discography [compilation] (2019)


*Artist: Ghriéving
*Album: 2017/2019 Discography [compilation]
*Year: 2019
*Genre: Black Metal
*Country: Venezuela
*Format: mp3@CBR320kbps
*Size: 160MB

Tracklist:
1. Spiritual Arsonism (Pt I)
2. Fvoreliturgiae
3. Πιστεύομεν
4. Speech Of His Envoy
5. The Simonic Coven
6. Crvrifragivm Woe Cathedral
7. Mental Sigil Esoterica
8. Voertigina (Channelization)
9. Oath Of Nervous Paroxysm
10. As The Waxing Moon Became An Egregor...
11. ... And The Sun Becomes Spectral...
******************************
Total playing time: 1:09:45

[more=Extended info]Vigor Deconstruct

CD-rip[/more]

[more=Technical info]
Input File: 04 Speech Of His Envoy.mp3
Channels : 2
Sample Rate : 44100
Precision : 16-bit
Duration : 00:05:13.69 = 13833861 samples = 23527 CDDA sectors
File Size : 12.8M
Bit Rate : 327k
Sample Encoding: MPEG audio (layer I, II or III)
Comments :
Title=Speech Of His Envoy
Artist=Ghriéving
Album=2017/2019 Discography
Tracknumber=04/11
Year=2019
Discnumber=1/2

[/more]

Register
(18) El_Chibo, foreverisforgotten, infiltrator, kim666, Olethros, Ostinato, randumbum, Rosen, sacrut, satanist666, Storky, supremo, Taakeferd, VALERY, varlam4, vasiljev_sergej, Wail, wreak,
Jan 11 2021, 03:48:16 Malthusian Kommand - Demo Mmxx [demo] (2020)


*Artist: Malthusian Kommand
*Album: Demo Mmxx [demo]
*Year: 2020
*Genre: Raw Black Metal
*Country: United States
*Format: mp3@CBR320kbps
*Size: 28MB

Tracklist:
1. I 03:04
2. II 02:21
3. III 03:10
4. IV 03:08
******************************
Total playing time: 11:43



[more=Technical info]
Input File: 02 II.mp3
Channels : 2
Sample Rate : 44100
Precision : 16-bit
Duration : 00:02:41.92 = 7140452 samples = 12143.6 CDDA sectors
File Size : 6.55M
Bit Rate : 324k
Sample Encoding: MPEG audio (layer I, II or III)
Comments :
Title=II
Artist=Malthusian Kommand
Album=DEMO MMXX
Tracknumber=2
Year=2020

[/more]

Register
(20) Alexis The Best, Cramloth, Hell_Is_Here, infiltrator, kim666, nemx, Olethros, randumbum, Rosen, sacrut, satanist666, SilentNidhogg, Storky, Taakeferd, VALERY, varlam4, vasiljev_sergej, Wail, WOLAND, wreak,

177 Pages V   1 2 3 > » 
- Lo-Fi Version Support form
Copyrights and abuse reports form
Time is now: 28th July 2021 - 17:16:00