Welcome Guest ( Log In | Register )

История благодарностей участнику lestllk ::: Спасибо сказали: 55034 раз(а)
Дата поста: В теме: За сообщение: Спасибо сказали:
Jan 4 2021, 01:08:07 Askeregn & Kêres - Askeregn/Kêres [split] (2019)


*Artist: Askeregn & Kêres
*Album: Askeregn/Kêres [split]
*Year: 2019
*Genre: Black Metal | Black Metal
*Country: Norway | Finland
*Format: mp3@VBR270kbps
*Size: 28MB

Tracklist:
Askeregn:
1. Fra avgrunnens rumlende dyp 06:27
Kêres:
2. Forging the Forbidden Stone 07:17
******************************
Total playing time: 13:44

[more=Extended info]Terratur Possessions

Vinyl-rip by Zero[/more]

[more=Technical info]
Input File: 01 Fra Avgrunnens Rumlende Dyp.mp3
Channels : 2
Sample Rate : 44100
Precision : 16-bit
Duration : 00:06:27.79 = 17101407 samples = 29084 CDDA sectors
File Size : 13.3M
Bit Rate : 275k
Sample Encoding: MPEG audio (layer I, II or III)
Comments :
Title=Fra Avgrunnens Rumlende Dyp
Artist=Askeregn
Album=Askeregn / Kêres
Tracknumber=01/2
Year=2019
Genre=Black Metal
Discnumber=1/1

[/more]

Register
(28) Boozer, cancer1974, El_Chibo, Hell_Is_Here, Ildjarn, IncendiaryMight, infiltrator, kim666, kryptor, Lanceatum, MorsPulchra, Namnlos, Ostinato, randumbum, robertho777, Rosen, satanist666, SilentNidhogg, Sjelekval, Taakeferd, undeadlich, VALERY, varlam4, vasiljev_sergej, Vidder242, Wail, wreak, ZA670,
Jan 4 2021, 01:01:52 Effroi & Crypts Of Wallachia - Black Riders From Outer Darkness/Woeful Gleam Upon Snowy Stronghold [split] (2020)


*Artist: Effroi & Crypts Of Wallachia
*Album: Black Riders From Outer Darkness/Woeful Gleam Upon Snowy Stronghold [split]
*Year: 2020
*Genre: Black Metal | Black Metal
*Country: Belgium | Belgium
*Format: mp3@VBR280kbps
*Size: 24MB

Tracklist:
Effroi:
1. Black Riders from Outer Darkness 06:05
Crypts of Wallachia:
2. Woeful Gleam upon Snowy Stronghold 05:38
******************************
Total playing time: 11:43



[more=Extended info]Medieval Prophecy Records

Vinyl-rip by Zero[/more]

[more=Technical info]
Input File: 01 Black Riders From Outer Darkness.mp3
Channels : 2
Sample Rate : 44100
Precision : 16-bit
Duration : 00:06:05.22 = 16106070 samples = 27391.3 CDDA sectors
File Size : 12.7M
Bit Rate : 278k
Sample Encoding: MPEG audio (layer I, II or III)
Comments :
Title=Black Riders From Outer Darkness
Artist=Effroi
Album=Black Riders From Outer Darkness/ Woeful Gleam Upon Snowy Stronghold
Tracknumber=01/2
Year=2020
Genre=Black Metal
Discnumber=1/1

[/more]

Register
(24) Boozer, dermarsoran, El_Chibo, Hell_Is_Here, igore2911, Ildjarn, infiltrator, kim666, MushroomGoat, Ostinato, rammmirez, randumbum, Rosen, satanist666, SilentNidhogg, stormhatt, Taakeferd, undeadlich, VALERY, varg-38ru, varlam4, vasiljev_sergej, Wail, wreak,
Jan 4 2021, 00:55:45 Wandelaars - Het Gloren Van De Dooi [ep] (2017)


*Artist: Wandelaars
*Album: Het Gloren Van De Dooi [ep]
*Year: 2017
*Genre: Atmospheric Black Metal
*Country: Netherlands
*Format: mp3@CBR320kbps
*Size: 94MB

Tracklist:
1. Het gloren van de dooi 06:24
2. Untitled 03:20
3. Untitled 04:17
4. Callisto en Arlas 10:34
******************************
Total playing time: 24:35



[more=Extended info]Consistentis Veritatis Peremptoria


Tape-rip + Scans[/more]

[more=Technical info]
Input File: 01-04. Het Gloren Van De Dooi.mp3
Channels : 2
Sample Rate : 48000
Precision : 16-bit
Duration : 00:06:36.80 = 19046160 samples ~ 29759.6 CDDA sectors
File Size : 16.2M
Bit Rate : 327k
Sample Encoding: MPEG audio (layer I, II or III)
Comments :
Title=Het Gloren Van De Dooi
Artist=Wandelaars
Album=Het Gloren Van De Dooi
Tracknumber=01/04
Year=2017
Genre=Black Metal

[/more]

Register
(21) El_Chibo, foreverisforgotten, infiltrator, kim666, Marek, Olethros, Ostinato, randumbum, robertho777, Rosen, satanist666, sergsazan, SileniusLegard, SilentNidhogg, Taakeferd, Tyrone, VALERY, varlam4, vasiljev_sergej, Wail, wreak,
Jan 4 2021, 00:51:41 Raio Negro - Galactic Portals Of The 7 Infernal Suns [ep] (2020)


*Artist: Raio Negro
*Album: Galactic Portals Of The 7 Infernal Suns [ep]
*Year: 2020
*Genre: Dark Ambient
*Country: Portugal
*Format: mp3@CBR320kbps
*Size: 46MB

Tracklist:
A1. 1st Portal Of The Blacksun
A2. 2nd Portal Of The Blacksun
A3. 3rd Portal Of The Blacksun
A4. 4th Portal Of The Blacksun
A5. 5th Portal Of The Blacksun
A6. 6th Portal Of The Blacksun
A7. 7th Portal Of The Blacksun
B1. Stellar Sorrow And Blood Raining
B2. The King Of Thule Dancing At The Center Of The Black Sun
******************************
Total playing time: 20:31

[more=Extended info]ASRAR ‎– ASR093


Hyperborean Madness

This is the first concept album by Raio Negro.
9 ambient chants honoring the King.
Stellar Blood and Sorrow.[/more]

[more=Technical info]
Input File: 01 Side A.mp3
Channels : 2
Sample Rate : 48000
Precision : 16-bit
Duration : 00:13:43.68 = 39536640 samples ~ 61776 CDDA sectors
File Size : 33.3M
Bit Rate : 323k
Sample Encoding: MPEG audio (layer I, II or III)
Comments :
Title=Side A
Artist=Raio Negro
Album=Galactic Portals Of The 7 Infernal Suns
Tracknumber=01
Year=2020
Genre=Dark Ambient

[/more]

Register
(5) Alexis The Best, fylopaloma, gena, infiltrator, Olethros,
Jan 4 2021, 00:43:57 Absolute Key - Puut Kantavat Valoa (2020)


*Artist: Absolute Key
*Album: Puut Kantavat Valoa
*Year: 2020
*Genre: Ambient/Drone/Experimental
*Country: Finland
*Format: mp3@VBR272kbps
*Size: 80MB

Tracklist:
1. Minä Näin Puun
2. Lepää Vain Unessa
3. Syyskesän Yöt
4. Ikävyys
5. Hyvä On Hiihtäjän Hiihdellä
6. Uusi Asiallisuuteni.
7. Unohtuneita Polkuja, Jotka Ovat Kasvaneet Umpeen
8. Puut Kantavat Valoa
******************************
Total playing time: 40:51




[more=Extended info]Tampereen levyt


Artwork By – Katri Siippainen
Mastered By – Jarno Alho
Music By – Antti Klemi[/more]

[more=Technical info]
Input File: 02 Lepää vain unessa.mp3
Channels : 2
Sample Rate : 44100
Precision : 16-bit
Duration : 00:04:35.83 = 12163927 samples = 20687 CDDA sectors
File Size : 9.48M
Bit Rate : 275k
Sample Encoding: MPEG audio (layer I, II or III)
Comments :
Title=Lepää vain unessa
Artist=Absolute Key
Album=Puut kantavat valoa
Tracknumber=02/8
Year=2020
Genre=Ambient, Drone, Experimental, Electro, Poetry
Discnumber=1/1

[/more]

Register
(10) Boozer, DHS, ent404, Hell_Is_Here, infiltrator, Occultas, Olethros, Premature_Devotion, smes, varlam4,
Dec 31 2020, 19:48:27 Decoherence - Unitarity (2020)
Register

mp3@CBR320kbps
(3) doomTemplar, obituarydark, wtk.412,
Dec 31 2020, 19:46:49 Eigenlicht - Self-Annihilating Consciousness (2018)
Register

mp3@CBR320kbps
(2) eternald, varlam4,
Dec 24 2020, 20:25:14 Onda Makter - The Misanthropic Blasphemy (2020)


*Artist: Onda Makter
*Album: The Misanthropic Blasphemy
*Year: 2020
*Genre: Black Metal
*Country: Sweden
*Format: mp3@CBR320kbps
*Size: 128MB

Tracklist:
1. Baptised in Styx 06:26
2. Mistress of the Moon 06:43
3. Keepers of the Black Flame 06:12
4. Burn Their Souls 08:14
5. Curse Me Father 09:37
6. Song of the Mourning 03:54
7. Heathen Hatred 08:16
8. Misanthropic Blasphemy 05:59
******************************
Total playing time: 55:21



[more=Technical info]
Input File: 02 Mistress of the Moon.mp3
Channels : 2
Sample Rate : 44100
Precision : 16-bit
Duration : 00:06:43.09 = 17776313 samples = 30231.8 CDDA sectors
File Size : 16.4M
Bit Rate : 325k
Sample Encoding: MPEG audio (layer I, II or III)
Comments :
Title=Mistress of the Moon
Artist=Onda Makter
Album=The Misanthropic Blasphemy
Tracknumber=2
Year=2020

[/more]

Register
(41) AlexSmith, atavist, craP_cillA, dermarsoran, El_Chibo, Hell_Is_Here, Ildjarn, IncendiaryMight, infernallord, infiltrator, Kabv, kim666, Legacy100, Marek, multizwilling, nsk2008, Occultas, older68, Olethros, Ostinato, peppuzzo, randumbum, rimfrost, robertho777, Rosen, SadistikSlayer, satanist666, SilentNidhogg, Sjelekval, smes, stub888, SyncestrA, thenecromancer, THROWER666, toly1917, VALERY, varg-38ru, varlam4, vasiljev_sergej, Wail, wreak,
Dec 14 2020, 01:26:58 Throane - Plus Une Main À Mordre (2017)
Register

mp3@CBR320kbps
(1) varlam4,
Dec 13 2020, 07:40:50 Eternal Majesty - Black Metal Excommunication (2020)


*Artist: Eternal Majesty
*Album: Black Metal Excommunication
*Year: 2020
*Genre: Black Metal
*Country: France
*Format: mp3@CBR320kbps
*Size: 70MB

Tracklist:
1. L'appel de Neptune / Éternelle Majesté 09:01
2. Excommunication 06:47
3. Les Damnés 04:14
4. L'aube sanglante 03:03
5. Aux Portes du Temple Noir 04:48
6. L'appel de Neptune (Part. II) 02:22
******************************
Total playing time: 30:15



[more=Extended info]Those Opposed Records[/more]

[more=Technical info]
Input File: 02 Excommunication.mp3
Channels : 2
Sample Rate : 44100
Precision : 16-bit
Duration : 00:06:48.08 = 17996372 samples = 30606.1 CDDA sectors
File Size : 16.6M
Bit Rate : 325k
Sample Encoding: MPEG audio (layer I, II or III)
Comments :
Title=Excommunication
Artist=Eternal Majesty
Album=Black Metal Excommunication
Tracknumber=2
Year=2020

[/more]

Register
(48) 1968_janeart, acerbus, alikkon, andivi, Antichrist, Bitchkiller, cancer1974, Daale, Daemoniacus, Dirt_ORFEY, El_Chibo, gena, Hell_Is_Here, Ildjarn, infiltrator, kim666, kimkayoung, korovakaska, Legacy100, MMMMM, multizwilling, nadin85, Olethros, Olrak, Ostinato, randumbum, ripper33, robertho777, Rosen, SaintVitus, sandr666, satanist666, SilentNidhogg, smes, smysl, stormhatt, stub888, supremo, thenecromancer, the_cleanser, toly1917, varlam4, vasiljev_sergej, veselchak_u, Vidder242, wreak, wtk.412, yuratroll,
Nov 30 2020, 01:35:00 Stiriah - Into The Depths (2020)


*Artist: Stiriah
*Album: Into The Depths
*Year: 2020
*Genre: Black Metal
*Country: Germany
*Format: mp3@CBR320kbps
*Size: 98MB

Tracklist:
1. The Water 08:51
2. The Sun 09:14
3. The Light Bearer 06:45
4. The Darkness 08:12
5. The Flesh 09:36
******************************
Total playing time: 42:38



[more=Technical info]
Input File: 01 The Water.mp3
Channels : 2
Sample Rate : 44100
Precision : 16-bit
Duration : 00:08:52.09 = 23465213 samples = 39906.8 CDDA sectors
File Size : 21.5M
Bit Rate : 324k
Sample Encoding: MPEG audio (layer I, II or III)
Comments :
Title=The Water
Artist=Stiriah
Album=Into the Dephts
Tracknumber=1
Year=2020

[/more]

Register
(27) 1968_janeart, deadterror, garml2, Hell_Is_Here, Ildjarn, infiltrator, kim666, Marek, Morgoth, multizwilling, nord6666, Olethros, Ostinato, peppuzzo, randumbum, rimfrost, robertho777, Rosen, satanist666, SilentNidhogg, stub888, VALERY, varlam4, vasiljev_sergej, Vitald, Wail, wreak,
Nov 30 2020, 01:29:05 Old Growth - Mossweaver (2020)


*Artist: Old Growth
*Album: Mossweaver
*Year: 2020
*Genre: Atmospheric Post-Black Metal
*Country: Germany
*Format: mp3@CBR320kbps
*Size: 125MB

Tracklist:
1.Old Growth
2.Oakenheart
3.Red Clouds video
4.The Seedling
5.Queen Of The Woodland Realm
6.Call Of The Night Spirit
7.Altar Of Wisdom
******************************
Total playing time: 53:40

Preview 1

[more=Extended info]Supreme Chaos Records

Shaman Animist creates a nature-inspired musical scenery of atmospheric black metal guiding you into wilderness and primal landscape. A breath taking, overwhelming piece of art.[/more]

[more=Technical info]
Input File: 3. Red Clouds.mp3
Channels : 2
Sample Rate : 44100
Precision : 16-bit
Duration : 00:07:02.08 = 18613860 samples = 31656.2 CDDA sectors
File Size : 17.2M
Bit Rate : 326k
Sample Encoding: MPEG audio (layer I, II or III)
Comments :
Title=Red Clouds
Artist=Old Growth
Album=Mossweaver
Tracknumber=3
Year=2020

[/more]

Register
(33) 1968_janeart, Buregon, ctulhudagon, Druidir, Fallen Soul, infernallord, infiltrator, Kayo_Erased, kim666, Kwaad, Lukittaz, MeatWolf, Morgoth, multizwilling, murayne, Olethros, Ostinato, pahail, randumbum, robertho777, Rosen, sergsazan, serjred, Shadechaser, SilentNidhogg, sludge666, The_Hound, VALERY, varlam4, vasiljev_sergej, vikt11, Wail, wreak,
Nov 21 2020, 21:17:23 Sargeras - Return Of The Dancing Whores (2020)
Register

mp3@CBR320kbps
(2) MortSathynr, thenecromancer,
Nov 21 2020, 20:22:43 Cancer - Opioid (2020)
Register

mp3@CBR320kbps
(1) dermarsoran,
Nov 21 2020, 20:17:18 Ov Shadows - I Djävulens Avbild (2020)
Register

mp3@CBR320kbps
(1) peppuzzo,
Nov 15 2020, 20:36:37 Akantha - Gnothi Seauton (2020)


*Artist: Akantha
*Album: Gnothi Seauton
*Year: 2020
*Genre: Black Metal
*Country: Greece
*Format: mp3@CBR320kbps
*Size: 75MB

Tracklist:
1. My Throne Is The Epicenter 05:16
2. Synergies (Skepsis, Logos, Praxis) 05:28
3. The Mystical Nyx 04:58
4. Anaclisis of a Threnody 05:18
5. Chasm 04:35
6. Spiralling Up the Cosmos 07:00
******************************
Total playing time: 32:35




[more=Extended info]His Wounds - NAIL018

Akantha are back with their 3rd Lp and we can say for sure that it is their best work so far.
90's Black Metal worship reminiscing the glory days of Judas Iscariot and Clandestine Blaze

33 minutes spread over 6 songs in a limited edition of 97copies on Gold vinyl exclusive to the band and His Wounds and 150 copies on Black vinyl
including a double sided insert

Cd and tape versions are available as well through New Era Productions[/more]

[more=Technical info]
Input File: 01 My Throne Is The Epicenter.mp3
Channels : 2
Sample Rate : 44100
Precision : 16-bit
Duration : 00:05:16.07 = 13938819 samples = 23705.5 CDDA sectors
File Size : 13.1M
Bit Rate : 331k
Sample Encoding: MPEG audio (layer I, II or III)
Comments :
Title=My Throne Is The Epicenter
Artist=Akantha
Album=Gnothi Seauton
Tracknumber=1
Year=2020

[/more]

Register
(50) AlexSmith, Azumin1234, Bloodn Lord, cesar, cist, Constantinus I, El_Chibo, ent404, EvilPiet, Hell_Is_Here, Ildjarn, infiltrator, judaz, kim666, Korpse, Lucju, Marek, Maximvs, metaljosue, MMMMM, Morgoth, multizwilling, nadin85, nsk2008, Occultas, oldvarg, Olethros, Ostinato, peppuzzo, rammmirez, randumbum, rickzammuto, rimfrost, robertho777, Rosen, RUSP73, sarcophagus, satanist666, SilentNidhogg, squall8fr, TeamatSE, toly1917, undeadlich, VALERY, varlam4, vasiljev_sergej, vovenom, VVR, Wail, wreak,
Nov 15 2020, 11:40:11 Belzebuth - MVII - MVIII [compilation] (2020)


*Artist: Belzebuth
*Album: MVII - MVIII [compilation]
*Year: 2020
*Genre: Black Metal
*Country: Australia
*Format: mp3@VBR263kbps
*Size: 134MB

Tracklist:
1. Untitled 20:26
2. Untitled 17:49
3. Konaste Belastorn 6:47
4, Liturges Eternal 8:49
5. Maleign Transipheral 16:00
******************************
Total playing time: 1:09:51

[more=Extended info]Death Hymns ‎– DH-010
2 × Vinyl, LP, Compilation, Limited Edition

Sides A and B were originally released as the self-titled demo cassette in 2007.
Sides C and D were originally released as the Konaste Belastorn demo cassette in 2008 .

Vinyl-rip by Zero[/more]

[more=Technical info]
Input File: C1. Konaste Belastorn.mp3
Channels : 2
Sample Rate : 44100
Precision : 16-bit
Duration : 00:06:49.81 = 18072533 samples = 30735.6 CDDA sectors
File Size : 12.3M
Bit Rate : 241k
Sample Encoding: MPEG audio (layer I, II or III)
Comments :
Title=Konaste Belastorn
Artist=Belzebuth
Album=MVII - MVIII
Tracknumber=3
Year=2020
Genre=Black Metal, Dark Ambient
Discnumber=2/2

[/more]

Register
(23) 1968_janeart, andivi, AwaitingDawn, Cramloth, FUDEDOR, Hell_Is_Here, Ildjarn, infiltrator, kim666, Necromag, Olethros, randumbum, Reverend, Rosen, SilentNidhogg, stub888, supremo, thenecromancer, VALERY, varlam4, vasiljev_sergej, Wail, wreak,
Nov 15 2020, 11:34:14 Tomhet - Purpureargotamiceps/Unreleased Works [compilation] (2017)


*Artist: Tomhet
*Album: Purpureargotamiceps/Unreleased Works [compilation]
*Year: 2017
*Genre: Black Metal
*Country: Sweden
*Format: mp3@VBR260kbps
*Size: 67MB

Tracklist:
1. Kockatris värulv 05:45
2. Pulsatilla 01:17
3. Förskudda 07:26
4. Akonitum 01:58
5. Whilst the Trident Spawn and Spectre (Furze cover) 03:06
6. Gorse 01:58
7. The Hordes of Nebulah 05:04
8. Resa 08:36
******************************
Total playing time: 35:10

[more=Extended info]GoatowaRex - WAXGOAT 053

All material remastered specially for this vinyl release

Purpureargotamiceps Demo 2007
Unreleased Works

Vinyl-rip by Zero[/more]

[more=Technical info]
Input File: 08 Resa.mp3
Channels : 2
Sample Rate : 44100
Precision : 16-bit
Duration : 00:08:36.44 = 22775004 samples = 38733 CDDA sectors
File Size : 16.7M
Bit Rate : 259k
Sample Encoding: MPEG audio (layer I, II or III)
Comments :
Title=Resa
Artist=Tomhet
Album=Purpureargotamiceps / Unreleased Works
Tracknumber=08/8
Year=2017
Discnumber=1/1

[/more]

Register
(23) 1968_janeart, acerbus, craP_cillA, El_Chibo, FUDEDOR, fuoco, Hell_Is_Here, Ildjarn, infiltrator, kim666, Mist13Signifier, Olethros, Ostinato, Rosen, sethurius, SilentNidhogg, Sjelekval, smes, stub888, varlam4, vasiljev_sergej, Wail, wreak,
Nov 15 2020, 11:29:57 Tomhet - Eklipsens Hord Och Karavan/Apokalypsimz Legend [compilation] (2017)


*Artist: Tomhet
*Album: Eklipsens Hord Och Karavan/Apokalypsimz Legend [compilation]
*Year: 2017
*Genre: Black Metal
*Country: Sweden
*Format: mp3@VBR270kbps
*Size: 87MB

Tracklist:
1. Brandbann 05:03
2. Orden, Månen och Natten 03:36
3. Kulthämmad Jordafärd 04:02
4. Hänsoven och Förgäten 01:00
5. Storm 06:24
6. Luguber Klärvoajans 07:01
7. Falka Dyäfwlsens Sannind 02:30
8. Logihvolfdak 05:02
9. Nornaskassmadur 01:49
10. Djärve Häls Kvav 05:23
11. Låt Iordene Rökas till Svavl 01:44
******************************
Total playing time: 43:34

[more=Extended info]GoatowaRex - WAXGOAT 053

All material remastered specially for this vinyl release

Eklipsens Hord Och Karavan Demo 2005
Apokalypsimz Legend Demo 2009

Vinyl-rip by Zero[/more]

[more=Technical info]
Input File: 02 Orden, Månen Och Natten.mp3
Channels : 2
Sample Rate : 44100
Precision : 16-bit
Duration : 00:03:36.48 = 9546592 samples = 16235.7 CDDA sectors
File Size : 7.52M
Bit Rate : 278k
Sample Encoding: MPEG audio (layer I, II or III)
Comments :
Title=Orden, Månen Och Natten
Artist=Tomhet
Album=Eklipsens Hord och Karavan / Apokalypsimz Legend
Tracknumber=02/11
Year=2017
Genre=Black Metal
Discnumber=1/1

[/more]

Register
(21) 1968_janeart, acerbus, Boozer, El_Chibo, FUDEDOR, fuoco, Hell_Is_Here, Ildjarn, infiltrator, kim666, Olethros, Ostinato, plugawy, Rosen, sethurius, SilentNidhogg, stub888, varlam4, vasiljev_sergej, Wail, wreak,
Nov 15 2020, 11:24:13 Tomhet - Tomhet/Strid/Brandbann'r [compilation] (2017)


*Artist: Tomhet
*Album: Tomhet/Strid/Brandbann'r [compilation]
*Year: 2017
*Genre: Black Metal
*Country: Sweden
*Format: mp3@VBR270kbps
*Size: 79MB

Tracklist:
1. I 06:32
2. II 06:09
3. III 05:14
4. Dvaldes I Transcendent Urtid 07:16
5. Orden, Månen och Natten 02:10
6. Brandbann 06:14
7. Brandbann 05:27
8. Hänsoven och Förgäten 01:04
******************************
Total playing time: 40:06

[more=Extended info]GoatowaRex ‎– WAXGOAT 052

Tomhet Demo 2001
Strid Demo 2002
Brandbann’r Demo 2004

All material remastered specially for this vinyl release

Vinyl-rip by Zero[/more]

[more=Technical info]
Input File: 08 Hänsoven Och Förgäten.mp3
Channels : 2
Sample Rate : 44100
Precision : 16-bit
Duration : 00:01:05.02 = 2867294 samples = 4876.35 CDDA sectors
File Size : 2.07M
Bit Rate : 254k
Sample Encoding: MPEG audio (layer I, II or III)
Comments :
Title=Hänsoven Och Förgäten
Artist=Tomhet
Album=Tomhet / Strid / Brandbann'r
Tracknumber=08/8
Year=2017
Genre=Black Metal
Discnumber=1/1

[/more]

Register
(24) 1968_janeart, acerbus, El_Chibo, FUDEDOR, fuoco, Hell_Is_Here, Ildjarn, infiltrator, kim666, Mist13Signifier, Olethros, Ostinato, plugawy, randumbum, Rosen, sethurius, SilentNidhogg, Sjelekval, smes, stub888, varlam4, vasiljev_sergej, Wail, wreak,
Nov 15 2020, 11:17:09 Candlewolf Disciple - Rehearsal Mmxix [demo] (2020)


*Artist: Candlewolf Disciple
*Album: Rehearsal Mmxix [demo]
*Year: 2020
*Genre: Raw Black Metal
*Country: United States
*Format: mp3@VBR260kbps
*Size: 35MB

Tracklist:
1. Intro
2. Funeral of Christian Will
3. Hex
4. Servant of the Black Flame
5. Blasphemous Hordes (2018 Demo)
******************************
Total playing time: 18:15

[more=Extended info]Live rehearsal recorded on January 21st, 2019 at the Temple of Skies.

Tape-rip by Zero[/more]

[more=Technical info]
Input File: 02 Funeral Of Christian Will.mp3
Channels : 2
Sample Rate : 44100
Precision : 16-bit
Duration : 00:05:48.53 = 15369953 samples = 26139.4 CDDA sectors
File Size : 13.3M
Bit Rate : 305k
Sample Encoding: MPEG audio (layer I, II or III)
Comments :
Title=Funeral Of Christian Will
Artist=Candlewolf Disciple
Album=Rehearsal MMXIX
Tracknumber=02/5
Year=2020
Genre=Black Metal
Discnumber=1/1

[/more]

Register
(13) 1968_janeart, Hell_Is_Here, infiltrator, kim666, nemx, Olethros, Ostinato, Rosen, stub888, varlam4, vasiljev_sergej, Wail, wreak,
Nov 15 2020, 11:13:29 Eternal Octagon - Mysteries [compilation] (2019)


*Artist: Eternal Octagon
*Album: Mysteries [compilation]
*Year: 2019
*Genre: Raw Black Metal
*Country: United States
*Format: mp3@VBR303kbps
*Size: 88MB

Tracklist:
1. The Vision and the Voice
2. Opening of the Red Veil
3. Third Gnosis
4. Hidden House of Florescence
5. Manifestation of the Eternal Shape
6. Cube-Head Vision
7. Speak Not the Mystery of the Circumference
8. Elevated Shadow
9. Blackened Ziggurat
10. Carved Signs
11. Eternal Octagon
12. Hallucination
13. Symbol Omitter
******************************
Total playing time: 40:06

[more=Extended info]Side A was originally released as the Demo II cassette.
Side B was originally released as the Demo I cassette.

Vinyl-rip by Zero[/more]

[more=Technical info]
Input File: 04 Hidden House Of Florescence.mp3
Channels : 2
Sample Rate : 44100
Precision : 16-bit
Duration : 00:04:02.39 = 10689399 samples = 18179.2 CDDA sectors
File Size : 9.69M
Bit Rate : 320k
Sample Encoding: MPEG audio (layer I, II or III)
Comments :
Title=Hidden House Of Florescence
Artist=Eternal Octagon
Album=Mysteries
Tracknumber=04/13
Year=2019
Genre=Black Metal
Discnumber=1/1

[/more]

Register
(15) 1968_janeart, Cramloth, Ildjarn, infiltrator, kim666, Olethros, Ostinato, Rosen, SilentNidhogg, stub888, supremo, varlam4, vasiljev_sergej, Wail, wreak,
Nov 15 2020, 11:08:22 Fallen Forest & Black Imperial Blood - Black Imperial Blood/Fallen Forest [split] (2020)


*Artist: Fallen Forest & Black Imperial Blood
*Album: Black Imperial Blood/Fallen Forest [split]
*Year: 2020
*Genre: Raw Black Metal | Raw Black Metal
*Country: Finland | Australia
*Format: mp3@VBR260kbps
*Size: 34MB

Tracklist:
Fallen Forest:
1. Twilight Towers 03:30
2. Citadels of Lament 04:54
Black Imperial Blood:
3. Interlude 02:20
4. Woodland Spirit 07:02
******************************
Total playing time: 17:46

[more=Extended info]Atrocity Altar-31

Tape-rip by Zero[/more]

[more=Technical info]
Input File: 01 Twilit Towers.mp3
Channels : 2
Sample Rate : 44100
Precision : 16-bit
Duration : 00:03:28.22 = 9182590 samples = 15616.6 CDDA sectors
File Size : 6.84M
Bit Rate : 263k
Sample Encoding: MPEG audio (layer I, II or III)
Comments :
Title=Twilit Towers
Artist=Fallen Forest
Album=Fallen Forest / Black Imperial Blood
Tracknumber=01/4
Year=2020
Genre=Black Metal
Discnumber=1/1

[/more]

Register
(18) 1968_janeart, Alexis The Best, dermarsoran, FrenzyMad, grimoir, Hell_Is_Here, Ildjarn, infiltrator, kim666, nemx, Rosen, SilentNidhogg, stub888, VALERY, varlam4, vasiljev_sergej, Wail, wreak,
Nov 15 2020, 11:04:48 Mistcavern - Winds Of Misery [ep] (2019)


*Artist: Mistcavern
*Album: Winds Of Misery [ep]
*Year: 2019
*Genre: Black Metal
*Country: Hungary
*Format: mp3@VBR270kbps
*Size: 30MB

Tracklist:
1. Winds of Misery 05:08
2. Dominion for Eternity 05:29
3. Crystalline Gate of Destruction 04:56
******************************
Total playing time: 15:33



[more=Extended info]Iron Bonehead Productions

Tape-rip by Zero[/more]

[more=Technical info]
Input File: 03 Crystalline Gate Of Destruction.mp3
Channels : 2
Sample Rate : 44100
Precision : 16-bit
Duration : 00:04:50.43 = 12807919 samples = 21782.2 CDDA sectors
File Size : 9.82M
Bit Rate : 271k
Sample Encoding: MPEG audio (layer I, II or III)
Comments :
Title=Crystalline Gate Of Destruction
Artist=Mistcavern
Album=Winds Of Misery
Tracknumber=3/3
Year=2020
Genre=Black Metal
Discnumber=1/1

[/more]

Register
(20) 1968_janeart, Bekkerev, Boozer, grimoir, Ildjarn, infiltrator, kim666, Olethros, rammmirez, robertho777, Rosen, satanist666, SilentNidhogg, Storky, VALERY, varlam4, vasiljev_sergej, VECTOR, Wail, wreak,
Nov 15 2020, 11:02:22 Blinding Sun - Life's Joke [demo] (2020)


*Artist: Blinding Sun
*Album: Life's Joke [demo]
*Year: 2020
*Genre: Raw Black Metal
*Country: United States
*Format: mp3@CBR320kbps
*Size: 38MB

Tracklist:
1. Intro (Life's Joke)
2. The Hanged Arrange Themselves by Weight
3. A Slide Down Pitiful Peak
4. Setting the Table for Ghost's Meals
******************************
Total playing time: 16:22



[more=Extended info]Death Shadow Records[/more]

[more=Technical info]
Input File: 02 The Hanged Arrange Themselves by Weight.mp3
Channels : 2
Sample Rate : 44100
Precision : 16-bit
Duration : 00:04:46.29 = 12625565 samples = 21472 CDDA sectors
File Size : 11.6M
Bit Rate : 325k
Sample Encoding: MPEG audio (layer I, II or III)
Comments :
Title=The Hanged Arrange Themselves by Weight
Artist=Blinding Sun
Album=Life's Joke
Tracknumber=2
Year=2020
Genre=Black Metal

[/more]

Register
(13) 1968_janeart, grimoir, infiltrator, kim666, Olethros, Ostinato, Rosen, SilentNidhogg, stub888, varlam4, vasiljev_sergej, Wail, wreak,

177 Pages V  < 1 2 3 4 > » 
- Lo-Fi Version Support form
Copyrights and abuse reports form
Time is now: 20th June 2021 - 22:50:29