Welcome Guest ( Log In | Register )

История благодарностей участнику lestllk ::: Спасибо сказали: 55034 раз(а)
Дата поста: В теме: За сообщение: Спасибо сказали:
Nov 2 2012, 04:17:17 Grausamkeit - Fucking Goat Horness! [demo] (1996)
Mediafire
Register


Narod
Register
(9) abob, ddarkthrone, Evgundel, Goatrex, RUSP73, satanist666, spiritualdecay666, stub888, Timekiller_again,
Nov 2 2012, 03:46:01 Grausamkeit - Frozen Souls [demo] (1996)
Mediafire
Register


Narod
Register
(12) abob, Goatrex, kim666, Neel, RUSP73, satanist666, spiritualdecay666, SSBandera, stub888, Timekiller_again, varlam4, Velkaarn,
Nov 2 2012, 03:13:24 Grausamkeit - Bischmisheiman Pagan Madness (Tribute to Absurd) [demo] (1996)

Mediafire
Register



Narod
Register
(16) 1984, abob, artscald, Goatrex, kim666, LordHaart, RUSP73, satanist666, scato, spiritualdecay666, SSBandera, thenecromancer, Timekiller_again, varlam4, Velkaarn, zarandok,
Oct 30 2012, 01:50:12 Profezia - Black Misanthropic Elite - Moon Anthem (2008)
MP3@CBR320kbps (CD-rip) + Covers

Register
(13) artscald, Borderline1991, Femto, kauyumari, morbidangelo, RUSP73, Sathana, siebensunden, stormhatt, svart27, varlam4, vosmidesijatye, Witchlord,
Oct 24 2012, 23:49:58 Gnieu & Lascowiec - Marching With The Blizzard's Rage [split] (2010)
Register

mp3@CBR320kbps + scans
(2) fugyfudy, Wotanwatch,
Oct 14 2012, 04:20:50 Todesstoß - Würmer Zu Weinen (2008)
MP3@CBR320kbps (CD-rip) + Covers
172.04 МБ
Register


 i 

Don't forget to use [HIDE] tag!
 
(1) DarkHorde,
Oct 14 2012, 01:07:39 Silencer - Death - Pierce Me (2001)
Silencer - Death - Pierce Me [Re-released 2009]

Re-released in 2009 by Lupus Lounge (WOLF 009) in Digi-format with the bonus song No. 7: "Death - Pierce Me (Demo 1998)".


MP3@CBR320kbps (CD-rip) 186 mb + Covers
Register


(27) Aphotic, Azemoth, cesar, christopher_l, Constantinus I, ENDSMOUTH, Felipe1986, Femto, FILDV, juanguillermo13, kimkayoung, lawronchik, Lord Of The Siths, Lux, Necromayhem, Noxius, Peikko, Radiosilence, Shanson4ever, thenecromancer, Tino, trabantfan, varg-38ru, WarmasterChorus, WX419, yarrsuaa, zlvd,
Oct 13 2012, 22:57:04 Axt & Kettenhund - Split [split] (2004)
Register
(1) varlam4,
Oct 13 2012, 21:54:07 Axt & Crudus & Kettenhund & Odium Immortalis - 4-Way Split [split] (2003)
Register
(2) varlam4, Wotanwatch,
Oct 12 2012, 08:25:40 Kawir - Epoptia (1999)
Register

mp3@CBR320kbps
(2) artscald, smes,
Sep 23 2012, 21:17:54 Inferi - Shores Of Sorrow (2006)
MP3@CBR320kbps
Register
(3) DarkHorde, MEmethuselah, toly1917,
Sep 13 2012, 03:48:13 Einsam Gestorben - Einsam Gestorben (2011)
Register


 i 

Don't forget to use [HIDE] tag!
 
(5) AwaitingDawn, bka, Froster, stor, varlam4,
Sep 13 2012, 02:18:52 Nyktalgia - Nyktalgia (2004)
Register

137 MB. CBR 320 Kbps (CD-Rip + Scans)
(3) current, juanguillermo13, Zahrim,
Sep 4 2012, 00:13:52 Managarm & Sterbenzeit & 78424325 - Three Ways To Live In Pain [split] (2009) (4) kim666, satanist666, triton, varlam4,
Sep 2 2012, 01:52:18 Einsam Gestorben - Einsam Gestorben (2011)


*Artist: Einsam Gestorben
*Album: Einsam Gestorben
*Year: 2011
*Genre: Depressive Black Metal/Ambient
*Country: Germany
*Format: mp3@CBR320kbps
*Size: 93MB

Tracklist:
01. Einklang 05:28
02. Einsam Gestorben 14:05
03. Sehnsucht 15:02
04. Ausklang 06:20
******************************
Total playing time: 40:55

[more=Extended info]Limited to 100 vinyl-like CDR in a DVD-Case.
Schattenkult Produktionen

Line-up
Winterwolf - All instruments
M.F - Vocals


Input File: 01 Einsam Gestorben - Einklang .mp3
Channels : 2
Sample Rate : 44100
Precision : 16-bit
Duration : 00:05:28.52 = 14487732 samples = 24639 CDDA sectors
File Size : 13.2M
Bit Rate : 321k
Sample Encoding: MPEG audio (layer I, II or III)
Comments :
Title=Einklang
Artist=Einsam Gestorben
Album=Einsam Gestorben
Tracknumber=1/4
Year=2011
Genre=Depressive Black Metal
Discnumber=1/1

[/more]

Register
(26) 0x13, 1968_janeart, Blut aus Nord, craP_cillA, General, kefka, kim666, KVRT, libertine, Misanthrope@, NachtWulf, Pustota, RUSP73, satanist666, severina, ShmiT, SIAVASH, stub888, the_cleanser, Thunderbird, tont, VALERY, varlam4, Wolftribes, ZambuL, Абигор,
Aug 30 2012, 21:36:42 Har Shatan

New links , 2003 - Sounds To The Key Of Death
2006 - Ancient Evil
2005 - Front Beast / Har Shatan
2009 - His Legacy

(1) satanath,
Aug 29 2012, 04:33:09 Har Shatan - Ancient Evil [demo] (2006)
Register
(7) 1984, artscald, dvlz, SilentNidhogg, Svafrlami, SyncestrA, Velkaarn,
Aug 29 2012, 04:05:15 Har Shatan & Wolfsschrei - Wolfsschrei/Har Shatan [split] (2005)
Mediafire

Narod

*mp3@VBR218
(5) pfk505, rom666, RUSP73, varlam4, Velkaarn,
Aug 29 2012, 04:01:34 Har Shatan - Sounds To The Key Of Death [demo] (2003) (1) Velkaarn,
Aug 26 2012, 22:18:57 Taakeferd - Når Sirkelen Brytes (2012)
mediafire
Register
(2) e2_81, gena,
Jul 31 2012, 02:25:25 Nocturnal Depression - Nostalgia - Fragments Of A Broken Past (2007)
Nocturnal Depression - Nostalgia - Fragments of a Broken Past

MP3@CBR320kbps (CD-rip) + Video

Register
(3) Azemoth, cist, smes,
Jul 16 2012, 23:26:43 Unjoy - Worthless Life End [ep] (2010)
Unjoy - Worthless Life End [ep] (2010)

mp3@CBR320kbps
http://www.mediafire.com/?jshc7l4jafcn69n
(6) AwaitingDawn, Lanceatum, satanist666, Tyrone, varlam4, xarmendarizx,
Jul 16 2012, 23:08:59 Psychonaut 4 - 40% [demo] (2011)
Psychonaut 4 - 40% [demo] (2011)

mp3@CBR320kbps
http://www.mediafire.com/?6pa1h28dc95d115
(5) artscald, ddarkthrone, OldY, RUSP73, varlam4,
Jul 1 2012, 21:04:57 Moonblood - Triangle Of Infernal Power [bootleg] (1994)
Moonblood / Triangle Of Infernal Power [Demo] [Bootleg]

Register
(2) CaptianGoreGrind, varlam4,
Jun 27 2012, 21:36:48 Svedhous - Path Of Suicide [demo] (2007)
Svedhous - Path Of Suicide

http://www.mediafire.com/?dhj2y14fjef
(2) RUSP73, SIAVASH,

177 Pages V  « < 174 175 176 177 >
- Lo-Fi Version Support form
Copyrights and abuse reports form
Time is now: 20th June 2021 - 23:07:18