Welcome Guest ( Log In | Register )

История благодарностей участнику lestllk ::: Спасибо сказали: 55034 раз(а)
Дата поста: В теме: За сообщение: Спасибо сказали:
Nov 15 2020, 10:56:36 Sceptre Of The Fading Dawn - Wandering In Lands Unseen (2020)


*Artist: Sceptre Of The Fading Dawn
*Album: Wandering In Lands Unseen
*Year: 2020
*Genre: Dark Ambient/Dungeon Synth
*Country: Australia
*Format: mp3@CBR320kbps
*Size: 77MB

Tracklist:
1. Visions Of The Twilight Lands 16:05
2. These Timeless Shores... 16:50
******************************
Total playing time: 32:55

[more=Extended info]Atrocity Altar[/more]

[more=Technical info]
Input File: 01 Visions Of The Twilight Lands.mp3
Channels : 2
Sample Rate : 44100
Precision : 16-bit
Duration : 00:16:05.91 = 42596543 samples = 72443.1 CDDA sectors
File Size : 38.7M
Bit Rate : 321k
Sample Encoding: MPEG audio (layer I, II or III)
Comments :
Title=Visions Of The Twilight Lands
Artist=Sceptre Of The Fading Dawn
Album=Wandering In Lands Unseen
Tracknumber=1
Year=2020
Genre=Dungeon Synth

[/more]

Register
(4) infiltrator, Olethros, Wail, Witchlord,
Nov 15 2020, 10:50:40 Catacombs Enshadowed - Curse Of Dark Centuries (2019)


*Artist: Catacombs Enshadowed
*Album: Curse Of Dark Centuries
*Year: 2019
*Genre: Dark Ambient/Dungeon Synth
*Country: United States
*Format: mp3@CBR320kbps
*Size: 74MB

Tracklist:
1. Hymne An Den Schrecken Der Nacht 02:35
2. Darkness Stirs The Windswept Woodland 07:03
3. Spawned In Verminous Crypts 02:53
4. Summoned By Lunar Spells 04:29
5. The Baleful Keep, Enwreathed By Mournmists 03:29
6. Wampyric Awakening (Beneath the Bloodmoon) 07:59
7. A Specter Wanders The Blighted Forest 02:48
******************************
Total playing time: 31:16



[more=Technical info]
Input File: 01 Hymne An Den Schrecken Der Nacht.mp3
Channels : 2
Sample Rate : 44100
Precision : 16-bit
Duration : 00:02:35.10 = 6839910 samples = 11632.5 CDDA sectors
File Size : 6.41M
Bit Rate : 330k
Sample Encoding: MPEG audio (layer I, II or III)
Comments :
Title=Hymne An Den Schrecken Der Nacht
Artist=Catacombs Enshadowed
Album=Curse Of Dark Centuries
Tracknumber=1
Year=2017
Genre=Dungeon Synth

[/more]

Register
(5) A.L.Rapsod, grimoir, infiltrator, Olethros, Wail,
Nov 15 2020, 10:43:57 Corrupted Temple Of Moss - Corrupted Temple Of Moss [compilation] (2020)


*Artist: Corrupted Temple Of Moss
*Album: Corrupted Temple Of Moss [compilation]
*Year: 2020
*Genre: Dark Ambient/Dungeon Synth
*Country: Australia
*Format: mp3@CBR320kbps
*Size: 66MB

Tracklist:
A1. Shrine To A Forgotten Deity 03:26
A2. Priest Ensnarled By Its Curse 02:01
A3. Unfolding Soul 02:15
A4. A Foreboding Prophecy 01:16
A5. The Spectre Of Autumn Gazes Over The Canopy 02:04
A6. Ancient Magicks Uttered By The Winds And Streams 03:21
A7. The Meadows Remember... 01:09
A8. Spells Written In The Moss 02:28
A9. Dreams Of My Realms Beneath The Stars 06:32
A10. What Lies Beyond The Dismal Horizon 03:35
******************************
Total playing time: 28:07

[more=Extended info]Atrocity Altar-25

Tracks A1 to A3 were originally released as the Demo I cassette.
Tracks A4 to A8 were originally released as the ...Ancient Magicks Uttered By The Winds And Streams cassette.
Tracks A9 and A10 were originally released on the split cassette with Etchings Wound.

Tape-rip by Zero[/more]

[more=Technical info]
Input File: 01 Shrine To A Forgotten Deity.mp3
Channels : 2
Sample Rate : 44100
Precision : 16-bit
Duration : 00:03:23.95 = 8994283 samples = 15296.4 CDDA sectors
File Size : 8.26M
Bit Rate : 324k
Sample Encoding: MPEG audio (layer I, II or III)
Comments :
Title=Shrine To A Forgotten Deity
Artist=Corrupted Temple Of Moss
Album=Corrupted Temple Of Moss
Tracknumber=01/10
Year=2020
Genre=Dungeon Synth
Discnumber=1/1

[/more]

Register
(5) A.L.Rapsod, infiltrator, Olethros, vlad74, Wail,
Nov 15 2020, 10:39:50 Kaznaxtheh - Xempyrre Eklipse [demo] (2018)


*Artist: Kaznaxtheh
*Album: Xempyrre Eklipse [demo]
*Year: 2018
*Genre: Dark Ambient
*Country: Finland
*Format: mp3@VBR284kbps
*Size: 43MB

Tracklist:
1. Part I: The Draining... 11:07
2. Part II: Lustful Reawakening 10:03
******************************
Total playing time: 21:10



[more=Extended info]Livor Mortis

Tape-rip by Zero[/more]

[more=Technical info]
Input File: 01 Part I The Draining....mp3
Channels : 2
Sample Rate : 44100
Precision : 16-bit
Duration : 00:11:07.79 = 29449715 samples = 50084.5 CDDA sectors
File Size : 22.9M
Bit Rate : 275k
Sample Encoding: MPEG audio (layer I, II or III)
Comments :
Title=Part I: The Draining...
Artist=Kaznaxtheh
Album=Xempyrre Eklipse
Tracknumber=01/2
Year=2018
Discnumber=1/1

[/more]

Register
(3) infiltrator, marilin, Olethros,
Nov 15 2020, 10:37:17 Mental Decay - The Lure Of Evil [demo] (2018)


*Artist: Mental Decay
*Album: The Lure Of Evil [demo]
*Year: 2018
*Genre: Dark Ambient/Dungeon Synth
*Country: Australia
*Format: mp3@VBR260kbps
*Size: 81MB

Tracklist:
1. Untitled 21:19
2. Untitled 21:06
******************************
Total playing time: 42:25



[more=Extended info]Perverse Homage ‎– 043

Tape-rip by Zero[/more]

[more=Technical info]
Input File: 02 Untitled.mp3
Channels : 2
Sample Rate : 44100
Precision : 16-bit
Duration : 00:22:06.55 = 58500855 samples = 99491.2 CDDA sectors
File Size : 44.0M
Bit Rate : 265k
Sample Encoding: MPEG audio (layer I, II or III)
Comments :
Title=Untitled
Artist=Mental Decay
Album=The Lure Of Evil
Tracknumber=02/2
Year=2018
Discnumber=1/1

[/more]

Register
(2) infiltrator, Olethros,
Nov 15 2020, 10:31:00 Mental Decay - What Gnawed On The Fate Of Our Souls [demo] (2020)


*Artist: Mental Decay
*Album: What Gnawed On The Fate Of Our Souls [demo]
*Year: 2020
*Genre: Dark Ambient/Dungeon Synth
*Country: Australia
*Format: mp3@VBR240kbps
*Size: 64MB

Tracklist:
A1. Condemned To Follow 06:39
A2. Reaching For More 11:11
B1. He Presented Himself As A Saviour 07:17
B2. Rejection Of Higher Power 10:56
******************************
Total playing time: 36:03



[more=Extended info]Atrocity Altar-28

Tape-rip by Zero[/more]

[more=Technical info]
Input File: 01 Condemned To Follow.mp3
Channels : 2
Sample Rate : 44100
Precision : 16-bit
Duration : 00:06:38.03 = 17552991 samples = 29852 CDDA sectors
File Size : 12.6M
Bit Rate : 254k
Sample Encoding: MPEG audio (layer I, II or III)
Comments :
Title=Condemned To Follow
Artist=Mental Decay
Album=What Gnawed On The Fate Of Our Souls
Tracknumber=01/4
Year=2020
Genre=Dark Ambient
Discnumber=1/1

[/more]

Register
(3) A.L.Rapsod, infiltrator, Olethros,
Nov 15 2020, 08:10:18 Seges Findere - Warmastered By Deathkorps (2015)
Register

mp3@CBR320kbps
with tags
(3) METALHUNTER, Occultas, satanist666,
Nov 15 2020, 08:06:51 Seges Findere - Mortal Grinder (2016)
Register

mp3@CBR320kbps
with tags
(3) METALHUNTER, Occultas, satanist666,
Nov 15 2020, 08:02:28 Seges Findere - Totenkopf Worship (2018)
Register

mp3@CBR320kbps
with tags
(3) METALHUNTER, Occultas, satanist666,
Nov 15 2020, 00:37:15 Sleep White Winter - Degeneracy Of Nostalgia (2017)
Register

mp3@CBR320kbps
(3) Corpuscul, kim666, MortSathynr,
Nov 15 2020, 00:28:33 Aeba - Nemesis, Decay Of God's Grandeur (2012)
Register

mp3@CBR320kbps
(1) kimkayoung,
Nov 13 2020, 23:41:20 Todestriebe - In The Vortex Of Destructive Creations (2020)


*Artist: Todestriebe
*Album: In The Vortex Of Destructive Creations
*Year: 2020
*Genre: Black Metal
*Country: Russian Federation
*Format: mp3@CBR320kbps
*Size: 85MB

Tracklist:
1. Lifting the Veil 01:02
2. The Impossibility of Atonement 03:10
3. Lord of the Fathomless Sea 04:06
4. Cathedral of Pain 03:08
5. Deadborn Initiation-Along the Serpents Trails (Part One) 04:35
6. Sitra Ahra-Along the Serpents Trails (Part Two) 03:02
7. Supreme Dark Coronation 03:32
8. Blacklight Bringer 03:24
9. Power Came from the Void 04:36
10. Bestial Obscurantism 04:42
11. 11 01:27
******************************
Total playing time: 36:44



[more=Extended info]Obscurant Visions

After 5 years of silence Russian TODESTRIEBE are returning with their long-awaited album! Prepare for 11 new hymns about underworld and its blasphemous emanations.[/more]

[more=Technical info]
Input File: 02 The Impossibility of Atonement.mp3
Channels : 2
Sample Rate : 44100
Precision : 16-bit
Duration : 00:03:10.08 = 8382396 samples = 14255.8 CDDA sectors
File Size : 7.60M
Bit Rate : 320k
Sample Encoding: MPEG audio (layer I, II or III)
Comments :
Title=The Impossibility of Atonement
Artist=Todestriebe
Album=In the Vortex of Destructive Creations
Tracknumber=2
Year=2020

[/more]

Register
(43) 1968_janeart, AlexSmith, alikkon, CRUNCH, Daale, deadwater, El_Chibo, Femto, Golodomor, Hell_Is_Here, Ildjarn, IncendiaryMight, infiltrator, judaz, kim666, Korpse, legion01, Leshiy666, Lucju, MMMMM, Moonshtook, multizwilling, oldvarg, Olethros, Ostinato, pahail, Penetralia, randumbum, ripper33, robertho777, Rosen, SaintVitus, samokot, sandr666, SilentNidhogg, squall8fr, Tino, VALERY, varlam4, vasiljev_sergej, Victim of fate, Wail, wreak,
Nov 13 2020, 23:39:51 Stormkeep - Galdrum (2020)


*Artist: Stormkeep
*Album: Galdrum
*Year: 2020
*Genre: Melodic Black Metal
*Country: United States
*Format: mp3@CBR320kbps
*Size: 76MB

Tracklist:
1. Glass Caverns of Dragon Kings 10:22
2. Lightning Frost 06:30
3. Lore 10:48
4. Lost in Mystic Woods and Cursed Hollows 04:58
******************************
Total playing time: 32:38

[more=Extended info]Ván Records

STORMKEEP began as a stronghold for individuals who sought to carry the flame of a lost age. Branching into the worlds of epic dungeon synth and melodic Black Metal, STORMKEEP hearkens back to a time when, without compromise, majestic melodies and keyboards could live side by side with razor sharp riffs and pummeling raw production. After a limited promotional tape made circulation in the underground and two special concert appearances, STORMKEEP partnered with Ván Records and completed work on the first official manifestation of the project’s creations.

"Galdrum" is a perfect soundtrack for journeys through snow capped mountains, medieval dungeons and regal castles. The four hymns create a world of ancient legends and magick, a place of long ago, somewhere deep in time.

Cover artwork by Ian Miller.[/more]

[more=Technical info]
Input File: 04. Lost In Mystic Woods & Cursed Hollows.mp3
Channels : 2
Sample Rate : 44100
Precision : 16-bit
Duration : 00:04:58.07 = 13145019 samples = 22355.5 CDDA sectors
File Size : 11.9M
Bit Rate : 320k
Sample Encoding: MPEG audio (layer I, II or III)
Comments :
Title=Lost In Mystic Woods & Cursed Hollows
Artist=Stormkeep
Album=Galdrum
Tracknumber=4

[/more]

Register
(49) 1968_janeart, AlexSmith, Ambercandle, demonosz, Fallen Soul, frituz3, gmadjara, grimoir, Ildjarn, infiltrator, kim666, kimkayoung, Kodel, kolar666, korovakaska, Korpse, legion01, Maximvs, metaljosue, MMMMM, Mogozoz, multizwilling, Narasimha, nemx, Occultas, oldvarg, Olethros, Ostinato, randumbum, robertho777, Rosen, sabr, sergsazan, Shadechaser, SilentNidhogg, smes, Spunkynut, talismanFS, Taragorm, troll_swamp, VALERY, varlam4, vasiljev_sergej, Wail, Woosad, wreak, xska, zhol, Сварог Барг,
Nov 13 2020, 01:07:07 Voëmmr - Tordaebr Ord Daebr [demo] (2020)


*Artist: Voëmmr
*Album: Tordaebr Ord Daebr [demo]
*Year: 2020
*Genre: Black Metal
*Country: Portugal
*Format: mp3@CBR320kbps
*Size: 60MB

Tracklist:
1. Maesticae 06:41
2. Fogr Mae Raedrae 07:14
3. Svwtae Tordaebr 05:43
4. Nesraetr odr Tvmlar 06:11
******************************
Total playing time: 25:49



[more=Extended info]Voëmmr opened the gates from the most unknown and distant thoughts back in 2017 with their debut album "Nox Maledictus", since then, hallucinations and nightmares haunted themselves through the past and present life.

During all these mortal years the possession of such evil spells and despaired ardour for the triumph of death over life gets growing and growing like their need to vanish from this mortal world and become the vultures of their own creations and magnificent destroyers of life.

"Tordaebr odr Daebr" is a four track composition in about 20 minutes of incomparable and undoubtedly occult mastery, conceptually written upon the local tale of a devil's tower from the xix century, that still whisper old and unknown fears across the surrounding mortals.

Voëmmr "Tordaebr odr Daebr" is out now on Harvest Of Death, strictly limited to 150 hand numbered copies, like all other cassette tape released by Voëmmr, these won't see any kind of repress.

Join the legions of Evil![/more]

[more=Technical info]
Input File: 1. Maesticae.mp3
Channels : 2
Sample Rate : 44100
Precision : 16-bit
Duration : 00:06:41.08 = 17687628 samples = 30081 CDDA sectors
File Size : 16.1M
Bit Rate : 321k
Sample Encoding: MPEG audio (layer I, II or III)
Comments :
Title=Maesticae
Artist=Voëmmr
Album=Tordaebr ord Daebr
Tracknumber=1
Year=2020

[/more]

Register
(32) 1968_janeart, Alexis The Best, Boozer, Cramloth, Daale, DeRectify, ent404, heinz88, Hell_Is_Here, Ildjarn, infiltrator, judaz, kim666, Krosis, Olethros, Ostinato, randumbum, robertho777, Rosen, satanist666, SilentNidhogg, smes, thenecromancer, The_Hound, VALERY, varlam4, vasiljev_sergej, Vidder242, Wail, wreak, zargonath, Абигор,
Nov 13 2020, 00:25:32 Begrafven - Dödsriket (2020)


*Artist: Begrafven
*Album: Dödsriket
*Year: 2020
*Genre: Black Metal
*Country: Sweden
*Format: mp3@CBR320kbps
*Size: 160MB

Tracklist:
1. Nyckeln till dödsriket 06:05
2. Frostfödd 06:27
3. Slav 05:08
4. Universums grav 07:10
5. Döden är helig 04:38
6. Då jorden fylls av klagorop 09:04
7. Giftet 06:31
8. I mitt mörker 06:48
9. Frälsaren 07:19
10. Korpens tystnad 01:31
11. Livets fort 08:10
******************************
Total playing time: 1:08:51



[more=Extended info]Unexploded Records[/more]

[more=Technical info]
Input File: 03. Slav.mp3
Channels : 2
Sample Rate : 44100
Precision : 16-bit
Duration : 00:00:00.31 = 13583 samples = 23.1003 CDDA sectors
File Size : 12.4M
Bit Rate : 323M
Sample Encoding: MPEG audio (layer I, II or III)
Comments :
Title=Slav
Artist=Begrafven
Album=Dödsriket
Tracknumber=3
Year=2020
Genre=Black Metal
Discnumber=1

[/more]

Register
(32) 1968_janeart, alikkon, Bzth, frituz3, grindfucker, Hell_Is_Here, Ildjarn, infiltrator, kim666, kimkayoung, Marek, multizwilling, obituarydark, oldvarg, Olethros, randumbum, rickzammuto, robertho777, Rosen, sabr, sagratan, SaintVitus, satanist666, SilentNidhogg, Sjelekval, Storky, VALERY, varlam4, vasiljev_sergej, Wail, wreak, zhol,
Nov 3 2020, 04:22:44 Ashen Husk - All We Hold Sacred [demo] (2020)


*Artist: Ashen Husk
*Album: All We Hold Sacred [demo]
*Year: 2020
*Genre: Black Metal
*Country: United States
*Format: mp3@CBR320kbps
*Size: 53MB

Tracklist:
1. Deathly Embrace
2. Decrepit Lands
3. All We Hold Sacred
4. Expired and Failing (Interlude)
5. Black Fog on the Horizon (Extermination Ritual)
******************************
Total playing time: 22:55



[more=Extended info]Brotherhood of Light. Co-released with Vinlandic Werwolf Distribution.

C.R.G. - Everything
See also: Llyr, Sunchariot, Svetovid, Cosmic Breath 88[/more]

[more=Technical info]
Input File: 1. Deathly Embrace.mp3
Channels : 2
Sample Rate : 44100
Precision : 16-bit
Duration : 00:04:03.08 = 10719916 samples = 18231.1 CDDA sectors
File Size : 9.82M
Bit Rate : 323k
Sample Encoding: MPEG audio (layer I, II or III)
Comments :
Title=Deathly Embrace
Artist=Ashen Husk
Album=All We Hold Sacred
Tracknumber=1
Year=2020

[/more]

Register
(11) infiltrator, kim666, Olethros, Rosen, SilentNidhogg, stub888, VALERY, varlam4, vasiljev_sergej, Wail, wreak,
Nov 3 2020, 04:12:51 Vrildom - Terra Australis Ignota (2019)


*Artist: Vrildom
*Album: Terra Australis Ignota
*Year: 2019
*Genre: Black Metal
*Country: Argentina
*Format: mp3@CBR320kbps
*Size: 95MB

Tracklist:
1. Through the Ethereal Paths That Lead to the Selbst 02:59
2. Whispers of Minne 04:42
3. Southern Thule 05:07
4. Glacial Cosmogony 05:59
5. Oasis Far Beyond the Eternal Ice 02:59
6. Katabasis 05:40
7. Thanatosophia 05:40
8. Terra Australis Ignota 08:19
******************************
Total playing time: 41:25




[more=Extended info]Southern Plague Records

Breath of Pestilence[/more]

[more=Technical info]
Input File: 02 - Whispers of Minne.mp3
Channels : 2
Sample Rate : 44100
Precision : 16-bit
Duration : 00:04:42.10 = 12440786 samples = 21157.8 CDDA sectors
File Size : 11.4M
Bit Rate : 322k
Sample Encoding: MPEG audio (layer I, II or III)
Comments :
Title=Whispers of Minne
Artist=Vrildom
Album=Terra Australis Ignota
Tracknumber=2
Year=2019
Genre=Black Metal

[/more]

Register
(15) ChaosArcana, Ildjarn, infiltrator, kim666, Legacy100, luxxul, Olethros, Rosen, SilentNidhogg, VALERY, varlam4, vasiljev_sergej, Vidder242, Wail, wreak,
Nov 3 2020, 04:10:54 Sunchariot - Songs Of The Past From Beyond (2018)


*Artist: Sunchariot
*Album: Songs Of The Past From Beyond
*Year: 2018
*Genre: Raw Black Metal
*Country: United States
*Format: mp3@CBR320kbps
*Size: 76MB

Tracklist:
1. Undermining the Gaze of the Gluttonous Eyes 08:33
2. Avalanche of Ancestral Assalt 06:37
3. Frail Yet Fighting Whispers of Those Immortal 01:24
4. Chapter 1. Descecrating Zion's Gold and Wealth with Famine and Shit Chapter 2. Clash of Steel with the Day of Ragnorak in Sight 09:27
5. Ascending Spirits Past in Divine Blood 01:47
6. Under the Shadows 05:14
******************************
Total playing time: 33:02

[more=Extended info]Werewolf Promotion

C.R.G. - Everything (2009-present)
See also: Ashen Husk, Llyr, Svetovid, Cosmic Breath 88

Written and recorded in 2017 at Brotherhood of Light Bunker Stronghold.[/more]

[more=Technical info]
Input File: 2. Avalanche of Ancestral Assalt.mp3
Channels : 2
Sample Rate : 44100
Precision : 16-bit
Duration : 00:06:37.08 = 17511360 samples = 29781.2 CDDA sectors
File Size : 16.0M
Bit Rate : 322k
Sample Encoding: MPEG audio (layer I, II or III)
Comments :
Title=Avalanche of Ancestral Assalt
Artist=Sunchariot
Album=Songs of the Past from Beyond
Tracknumber=2
Year=2018

[/more]

Register
(17) 1968_janeart, Forest Silence, frituz3, infiltrator, kim666, Olethros, randumbum, Rosen, Rudolfo_Metal, SilentNidhogg, stub888, uncolored, VALERY, varlam4, vasiljev_sergej, Wail, wreak,
Nov 3 2020, 04:06:23 Ruwm - Hineni [demo] (2016)


*Artist: Ruwm
*Album: Hineni [demo]
*Year: 2016
*Genre: Raw Black Metal/Noise
*Country: Netherlands
*Format: mp3@CBR320kbps
*Size: 38MB

Tracklist:
1. Untitled 16:25
******************************
Total playing time: 16:25

[more=Extended info]The other Ruwm demo, released simultaneously with "Dibboek"
Another excellent piece of hypnotic Raw Black Metal released on tape through The Throat.[/more]

[more=Technical info]
Input File: A1. Untitled.mp3
Channels : 2
Sample Rate : 44100
Precision : 16-bit
Duration : 00:16:27.12 = 43531860 samples = 74033.8 CDDA sectors
File Size : 39.5M
Bit Rate : 320k
Sample Encoding: MPEG audio (layer I, II or III)
Comments :
Title=Untitled
Artist=Ruwm
Album=Hineni
Tracknumber=1
Year=2016

[/more]

Register
(9) 1968_janeart, infiltrator, Olethros, Rosen, stub888, varlam4, vasiljev_sergej, Wail, wreak,
Nov 3 2020, 04:04:12 Ruwm - Dibboek [demo] (2016)


*Artist: Ruwm
*Album: Dibboek [demo]
*Year: 2016
*Genre: Raw Black Metal/Noise
*Country: Netherlands
*Format: mp3@CBR320kbps
*Size: 54MB

Tracklist:
1. Untitled 23:23
******************************
Total playing time: 23:23

[more=Extended info]As usual, from the well of improvised psychotic Raw Black Metal that is the Netherlands, here is another beast of brooding and intense perversity.

A brilliant release from The Throat and definitely one of its most underrated acts, Ruwm is an intoxicating, psychedelic incantation slowly but steadily piercing your mind with it's foul string reverberations and tormented vocals.
FFO: Faceless Entity, Veltgensgraef and Vraeck[/more]

[more=Technical info]
Input File: A1. Untitled.mp3
Channels : 2
Sample Rate : 44100
Precision : 16-bit
Duration : 00:23:34.14 = 62363486 samples = 106060 CDDA sectors
File Size : 56.6M
Bit Rate : 320k
Sample Encoding: MPEG audio (layer I, II or III)
Comments :
Title=Untitled
Artist=Ruwm
Album=Dibboek
Tracknumber=1
Year=2016

[/more]

Register
(10) 1968_janeart, infiltrator, Olethros, Rosen, SilentNidhogg, stub888, varlam4, vasiljev_sergej, Wail, wreak,
Nov 3 2020, 03:55:14 Hats Barn - S.H.E.O.L [ep] (2018)


*Artist: Hats Barn
*Album: S.H.E.O.L [ep]
*Year: 2018
*Genre: Black Metal
*Country: France
*Format: mp3@CBR320kbps
*Size: 60MB

Tracklist:
1. Ceremonials of the Ancients Gods 06:46
2. Purify by Fire 04:10
3. In the Abyss of Dante 05:27
4. Gehenne 04:39
5. χήνα του Σατανά 05:11
******************************
Total playing time: 26:13



[more=Extended info]Ogmios Underground[/more]

[more=Technical info]
Input File: 02 Purify by Fire.mp3
Channels : 2
Sample Rate : 44100
Precision : 16-bit
Duration : 00:04:08.07 = 10939975 samples = 18605.4 CDDA sectors
File Size : 10.3M
Bit Rate : 333k
Sample Encoding: MPEG audio (layer I, II or III)
Comments :
Title=Purify by Fire
Artist=Hats Barn
Album=S.h.e.o.L
Tracknumber=2
Year=2018

[/more]

Register
(22) andivi, Gylve, Hell_Is_Here, Ildjarn, infiltrator, kim666, Legacy100, Olethros, Ostinato, robertho777, Rosen, SadistikSlayer, satanist666, ShmiT, SilentNidhogg, smes, stub888, VALERY, varlam4, vasiljev_sergej, Wail, wreak,
Nov 3 2020, 03:53:07 Oči Vlka - Demo [demo] (2020)


*Artist: Oči Vlka
*Album: Demo [demo]
*Year: 2020
*Genre: Black Metal
*Country: Czech Republic
*Format: mp3@CBR320kbps
*Size: 68MB

Tracklist:
1. .................................. 02:44
2. Vnimani Zivota Na Prahu Smrti 10:04
3. ................................. 05:16
4. Basnikovi 05:12
5. ................................... 06:00
******************************
Total playing time: 29:16



[more=Extended info]Caligari Records[/more]

[more=Technical info]
Input File: 2. Vnimani Zivota Na Prahu Smrti.mp3
Channels : 2
Sample Rate : 44100
Precision : 16-bit
Duration : 00:10:02.99 = 26591903 samples = 45224.3 CDDA sectors
File Size : 24.3M
Bit Rate : 322k
Sample Encoding: MPEG audio (layer I, II or III)
Comments :
Title=Vnimani Zivota Na Prahu Smrti
Artist=Oči Vlka
Album=Demo
Tracknumber=2
Year=2020

[/more]

Register
(16) djsema4, IncendiaryMight, infiltrator, kim666, milosdjor, Olethros, Ostinato, Pinhead666, robertho777, Rosen, SilentNidhogg, VALERY, varlam4, vasiljev_sergej, Wail, wreak,
Nov 3 2020, 03:49:32 Promethean Gate - Plague Wielder [demo] (2020)


*Artist: Promethean Gate
*Album: Plague Wielder [demo]
*Year: 2020
*Genre: Black Metal
*Country: Brazil
*Format: mp3@CBR320kbps
*Size: 70MB

Tracklist:
1. Aurora instrumental
2. Invocação dos Poderes Solares de Thagiriron
3. Aesthetic Invocatio Aequilibrium Femininus Lux
4. Om Shum Shukraaye Namah
5. Plague Wielder
6. Cosmic Unification of Man and Phosphorus – the Union to Invoke the Uno form of Spiritual Ascendance
******************************
Total playing time: 30:15

[more=Extended info]Hammer of Damnation[/more]

[more=Technical info]
Input File: 2. Invocação dos Poderes Solares de Thagiriron.mp3
Channels : 2
Sample Rate : 44100
Precision : 16-bit
Duration : 00:04:14.08 = 11204928 samples = 19056 CDDA sectors
File Size : 10.4M
Bit Rate : 328k
Sample Encoding: MPEG audio (layer I, II or III)
Comments :
Title=Invocação dos Poderes Solares de Thagiriron
Artist=Promethean Gate
Album=Plague Wielder
Tracknumber=2
Year=2020

[/more]

Register
(12) El_Chibo, Ildjarn, infiltrator, kim666, Olethros, Rosen, SilentNidhogg, VALERY, varlam4, vasiljev_sergej, Wail, wreak,
Nov 3 2020, 03:47:49 Enge Store - Kom Tilbake Til Jorden [ep] (2020)


*Artist: Enge Store
*Album: Kom Tilbake Til Jorden [ep]
*Year: 2020
*Genre: Ambient/Acoustic/Folk
*Country: Norway
*Format: mp3@CBR320kbps
*Size: 58MB

Tracklist:
1. Irrlyset (intro)
2. Dødehuset
3. Minneflimmer
4. Ulmebranner
5. Stjerneløse elver
6. Kom tilbake til jorden
******************************
Total playing time: 25:02



[more=Extended info]Great dark and layered Folk. Second release following the brilliant 2016 EP.

Amazing music for rainy autumnal strolls. Featuring members of Askeregn, Knokkelklang and Granem[/more]

[more=Technical info]
Input File: 3. Minneflimmer.mp3
Channels : 2
Sample Rate : 44100
Precision : 16-bit
Duration : 00:05:02.07 = 13321287 samples = 22655.2 CDDA sectors
File Size : 12.3M
Bit Rate : 325k
Sample Encoding: MPEG audio (layer I, II or III)
Comments :
Title=Minneflimmer
Artist=Enge Store
Album=Kom tilbake til jorden
Tracknumber=3
Year=2020

[/more]

Register
(11) Aparo, Cartman223, Druidir, grimmstone, infiltrator, nemx, Olethros, Ostinato, Rosen, tamerz, wreak,
Nov 3 2020, 03:43:38 Kraapides Nahka - Manifestation Ii [demo] (2020)


*Artist: Kraapides Nahka
*Album: Manifestation Ii [demo]
*Year: 2020
*Genre: Raw Black Metal/Punk
*Country: Canada
*Format: mp3@CBR320kbps
*Size: 31MB

Tracklist:
1. Manifestation II 13:20
******************************
Total playing time: 13:20



[more=Technical info]
Input File: 1. Manifestation II.mp3
Channels : 2
Sample Rate : 44100
Precision : 16-bit
Duration : 00:13:20.10 = 35284234 samples = 60007.2 CDDA sectors
File Size : 32.0M
Bit Rate : 320k
Sample Encoding: MPEG audio (layer I, II or III)
Comments :
Title=Manifestation II
Artist=Kraapides Nahka
Album=Manifestation II
Year=2020

[/more]

Register
(9) 1968_janeart, infiltrator, nemx, Olethros, Rosen, varlam4, vasiljev_sergej, Wail, wreak,

177 Pages V  < 1 2 3 4 5 > » 
- Lo-Fi Version Support form
Copyrights and abuse reports form
Time is now: 20th June 2021 - 23:44:53