Welcome Guest ( Log In | Register )

Объявления

* gmail.com упорно продолжает считать почту с нас "unsolicited" и отбивает в том числе и письма активации, поэтому просьба использовать альтернативные почтовые ящики.
------------
* gmail.com continues reject all mail from us as "unsolicited" (activation mails too) therefore please use alternate mail servers.
История благодарностей участнику peste ::: Спасибо сказали: 132 раз(а)
Дата поста: В теме: За сообщение: Спасибо сказали:
Mar 5 2022, 07:07:01 Pagan Reign - Древние воины (2002)
Перезалейте, пожалуйста, оригинал 2001го.
(1) thenecromancer,
Jun 18 2020, 09:23:05 Yarek Ovich - Leaving [ep] (2018)


*Artist: Yarek Ovich
*Album: Leaving [ep]
*Year: 2018
*Genre: Atmospheric/Depressive Black Metal
*Country: Ukraine
*Format: mp3@CBR320kbps
*Size: 23MB

Tracklist:
1. Following the Path of Regrets
2. Letting Myself Go
******************************
Total playing time: 11:29

[more=Technical info]
Input File: 1. Following The Path Of Regrets.mp3
Channels : 2
Sample Rate : 44100
Precision : 16-bit
Duration : 00:06:08.38 = 16245470 samples = 27628.4 CDDA sectors
File Size : 14.8M
Bit Rate : 322k
Sample Encoding: MPEG audio (layer I, II or III)
Comments :
Title=Following The Path Of Regrets
Artist=Yarek Ovich
Album=Leaving
Tracknumber=1/2
Year=2018
Genre=Atmospheric Black Metal

[/more]

Register
(20) 1968_janeart, dimmannius, infiltrator, kim666, krotovich, lestllk, libertine, Misanthrope@, popen13, randumbum, Razorbladeswaltz, robertho777, Rosen, satanist666, senecazm, Shadechaser, VALERY, varlam4, vasiljev_sergej, Wail,
Jun 15 2020, 08:30:10 Nordreich - Wiederkehr [compilation] (2014)


*Artist: Nordreich
*Album: Wiederkehr [compilation]
*Year: 2014
*Genre: Black Metal
*Country: Germany
*Format: mp3@CBR320kbps
*Size: 322MB

Tracklist:
Disc 1
1. In des Mondes Schein
2. J.
3. Heldentum
4. Klagelied
5. Wiederherstellung
6. Und ihr habt doch gesiegt
7. Fyrfos
8. Hass & Hass
9. Vergebens all die Mühe
10. Der Wölfe Ruf
11. Am Hünengrab
12. Heimat, Sehnsucht, Verderben
13. Unantastbar
14. Germanische Wiedergeburt
15. Stehet auf
16. Der Rachegang
17. Versteinerte Freiheit
18. III
Disc 2
1. Blendwerk
2. Hagal Odal
3. Gefallen treu
4. Es ist gerüstet
5. Siegwille
6. Die Vergessenen
7. Edle Einsamkeit
8. Ewiger Frost
9. Die Flamme
10. Und der Schnee fällt
11. Der Treue Tod
12. Gier = Gott
13. Ich wandle
14. Teiwaz
15. Im Nebelgau
16. Blutsturm
17. IX
******************************
Total playing time: 2:34:45

[more=Technical info]
Input File: 01 In des Mondes Schein.mp3
Channels : 2
Sample Rate : 44100
Precision : 16-bit
Duration : 00:04:53.00 = 12921300 samples = 21975 CDDA sectors
File Size : 11.8M
Bit Rate : 321k
Sample Encoding: MPEG audio (layer I, II or III)
Comments :
Title=In des Mondes Schein
Artist=Nordreich
Album=Wiederkehr (CD1)
Tracknumber=1
Year=2014
Genre=Black Metal

[/more]

Register
(11) 1968_janeart, infiltrator, lestllk, Moonshtook, multizwilling, Olethros, Rosen, satanist666, stub888, thenecromancer, vasiljev_sergej,
Jun 15 2020, 08:05:39 Division Hagal - Operation Niedergang (2016)


*Artist: Division Hagal
*Album: Operation Niedergang
*Year: 2016
*Genre: Black Metal
*Country: Germany
*Format: mp3@CBR320kbps
*Size: 104MB

Tracklist:
1. Seht nach Osten
2. Der Verlorene
3. Süd- und ostwärts
4. Jahrgang 1929
5. Das große Sterben
6. Weit ist der Weg
7. Weit war der Weg (in den Untergrund)
8. Blutspeier
9. Holocaust
******************************
Total playing time: 54:40

[more=Technical info]
Input File: 02 - Der Verlorene.mp3
Channels : 2
Sample Rate : 44100
Precision : 16-bit
Duration : 00:08:14.65 = 21814197 samples = 37099 CDDA sectors
File Size : 19.8M
Bit Rate : 320k
Sample Encoding: MPEG audio (layer I, II or III)
Comments :
Title=Der Verlorene
Artist=Division Hagal
Album=Operation Niedergang
Tracknumber=2
Year=2016
Genre=Black Metal

[/more]

Register
(20) 1968_janeart, atavist, Ildjarn, infiltrator, kim666, lestllk, Olethros, raaf, randumbum, robertho777, Rosen, satanist666, SilentNidhogg, Storky, stub888, VALERY, varlam4, vasiljev_sergej, vov7609, Wail,
Jun 14 2020, 12:21:29 Tronje - Des Satans Wilde Nacht (2018)


*Artist: Tronje
*Album: Des Satans Wilde Nacht
*Year: 2018
*Genre: Black Metal
*Country: Germany
*Format: mp3@CBR320kbps
*Size: 103MB

Tracklist:
1. Aut Alte Sitten
2. Schwarzer Krieg
3. Pestatem
4. Leichenwald
5. Aus blitz und Donner
6. Nachtliches Heulen
7. Des Satans wilde Nacht
8. Osforei
9. Blutfunst
10 .Runenschwur
******************************
Total playing time: 45:54

[more=Technical info]
Input File: 01. Auf alte Sitten.mp3
Channels : 2
Sample Rate : 44100
Precision : 16-bit
Duration : 00:04:30.74 = 11939634 samples = 20305.5 CDDA sectors
File Size : 10.8M
Bit Rate : 320k
Sample Encoding: MPEG audio (layer I, II or III)
Comments :
Title=Auf alte Sitten
Artist=Tronje
Album=Des Satan's Wilde Nacht
Tracknumber=01/10
Year=2018
Genre=Black Metal

[/more]

Register
(17) 1968_janeart, atavist, Carcharoth, Ildjarn, infiltrator, kim666, metal73, multizwilling, Olethros, pwoods, Rosen, satanist666, stub888, varlam4, vasiljev_sergej, vov7609, V_H_H_V,
Jun 13 2020, 11:23:09 Pestiferum & Halsfang - Pestiferum & Halsfang [split] (2017)


*Artist: Pestiferum & Halsfang
*Album: Pestiferum & Halsfang [split]
*Year: 2017
*Genre: Black Metal | Black Metal
*Country: France | France
*Format: mp3@CBR320kbps
*Size: 80MB

Tracklist:
Halsfang:
1. Strafing the Ashes
2. Carrion of Human Kindness
3. Lead us Not Into Temptation
4. From the Nun's Crotch
Pestiferum:
5. Syphilis Déjantée
6. Misère Gangrénée
7. La Plaie
8. Der Erlkönig (Franz Schubert)
******************************
Total playing time: 40:13

[more=Technical info]
Input File: 01. Halsfang - Strafing the ashes.mp3
Channels : 2
Sample Rate : 44100
Precision : 16-bit
Duration : 00:06:56.84 = 18382600 samples = 31262.9 CDDA sectors
File Size : 16.7M
Bit Rate : 320k
Sample Encoding: MPEG audio (layer I, II or III)
Comments :
Title=Strafing the ashes
Artist=Halsfang
Album=Split Halsfang & Pesiferum
Tracknumber=1
Year=2017
Genre=Black Metal

[/more]

Register
(20) 1968_janeart, andivi, El_Chibo, Hell_Is_Here, Ildjarn, infiltrator, kim666, Lanceatum, lestllk, randumbum, robertho777, Rosen, satanist666, SilentNidhogg, stormhatt, stub888, VALERY, varlam4, vasiljev_sergej, Wail,
Mar 30 2020, 07:23:17 Χειμώνας - Χειμώνας (2020)
ЦИТАТА(SlimBZ @ Mar 28 2020, 21:46:56) *
вот, кстати, послушал на ютубе - нормально прям. А на портале что-то найти не могу.

Ψ.Χ. - Το Φως Το Αληθινό (2016)
(2) Bulldozzzzzzer, SlimBZ,
Mar 30 2020, 07:02:11 Sørgelig - Sørgelig [ep] (2020)
Нынче прям моя любимая группа true_black.gif
(1) aleon,
Dec 14 2017, 13:33:58 Svartnatt - Himmelsot [ep] (2014)


*Artist: Svartnatt
*Album: Himmelsot [ep]
*Year: 2014
*Genre: Black Metal
*Country: Sweden
*Format: mp3@CBR320kbps
*Size: 37MB

Tracklist:
1. Hedniskt Krig
2. Böner Tystnar
3. Himmelsot
4. Korp Fest
******************************
Total playing time: 19:03

[more=Technical info]
Input File: 01 - Hedniskt Krig.mp3
Channels : 2
Sample Rate : 44100
Precision : 16-bit
Duration : 00:05:20.47 = 14132815 samples = 24035.4 CDDA sectors
File Size : 12.9M
Bit Rate : 323k
Sample Encoding: MPEG audio (layer I, II or III)
Comments :
Title=Hedniskt Krig
Artist=Svartnatt
Album=Himmelsot
Tracknumber=1/4
Year=2014
Genre=Black Metal

[/more]

Register
(19) 1968_janeart, Evilded, Ildjarn, kim666, Moonshtook, NachtWulf, Ostinato, Razorbladeswaltz, recber, Rosen, satanist666, SilentNidhogg, Sjelekval, SSBandera, stub888, VALERY, varg-38ru, varlam4, vasiljev_sergej,
Dec 14 2017, 13:31:09 Svartnatt - Ett Mörker Öppnar Sig (2014)


*Artist: Svartnatt
*Album: Ett Mörker Öppnar Sig
*Year: 2014
*Genre: Black Metal
*Country: Sweden
*Format: mp3@CBR320kbps
*Size: 65MB

Tracklist:
1. Evig Vila I Gravens Djup
2. Kristet Hat
3. Ett Mörker Öppnar Sig
4. Svartnatt
5. Drunken Retards
******************************
Total playing time: 32:28

[more=Technical info]
Input File: 01 - Evig Vila I Gravens Djup.mp3
Channels : 2
Sample Rate : 44100
Precision : 16-bit
Duration : 00:05:15.67 = 13920871 samples = 23675 CDDA sectors
File Size : 12.9M
Bit Rate : 327k
Sample Encoding: MPEG audio (layer I, II or III)
Comments :
Title=Evig Vila I Gravens Djup
Artist=Svartnatt
Album=Ett Mörker Öppnar Sig
Tracknumber=1/5
Year=2014
Genre=Black Metal

[/more]

Register
(21) 1968_janeart, Blut aus Nord, Carcharoth, Evilded, Ildjarn, kim666, Moonshtook, NachtWulf, Ostinato, recber, Rosen, satanist666, SilentNidhogg, Sjelekval, stub888, toly1917, VALERY, varg-38ru, varlam4, vasiljev_sergej, ZA670,

- Lo-Fi Version Support form
Copyrights and abuse reports form
Time is now: 15th July 2024 - 21:42:20