Welcome Guest ( Log In | Register )

История благодарностей участнику An225 ::: Спасибо сказали: 442 раз(а)
Дата поста: В теме: За сообщение: Спасибо сказали:
Jan 6 2019, 16:23:53 Harakiri For The Sky - Arson (2018)
One of the best Post-Black Metal Bands!
pray.gif
(1) MeatWolf,
Dec 23 2018, 21:42:45 An Autumn For Crippled Children - Trust [ep] (2017)
I like this band! Good release. m0114.gif
(1) Dante_D,
Nov 27 2018, 21:55:35 Summoning - With Doom We Come (2018)
Some lyrical themes: J.R.R. Tolkien
(1) Izverg,
Nov 12 2018, 20:12:59 Kreator - Gods Of Violence (2017)
Not realy good. It´s too modern, too commercial. 16.gif
(2) babanguida, vosmidesijatye,
Nov 5 2018, 20:04:42 Domestikwom - A Peace That Destroys (2017)
I can not do anything with it. Strange art.
(1) babanguida,
Oct 26 2018, 17:22:18 Ekpyrosis - Deathtrips [ep] (2018)
FLAC
Register


You have to hear it often and loud it's hypnotic.
(4) helvetesrike, Olethros, Shagarth21, vasiljev_sergej,
Oct 26 2018, 16:43:45 Ekpyrosis - Deathtrips [ep] (2018)


*Artist: Ekpyrosis
*Album: Deathtrips [ep]
*Year: 2018
*Genre: Instrumental Avant-Garde Black Metal
*Country: Germany
*Format: mp3@CBR320kbps
*Size: 41MB

Tracklist:
1. Forest of Destruction I 03:13
2. Death by Darkness 03:02
3. Tower of Life 02:48
4. Killing Shadow 02:22
5. First Star 02:49
6. Forest of Destruction II 03:53
******************************
Total playing time: 18:07

[more=Technical info]
Input File: 01 - Forest of Destruction I.mp3
Channels : 2
Sample Rate : 44100
Precision : 16-bit
Duration : 00:03:13.08 = 8515004 samples = 14481.3 CDDA sectors
File Size : 7.91M
Bit Rate : 328k
Sample Encoding: MPEG audio (layer I, II or III)
Comments :
Title=Forest of Destruction I
Artist=Ekpyrosis
Album=Deathtrips
Tracknumber=1
Year=2018

[/more]

Register
(16) 1968_janeart, artscald, dvlz, helvetesrike, legion01, metala, r1348, rammmirez, Rosen, satanist666, Soulgrinder, stub888, Stutthof, varg-38ru, vov7609, yuratroll,
Sep 22 2018, 18:55:15 Summoning - With Doom We Come (2018)
QUOTE(babanguida @ Sep 22 2018, 12:31:56) *
that's what this band is about bye.gif

Yes! And they are good!
(3) Antichrist, babanguida, infiltrator,
Sep 21 2018, 20:25:32 Summoning - With Doom We Come (2018)
Very much programming and keys 16.gif
(2) infiltrator, MeatWolf,
Sep 1 2018, 20:32:42 Blaze Of Perdition - Conscious Darkness (2017)
Great Black Metal!
true_black.gif true_black.gif
(1) Antichrist,
Aug 29 2018, 15:59:33 Scour - Red [ep] (2017)
Very good Black Metal! A black pearl. true_black.gif true_black.gif
(2) infiltrator, smes,
Aug 20 2018, 20:34:51 Watain - Nuclear Alchemy [single] (2017)
QUOTE(babanguida @ Oct 31 2017, 20:37:30) *
Doesn't sound as bad and mainstream as their last album.

Disappointing sound.
(1) babanguida,
Jul 30 2018, 20:15:22 Vritrahn-Werwolf - HTTIDAT/ICMCS [ep] (2017) (1) dorn1,
Jul 16 2018, 17:36:19 Blut Aus Nord - Deus Salutis Meæ (2017)
Very occult, mystic Black Metal! Wonderful. true_black.gif true_black.gif true_black.gif
(2) babanguida, infiltrator,
Jun 25 2018, 18:18:26 Vassafor - Malediction (2017)
Very occult, ritual. Good!
true_black.gif true_black.gif
(4) Antichrist, babanguida, infiltrator, Occultas,
Jun 22 2018, 20:40:53 Altarage - Endinghent (2017)
Horny, they torture her guitars! true_black.gif true_black.gif true_black.gif
(1) Mencae77,
May 12 2018, 22:13:16 Hazzerd - Misleading Evil (2017)
QUOTE(Jahmephisto @ Sep 18 2017, 19:50:55) *
Копия Destruction 2017

No not copy. They are also good!
(1) Samaritianin,
Feb 23 2018, 19:24:48 Persecutory - Towards The Ultimate Extinction (2017)
No good sound quality. VBR 224 kbps is shit
(1) Occultas,
Feb 9 2018, 22:13:29 Misanthrope Monarch - Regress To The Saturnine Chapter (2017)
This guys should be satisfied so that they become known!
(2) Samaritianin, samokot,
Jan 18 2018, 21:16:09 Duskmourn - Of Shadow And Flame (2017)
Each song the same scheme.

(1) MeatWolf,
Jan 7 2018, 19:22:17 Ungeziefer - Trauerbunker [demo] (2015)
Noise - Raw Black
(1) rickzammuto,
Jan 7 2018, 19:21:43 Necrot - Blood Offerings (2017)
Very good. Like it.
(2) Occultas, Samaritianin,
Dec 21 2017, 20:26:04 Hordagaard & Mork & Dauden & Drudensang - Hordagaard/Mork/Dauden/Drudensang [split] (2015)
It is a pity: Not 320 kbps. 6.gif
(1) ZeroIISum,
Dec 12 2017, 17:05:37 Plague Phalanx - Iniquitous Eugenics (2017)
Very good masacre!
dwarf-1.gif dwarf-1.gif
(1) Samaritianin,
Nov 22 2017, 19:35:16 Outrage - And The Bedlam Broke Loose (2017)
Absolutely great!
Beer, thrash and sex. That's real life.
metaler.gif metaler.gif metaler.gif
(1) DarkHorde,

8 Pages V  < 1 2 3 4 > » 
- Lo-Fi Version Support form
Copyrights and abuse reports form
Time is now: 2nd March 2024 - 23:22:51