Welcome Guest ( Log In | Register )

История благодарностей участнику Kwaad ::: Спасибо сказали: 2575 раз(а)
Дата поста: В теме: За сообщение: Спасибо сказали:
Dec 1 2022, 03:54:21 Šakal - Jav, Prav, Nav (2022)


*Artist: Šakal
*Album: Jav, Prav, Nav
*Year: 2022
*Genre: Pagan Black Metal
*Country: Serbia
*Format: mp3@CBR320kbps
*Size: 91MB

Tracklist:
1. Himna Mrtvih Bogova (1168) 00:00
2. Koledo 04:29
3. Ja i Crnobog 09:29
4. Dok gorim 15:00
5. Kad Bogovi spavaju 20:38
6. Stvaranje Svetova 24:30
7. Dunav 32:02
******************************
Total playing time: 1:46:08




[more=Extended info]Очень хороший альбом.[/more]

[more=Technical info]
Input File: Šakal - Jav, Prav, Nav - 02 Koledo.mp3
Channels : 2
Sample Rate : 44100
Precision : 16-bit
Duration : 00:05:00.09 = 13233749 samples = 22506.4 CDDA sectors
File Size : 12.2M
Bit Rate : 325k
Sample Encoding: MPEG audio (layer I, II or III)
Comments :
Title=Koledo
Artist=Šakal
Album=Jav, Prav, Nav
Tracknumber=2
Year=2022

[/more]

Register
(3) robertho777, Wilczygniew Strzygoń, Сварог Барг,
Nov 23 2022, 11:22:14 Te Deum - Reflexia (2022)
Охтыж... они ещё живы!

UPD. Молодцы. Очень недурно и вполне узнаваемо спустя 20 лет.
(3) emp8080, karut, nsk2008,
Nov 16 2022, 20:58:55 Remina - Strata (2022)
О , вот это ISON здорового человека.
Очень приятный альбом, музыка действительно будто оборачивается вокруг голоса Хайке.
(1) Krosis,
Nov 10 2022, 17:05:08 Drudkh - Всі Належать Ночі (2022)
QUOTE(Black Cat @ Nov 10 2022, 15:15:56) *
По сути, отличия в том, что самые пассионарные из "любителей 1/7 суши" 9 месяцев назад пришли сюда убивать в том числе конкретно тебя, а, благодаря самым пассионарным из "скатившихся в обычный национализм", ты сейчас, вполне вероятно, в принципе можешь высказывать какое-то свое мнение (если, конечно, не провел последние 9 месяцев за границей, уж больно риторика идентична).

И ты реально, разбрасываясь обвинениями в глупости, не видишь, что эти вещи взаимосвязаны напрямую? На дворе 2022-ой, быть таким всем "нестадным" и "объективным" круто, только если ты живешь в р̶о̶з̶о̶в̶о̶м̶ ̶м̶а̶н̶я̶ ̶м̶и̶р̶к̶е̶ ̶и̶з̶ ̶к̶н̶и̶ж̶е̶к̶ ̶п̶р̶о̶ ̶в̶с̶е̶ ̶х̶о̶р̶о̶ш̶е̶е̶,̶ ̶п̶р̶о̶т̶и̶в̶ ̶в̶с̶е̶г̶о̶ ̶п̶л̶о̶х̶о̶г̶о̶ развитой западной демократии с высоким уровнем жизни.

К сожалению, ты скатываешься в обычный "не все так однозначно".
Во-первых, я не говорил, что "не всё так однозначно", не перекручивай. Для меня вполне однозначно, что есть уроды, которые пришли сюда и есть диванные ублюдки, которые их поддерживают - да, их много. Есть те, кому просто пофиг. Но есть и те, кто против безумия, хотя бы внутри себя. Уродство и адекватность не имеют национальных или государственных границ. Именно по этому параметру я и оцениваю людей, не по паспорту или языку.
Но когда мне со всех щелей говорят, что нужно на самом деле судить по паспорту и языку - я это и называю глупостью. Когда мне наши диванные патриоты говорят, что дело на самом деле в языке или в истории - так это ровно то, что в феврале заявляла плешивая полторашка (будто ему есть какое-то дело до языка).

Во-вторых, цивилизованный западный мир нас начал поддерживать в том числе и потому, что мы заявили о стремлении к их ценностям. Для них Украина - осколок совка, никому не нужный и не интересный, который захотел перестать быть этим самым совком и захотел жить и думать свободно. В тот момент, когда мы, как коллектив, от этих ценностей отказываемся, предпочитая окуклиться в собственной любимой нации, мы, как коллектив, цивилизованному миру перестаём быть интересны. У них и своих проблем полно.
Украина не пуп земли, украинцы не "особый народ со своей великой миссией", как бы кто не считал. А то так и до бредней Дрыстовича не далеко.
Ещё раз. Есть человек, есть нация, есть государство — и это 3 разные понятия.
И, в третьих, я ни в какую заграницу не сваливал, если это имеет значение. То, как я думаю, я выстроил ещё задолго до войны и отказываться от себя в угоду модным течениям я не намерен.
(3) BleedingSun, ent404, greyhound,
Nov 9 2022, 23:25:53 Drudkh - Всі Належать Ночі (2022)
QUOTE(valash @ Nov 9 2022, 23:59:08) *
Угарно наблюдать за комплексующими лимитрофами. Перемогають Мордор прописными буквами.


Да просто очередная глупость, коих сейчас всё больше. К сожалению, у нас всё скатывается в обычный национализм. Эти все стадные обобщения по "вы все плохие" и "мы все хорошие", не видя за этим "мы" и "вы" людей и не оценивая адекватность отдельного человека, по сути ничем не отличаются от любителей помастурбировать на "1/7 суши", "великую культуру", империализм, "могучий союз" и прочую коллективную хрень.
И я не про саму войну и необходимость выживания коллектива в целом, я про то, что у многих напрочь отшибает мозги.


А если про альбом, то он ожидаемо приятный и атмосферный, но без изысков.
(12) 6666666, aesteticvice, avather, Baal88, cesar, Dirt_ORFEY, ent404, realexxx75, Samaritianin, SAPOGi, suseka, valash,
Nov 5 2022, 10:29:08 I, Of The Trees And Wind - Cry Of The Forest (2022)


*Artist: I, Of The Trees And Wind
*Album: Cry Of The Forest
*Year: 2022
*Genre: Atmospheric Black Metal/Ambient
*Country: International
*Format: mp3@CBR320kbps
*Size: 86MB

Tracklist:
1. Cry of the Forest 12:48
2. Of Sorrow, Sadness, Mysticism & Death 07:38
3. The Magic I Was Promised Will Never Come to Me 05:52
4. The Seer of the Ancient 11:00
******************************
Total playing time: 37:18



[more=Extended info]Атмосферный медитативный "лесной" БМ.[/more]

[more=Technical info]
Input File: 02 - Of Sorrow, Sadness, Mysticism & Death.mp3
Channels : 2
Sample Rate : 44100
Precision : 16-bit
Duration : 00:07:38.08 = 20201416 samples = 34356.1 CDDA sectors
File Size : 18.5M
Bit Rate : 323k
Sample Encoding: MPEG audio (layer I, II or III)
Comments :
Title=Of Sorrow, Sadness, Mysticism & Death
Artist=i, of the trees and wind
Album=Cry of the Forest
Tracknumber=2
Year=2022

[/more]

Register
(24) aleon, AlexSmith, artscald, autumnwood, Carcharoth, Dante_D, Grev, kim666, Kodel, Korpse, metaljosue, nemx, randumbum, robertho777, SilentNidhogg, stormhatt, supremo, v.v.m, varlam4, Velemysl, vlad74, wreak, Xutun, zobero,
Nov 4 2022, 13:27:56 Mist Of Misery - Severance (2022)
Чудесно! Повеяло старым добрым Estatic Fear
Иду качать диско (с)
(1) woldemort,
Aug 11 2022, 10:37:30 The Halo Effect - The Needless End [single] (2022)
Это какой-то усреднённый за последние пару десятков лет ДТ. Только ДТ всё же чуточку поживее будет.
(1) BleedingSun,
Aug 6 2022, 11:03:00 Eidkameraden - Eidkameraden (2022)
QUOTE(INDARKNESS @ Aug 6 2022, 12:23:46) *
По большому счету увлечение и изучение музыки, не освобождает вас от собственной вкусовщины тем более.Это лишь помогает вам отстаивать собственные интересы иногда очень наглым образом, заранее видя в оппоненте по спору человека, который обязательно знает меньше тебя.А по факту ты отстаиваешь просто свой вкус, который по большому счету кроме как тебе никому и не нужен...а это значит что? Не мое дело.Я не против новых музыкальных опытов, но вы и сами должны понимать, что этот, как ты сказал пробел, так же и останется пробелом и пожалуй он будет лишь увеличиваться со временем, поскольку достаточно неплохая слушательская базировка, начинает подкидывать огромный объем с которым по времени совладать уже становится невозможно.И как раз таки здесь и появляется некоторая трактовка о бессмысленности новых музыкальных опытов, даже на избирательном уровне их процентная ставка понижается, пока не обратится в ноль за которым можно отправляться слушать джаз или классику на полную катушку.Пользователи отсюда знакомы с этими стилистическими направлениями , и некоторые далеко не так как это представляется тебе. Просто вняв своему уму не многие хотят тратить время на бессмысленные споры с неким человеком из интернета.И действительно много ли может знать о музыке человек прожив 30-40 лет.Я бы сказал что не очень, тебя ещё даже распинать рано. шучу.
Очень милые логические проколы.
1. Как вообще можно сравнивать паспортный возраст с музыкальным опытом (что бы в эту фразу не вкладывалось)? Жизненный опыт (с точностью до определения) — ок, он ещё как-то может кореллировать с паспортом, если человек все свои N десяток лет действительно жил, путешествовал, интересовался миром вокруг, разными его гранями.
Но музыкальная база знаний и оценок (равно как и какая-нибудь другая специфическая) формируется исключительно на собственном интересе к музыке, на том же желании слушать разное, категоризировать, узнавать, выстраивать параллели и в первую очередь развивать собственные вкусы.
Более того, если человек в свои N лет говорит, что всё современное есть хрень, а "раньше было лучше" или "только в 90-х была настоящая музыка", то такой человек банально не хочет воспринимать и пытаться хотя бы понять современные веяния. Говорить о расширении его опыта бессмысленно.

2. Как вообще можно отделить опыт от оценок ("вкусовщины") в данном контексте? Что тогда есть опыт? просто информация о том, то некий Вася убил некоего Колю, сжёг две церкви и пару раз сотворил разврат?
(1) 6666666,
Jul 28 2022, 19:25:04 Belphegor - The Devils (2022)
Совсем спились, бедняги. Кроме как унылым взблёвом это и не назовёшь. Totentanz ещё куда ни шла, остальное я не знаю, зачем записывали. Елозили по гитарке, кричали на микрофон, долбили по бочкам; кто-то даже сводил эти фекальные потоки в одну каловую массу - зачем?
(2) RUSP73, SatanMy_Master,
Jul 2 2022, 23:38:36 Meander Margo - Белый Шум (2020)


*Artist: Meander Margo
*Album: Белый Шум
*Year: 2020
*Genre: Symphonic Metal/Rock
*Country: Moldova
*Format: mp3@CBR320kbps
*Size: 113MB

Tracklist:
01. Чистый лист 05:04
02. Дорога в безумие 05:14
03. Лица 05:16
04. Нарисовала 05:14
05. Неба край 04:06
06. Перерождение 04:39
07. Ветру навстречу 04:06
08. Я просила 04:58
09. Ностальгия 04:20
10. Просыпайся 04:43
******************************
Total playing time: 47:40




[more=Extended info]Country: Moldova/Italia
Инкарнация группы Offertorium, но на дебютник, к сожалению, не похоже.[/more]

[more=Technical info]
Input File: Meander Margo - Belyy Shum - 01 Chistyy list.mp3
Channels : 2
Sample Rate : 44100
Precision : 16-bit
Duration : 00:05:04.53 = 13429597 samples = 22839.5 CDDA sectors
File Size : 12.4M
Bit Rate : 325k
Sample Encoding: MPEG audio (layer I, II or III)
Comments :
Title=Chistyy list
Artist=Meander Margo
Album=Belyy Shum
Tracknumber=1
Year=2020

[/more]

Register
(9) artscald, caro, Cartman223, chipsgott, gwar, MetalW, Olethros, wreak, Сварог Барг,
Jun 23 2022, 14:13:39 Saor - Origins (2022)
Какая же скучная и безликая хрень. Как дважды пережёванное и переваренное сено с шотландских лугов. До первых своих альбомов ему как до кельтов — это было давно и неправда.
(1) apries,
May 23 2022, 17:26:05 Жуда - II. Десакрализация (2022)
Пуще террориста злого государь боится слова десакрализация (с) Дореволюционный Советчик
(1) Falx,
May 7 2022, 11:36:17 Кровь На Алтаре - Безысходность (2005)
QUOTE(SchwarzerTod666 @ Mar 3 2022, 09:08:12) *
Reupload please?


Here it is:
Register

(1) WOLAND,
May 4 2022, 12:22:46 Elegeion - Plight Of The Heretic (2022)
Давно таких хороших работ не слышал. Sombre Skies выше всяческих похвал.
(1) nsk2008,
Feb 22 2022, 12:59:18 Russland Negativism - Delirium Gnostica [ep] (2022)
QUOTE
Russland Negativism
Porcus Insanium

Поржал с названий.
(2) nsk2008, vosmidesijatye,
Feb 16 2022, 21:12:46 Pure Wrath - Hymn To The Woeful Hearts (2022)
Этот индонезиец и раньше радовал, а здесь так вообще шедевр. Выше всяческих похвал.
(1) Andrew,
Dec 15 2021, 21:31:51 Secrets Of The Moon - Black House (2020)
Хрень. Разочарован.
Я вовсе не против готики и экспериментов, но на данном альбоме можно слушать буквально два с половиной трека: Cotard (привет передайзам), Veronica's Room и немного Sanctum. Остальное - пустой взблёв.
(1) 6666666,
Nov 1 2021, 23:11:02 Anti - Anti (2021)
QUOTE(WOLAND @ Nov 1 2021, 15:17:05) *
Кто вам сказал что это чистый депрессив и группа будет шпилить его на старом рецепте после реньуона. Мне вообше кстати все-равно , спорить не буду...


Какая разница, какую этикетку наклеить, если содержимое пресный второсорт?
(1) Qliphoth,
Sep 27 2021, 20:22:39 Alyona Vargasova - Journey Through The Milky Way [ep] (2021)


*Artist: Alyona Vargasova
*Album: Journey Through The Milky Way [ep]
*Year: 2021
*Genre: Instrumental Rock
*Country: Russian Federation
*Format: mp3@CBR320kbps
*Size: 42MB

Tracklist:
1.Journey Through the Milky Way 04:07
2. Dancing With a Black Hole 03:27
3. Whisper of Distant Stars 05:08
4. Spiral River of Light 03:15
******************************
Total playing time: 15:57




[more=Extended info]Очень красивый и техничный гитарный инструментал.

[youtube]vP8o62akJQc[/youtube][/more]

[more=Technical info]
Input File: Alyona Vargasova - Journey Through the Milky Way - 04 Spiral River of Light.mp3
Channels : 2
Sample Rate : 44100
Precision : 16-bit
Duration : 00:03:15.75 = 8632399 samples = 14681 CDDA sectors
File Size : 7.92M
Bit Rate : 324k
Sample Encoding: MPEG audio (layer I, II or III)
Comments :
Title=Spiral River of Light
Artist=Alyona Vargasova
Album=Journey Through the Milky Way
Tracknumber=4
Year=2020

[/more]

Register
(3) A.L.Rapsod, dimitriusk, Olethros,
Aug 27 2021, 01:19:20 Wormwood - Arkivet (2021)
Хороший, годный альбом: мелодично, напористо, атмосферно, а роковые вставки вообще тащат нереально - очень в тему и делают треки изысканнее.
(1) smes,
Aug 1 2021, 01:48:30 Lantlôs - Wildhund (2021)
Какая же хрень... 22.gif Качал по старой памяти, услышал дрянную панкуху.

QUOTE
альтернативных способов

В современном мире всякое дeрьмо принято называть "альтернативным способом".
(1) Leolomb,
May 22 2021, 13:18:55 Impure Wilhelmina - Antidote (2021)
Хороший, годный альбом. Трек Gravel - прям The Ocean в лучшие свои годы.
(2) infiltrator, judaz,
May 3 2021, 09:52:53 Uratsakidogi - Black Hop. Epos (2021)
QUOTE(RUSP73 @ May 2 2021, 23:55:41) *
На первое прослушивание - ни одного потенциального хита, все ровненько-средненько-повторно....Пожалуй, выделю только "9 бонгов"...точно еще не раз послушаю, но по-моему поспешили с выпуском...наклепали по накатанной. "Делай бабки пока горячо" - но не прокатило, а жаль 6.gif


Соглашусь. 9 бонгов - первое, что запало, дальше выделил для себя Эпос. И всё smile2.gif
Выглядит куда менее интересным блэк-хоп деюбютника (не скажу, что на нём каждая песня была хитом, но общий градус упоротости побольше был). Тексты в целом слабее, жести уровня "Чувствуешь" нету.
(1) Сварог Барг,
Feb 23 2021, 01:04:48 Lucifugum - Tri Nity Limb Ritual (2020)
Не перестаю удивляться, как им самим не надоедает. Из года в год один и тот же яд-xyяд.
Былой язвости и след простыл, осталась лишь гнойная отрыжка семейных драм, гордо именуемая "пропагандой". Да им до пропаганды... 21.gif

Каждый раз качаю по старой памяти, проскролливаю, плююсь и забываю на следующие пару лет. Наверное, так и было задумано. Наверное, в этом и заключается "яд", бережливо ими сцеживаемый с комментариев слушателей.

Убогость и бездарность.
(9) Brann, DeadViper, Hexer, infiltrator, kessler, KVRT, mondlicht, nsk2008, Storky,

28 Pages V   1 2 3 > » 
- Lo-Fi Version Support form
Copyrights and abuse reports form
Time is now: 3rd December 2022 - 00:34:49