Welcome Guest ( Log In | Register )

История благодарностей участнику Samaritianin ::: Спасибо сказали: 248976 раз(а)
Дата поста: В теме: За сообщение: Спасибо сказали:
Yesterday, 20:58:44 Neurotic Machinery - Nocturnal Misery (2020)


*Artist: Neurotic Machinery
*Album: Nocturnal Misery
*Year: 2020
*Genre: Progressive Death Metal
*Country: Czech Republic
*Format: mp3@CBR320kbps
*Size: 87MB

Tracklist:
01. Nocturnal
02. Oblivion
03. Slave
04. Uprising
05. Beneath the Sun
06. What Remains
07. Universe
08. Empty
09. Deceit
******************************
Total playing time: 38:00


Preview 2


[more=Extended info]Martin Janů Bass
Martin Bárta Drums
See also: Born in Pripyat
Michal Sedivy Guitars
See also: ex-Neron, ex-Animal Hate, ex-Hate Sick, ex-Something Like
Aleš Haník Guitars
Ondřej Uhlíř Vocals
See also: ex-Neron
Jan Pilík Vocals
See also: Insanidroid, Ydintalvi
[youtube]euEwPIemxJU[/youtube]
[youtube]P41qDrpSVIs[/youtube][/more]

[more=Technical info]
Input File: 04 - Uprising.mp3
Channels : 2
Sample Rate : 44100
Precision : 16-bit
Duration : 00:04:06.84 = 10885820 samples = 18513.3 CDDA sectors
File Size : 9.90M
Bit Rate : 321k
Sample Encoding: MPEG audio (layer I, II or III)
Comments :
Title=Uprising
Artist=Neurotic Machinery
Album=Nocturnal Misery
Tracknumber=4
Year=2020-02-21
Genre=Metal
Discnumber=1

[/more]

Register
(5) AHBAnep, maochen, yuratroll, Луч, Сварог Барг,
Yesterday, 20:32:33 Bowel Stew - Putridarium (2020)


*Artist: Bowel Stew
*Album: Putridarium
*Year: 2020
*Genre: Brutal Death Metal
*Country: Italy
*Format: mp3@CBR320kbps
*Size: 79MB

Tracklist:
01. Scalped Alive with a Bone Awl
02. Penis-Mortifying Cilice
03. Teratomorphic Fetal Encystment
04. Umbilical Cord Strangulation
05. Pile of Human Mummified Remains
06. Crepitant Skeletal Disarticulation
07. Putridarium: Ubi Pus, Ibi Evacua
08. Fecal Embalment of the Vaginal Cavity
09. Slowly We Rot (Obituary cover)
******************************
Total playing time: 32:56




[more=Extended info]Riccardo Drums
Omar Guitars
Ambro Vocals
Vanni Bass[/more]

[more=Technical info]
Input File: 03. Teratomorphic Fetal Encystment.mp3
Channels : 2
Sample Rate : 44100
Precision : 16-bit
Duration : 00:03:29.88 = 9255796 samples = 15741.1 CDDA sectors
File Size : 8.77M
Bit Rate : 334k
Sample Encoding: MPEG audio (layer I, II or III)
Comments :
Title=Teratomorphic Fetal Encystment
Artist=Bowel Stew
Album=Putridarium
Tracknumber=3
Year=2020
Genre=Death/Goregrind

[/more]

Register
(4) atavist, maochen, older68, Penetralia,
Yesterday, 20:17:33 Architectural Genocide - Cordyceptic Anthropomorph (2020)


*Artist: Architectural Genocide
*Album: Cordyceptic Anthropomorph
*Year: 2020
*Genre: Brutal Death Metal
*Country: United States
*Format: mp3@CBR320kbps
*Size: 92MB

Tracklist:
1. Spires of Mangled Tissue 04:31
2. Hallucinogenic Demise 05:48
3. Dominate and Proliferate 04:21
4. Cordydeptic Anthropomorph 05:05
5. Gorge on Deceased 03:56
6. Pleasure Induced by Agony 05:41
7. Abolishment of Human Existence 05:18
8. Burgeoning Necrosis 05:03
******************************
Total playing time: 39:43




[more=Extended info]Jonathan Blake Guitars
Matt Day Bass
Nat Conner Drums
Daniel Brockway Vocals[/more]

[more=Technical info]
Input File: 04. Cordydeptic Anthropomorph.mp3
Channels : 2
Sample Rate : 44100
Precision : 16-bit
Duration : 00:05:05.60 = 13476960 samples = 22920 CDDA sectors
File Size : 12.3M
Bit Rate : 321k
Sample Encoding: MPEG audio (layer I, II or III)
Comments :
Title=Cordydeptic Anthropomorph
Artist=Architectural Genocide
Album=Cordyceptic Anthropomorph
Tracknumber=4/8
Year=2020
Genre=Brutal Death
Discnumber=1/1

[/more]

Register
(4) atavist, metala, older68, Olethros,
Yesterday, 19:52:22 Ravendark - The Art Of Execution (2020)


*Artist: Ravendark
*Album: The Art Of Execution
*Year: 2020
*Genre: Heavy/Thrash Metal
*Country: Colombia
*Format: mp3@CBR320kbps
*Size: 135MB

Tracklist:
01. (I Am) the Plague
02. Rise of the Ever-Living (Ancient Evil Spirits Part I)
03. Breath of Anger (Ancient Evil Spirits Part II)
04. And the Cure Was the Sickness
05. Faena Homicida
06. Everything from Nothing
07. Miseria, Más Allá De La Muerte
08. Executioner
******************************
Total playing time: 58:40



[more=Extended info]Brayan Calvo Guitars
Juan Giraldo Guitars
Sergio Zapata Drums (2002-present)
See also: Atria
Jorge Echeverry Bass (2003-present)
Andrés Puerta Vocals (2005-present)
See also: Atria
[youtube]aNvN6Kz2iVU[/youtube]
[youtube]8t_OPadCV_I[/youtube][/more]

[more=Technical info]
Input File: 03. Breath of Anger (Ancient Evil Spirits Part II).mp3
Channels : 2
Sample Rate : 44100
Precision : 16-bit
Duration : 00:07:07.83 = 18867479 samples = 32087.5 CDDA sectors
File Size : 17.2M
Bit Rate : 323k
Sample Encoding: MPEG audio (layer I, II or III)
Comments :
Title=Breath of Anger (Ancient Evil Spirits Part II)
Artist=Ravendark
Album=The Art of Execution
Tracknumber=3
Year=2020-02-22
Discnumber=1

[/more]

Register
(7) aviacademy, boby9052, metala, Olethros, postal67, stumpheavyrock, Сварог Барг,
Yesterday, 19:30:42 Ashes Of Life - Seasons Within (2020)


*Artist: Ashes Of Life
*Album: Seasons Within
*Year: 2020
*Genre: Gothic/Doom Metal
*Country: Portugal
*Format: mp3@CBR320kbps
*Size: 102MB

Tracklist:
1. Shores 10:46
2. Spiral Down 04:05
3. Burn 06:40 instrumental
4. Autumn Days 07:05
5. Tried to Leave 07:39
6. Dying in the Snow 07:27
******************************
Total playing time: 43:42




[more=Extended info]Luis Pinto Guitars
Tiago Silva Vocals (clean), Guitars, Bass, Programming
Stefan Nordström Vocals (harsh)[/more]

[more=Technical info]
Input File: 02 - Spiral Down.mp3
Channels : 2
Sample Rate : 44100
Precision : 16-bit
Duration : 00:04:05.49 = 10826065 samples = 18411.7 CDDA sectors
File Size : 10.2M
Bit Rate : 332k
Sample Encoding: MPEG audio (layer I, II or III)
Comments :
Title=Spiral Down
Artist=Ashes Of Life
Album=Seasons Within
Tracknumber=2
Year=2020

[/more]

Register
(6) kimkayoung, metala, Olethros, postal67, respect, Sanctus,
Yesterday, 17:59:17 Abisme - As Fear Falls In (2020)


*Artist: Abisme
*Album: As Fear Falls In
*Year: 2020
*Genre: Death/Black Metal
*Country: Spain
*Format: mp3@CBR320kbps
*Size: 91MB

Tracklist:
1. Amoral Era 07:51
2. Hive 03:52
3. Gateless Call 05:20
4. What Open Eyes Brings 06:56
5. Sins 07:38
6. The Struggle 07:47
******************************
Total playing time: 39:24




[more=Extended info]Uri Bass
Death Parian Drums
Joan Gau Guitars, Vocals
See also: Disgracer
Anna Vidal Guitars, Vocals (2017-present)
See also: Khaos Origin, Perennial Isolation (live), ex-Inhuman Creation, ex-Immorgon
[youtube]R-7kEjyy6O0[/youtube][/more]

[more=Technical info]
Input File: 03. Gateless Call.mp3
Channels : 2
Sample Rate : 44100
Precision : 16-bit
Duration : 00:05:20.62 = 14139386 samples = 24046.6 CDDA sectors
File Size : 13.0M
Bit Rate : 324k
Sample Encoding: MPEG audio (layer I, II or III)
Comments :
Title=Gateless Call
Artist=Abisme
Album=As Fear Falls In
Tracknumber=3
Year=2020
Discnumber=1

[/more]

Register
(8) 0x13, atavist, Korpse, metala, Olethros, Ostinato, Sanctus, suseka,
Yesterday, 00:31:38 Sentient Divide - Haunted By Cruelty (2020)


*Artist: Sentient Divide
*Album: Haunted By Cruelty
*Year: 2020
*Genre: Old School Death/Black Metal
*Country: United States
*Format: mp3@CBR320kbps
*Size: 68MB

Tracklist:
1. Haunted by Cruelty 07:41
2. Ancient Dominion 05:53
3. Spear and Snare 04:49
4. Eternal Conviction 04:59
5. Sacred Kill 04:45
******************************
Total playing time: 28:07




[more=Extended info]W. Gray Bass, Vocals
J. May Drums
A. Strobel Guitars, Vocals, French horn
J. Shaw Guitars[/more]

[more=Technical info]
Input File: 02. Ancient Dominion.mp3
Channels : 2
Sample Rate : 44100
Precision : 16-bit
Duration : 00:05:53.12 = 15572548 samples = 26483.9 CDDA sectors
File Size : 14.8M
Bit Rate : 334k
Sample Encoding: MPEG audio (layer I, II or III)
Comments :
Title=Ancient Dominion
Artist=Sentient Divide
Album=Haunted by Cruelty
Tracknumber=2
Year=2020
Genre=Death Metal

[/more]

Register
(26) andreikun, atavist, caro, desekrator, Doooomed, infiltrator, Korpse, Leshiy666, metala, Olethros, raattent, sacredserenity, sagratan, satanist666, Satyr, sergsazan, stumpheavyrock, suseka, Tino, VALERY, vasiljev_sergej, Wail, wanderer73, wgs73, Wolftribes, zhol,
Feb 21 2020, 20:01:31 Mjød - Шёпот Последней Зимы (2020)


*Artist: Mjød
*Album: Шёпот Последней Зимы
*Year: 2020
*Genre: Viking/Folk Metal
*Country: Russian Federation
*Format: mp3@CBR320kbps
*Size: 95MB

Tracklist:
1. Шёпот последней зимы
2. Мелодия смерти
3. В бледных объятиях
4. Сны глупца
5. Безвозмездная кара
6. Мертвецы чувствуют голод (Intro)
7. Мертвецы чувствуют голод
8. В забытой реке
9. Голос фьордов
10. Предел
******************************
Total playing time: 41:53



Preview 3

[more=Extended info]Orm Bass (2016-2018), Guitars (2018-present)
Sigurðr Drums (2016-present)
See also: ex-Ulfdallir, ex-Dedth (live)
Jorðleifr Guitars, Vocals (2016-present)
See also: Restless Mind (live), ex-Ulfdallir (live)
Ranðgrið Bagpipes (2017-present)
Johann Thjotvaldrson Bass (2018-present)
[youtube]nd-fucMU6-0[/youtube][/more]

[more=Technical info]
Input File: 04 - Сны Глупца.mp3
Channels : 2
Sample Rate : 44100
Precision : 16-bit
Duration : 00:04:03.00 = 10716300 samples = 18225 CDDA sectors
File Size : 9.72M
Bit Rate : 320k
Sample Encoding: MPEG audio (layer I, II or III)
Comments :
Title=Сны Глупца
Artist=Mjød
Album=Шёпот Последней Зимы
Tracknumber=4
Year=2020
Genre=Metal

[/more]

Register
(16) Aresson, ASkyThatBurns, Branis, chipsgott, Druidir, infiltrator, Moonshtook, Olethros, Olrak, satanist666, serjred, thenecromancer, VALERY, wanderer73, wn129aa, Сварог Барг,
Feb 21 2020, 19:16:03 Unfaithfull - Aeon (2020)


*Artist: Unfaithfull
*Album: Aeon
*Year: 2020
*Genre: Melodic Death Metal
*Country: Italy
*Format: mp3@CBR320kbps
*Size: 125MB

Tracklist:
01. Aeon
02. Evolution Mediocrity
03. Chain Reaction
04. The Wrong Code
05. E-Motion
06. Avoid The Mirror
07. Fading Away
08. Ethernal Recurrence
******************************
Total playing time: 54:06




[more=Extended info]Titta Bass
See also: Head In Pollution, ex-Krygar, ex-Self Human Combustion
Canta Guitars
See also: Unsylence
Drew Guitars (2007-present)
See also: ex-Shiver, ex-Cyneris
Dez Drums (2016-present)
See also: Onirik[/more]

[more=Technical info]
Input File: 04 - The Wrong Code.mp3
Channels : 2
Sample Rate : 44100
Precision : 16-bit
Duration : 00:05:45.13 = 15220013 samples = 25884.4 CDDA sectors
File Size : 13.9M
Bit Rate : 323k
Sample Encoding: MPEG audio (layer I, II or III)
Comments :
Title=The Wrong Code
Artist=Unfaithfull
Album=Aeon
Tracknumber=4
Year=2020-02-21
Genre=Metal
Discnumber=1

[/more]

Register
(11) ASkyThatBurns, chipsgott, infiltrator, metalwoman, Olethros, sadmannn, suseka, VALERY, wn129aa, zhol, Сварог Барг,
Feb 21 2020, 18:26:10 Theophagist - I Am Abyss (2020)


*Artist: Theophagist
*Album: I Am Abyss
*Year: 2020
*Genre: Death/Black/Thrash Metal
*Country: Luxembourg
*Format: mp3@CBR320kbps
*Size: 99MB

Tracklist:
01. Cannibal Preacher
02. Burn That Witch
03. Recipe for Human Cake
04. Awakening The...
05. Terrors from the Deep
06. Epileptic Seizure
07. R.I.S.E.
08. Adeptus Astartes
09. Agony of Christ Upon the Cross
10. Apocalypse (Redux)
******************************
Total playing time: 43:13




[more=Extended info]Jo - Guitar,
Tiago - Guitar,
Sven - Vocals,
Ben - Bass,
Michel - Drums[/more]

[more=Technical info]
Input File: 05. Terrors from the Deep.mp3
Channels : 2
Sample Rate : 44100
Precision : 16-bit
Duration : 00:06:24.83 = 16971179 samples = 28862.5 CDDA sectors
File Size : 15.5M
Bit Rate : 322k
Sample Encoding: MPEG audio (layer I, II or III)
Comments :
Title=Terrors from the Deep
Artist=Theophagist
Album=I Am Abyss
Tracknumber=5
Year=2020
Genre=Metal

[/more]

Register
(19) AHBAnep, ASkyThatBurns, atavist, boby9052, chipsgott, Diflock, infiltrator, Korpse, metala, older68, Olethros, Ostinato, sagratan, satanist666, stumpheavyrock, suseka, vasiljev_sergej, wanderer73, wgs73,
Feb 21 2020, 04:22:49 Simplefast - Eternal (2020)


*Artist: Simplefast
*Album: Eternal
*Year: 2020
*Genre: Heavy/Thrash Metal
*Country: Greece
*Format: mp3@CBR320kbps
*Size: 86MB

Tracklist:
1. Magnitude 02:08
2. The Liar's Truth 04:58
3. Nero Reborn 05:08
4. Destroyer 03:47
5. Atonement 05:56
6. Tension 04:28
7. Divine Prophecy 06:26
8. Eternal 04:16
******************************
Total playing time: 37:07



[more=Extended info]Nikolas Tzanavaras Bass
Stratos Midelias Drums
Hector Stavrakas Guitars (rhythm), Vocals (backing)
Yiannis Voulgaropoulos Vocals
Panos Zorg Guitars (lead)
[youtube]STluzViy4cU[/youtube]
[youtube]hCh2nW6OhKk[/youtube][/more]

[more=Technical info]
Input File: 03 - Nero Reborn.mp3
Channels : 2
Sample Rate : 44100
Precision : 16-bit
Duration : 00:05:08.76 = 13616360 samples = 23157.1 CDDA sectors
File Size : 12.5M
Bit Rate : 323k
Sample Encoding: MPEG audio (layer I, II or III)
Comments :
Title=Nero Reborn
Artist=SIMPLEFAST
Album=Eternal
Tracknumber=3
Year=2020-02-21
Genre=Metal
Discnumber=1

[/more]

Register
(10) aviacademy, caro, Diflock, infiltrator, metala, nospeedlimit, Olethros, Olrak, vir2al, wgs73,
Feb 21 2020, 03:11:33 Pikodeath - Insane (2017)


*Artist: Pikodeath
*Album: Insane
*Year: 2017
*Genre: Death/Thrash Metal
*Country: Czech Republic
*Format: mp3@CBR320kbps
*Size: 68MB

Tracklist:
1. Time to Die 03:45
2. Tausenden 03:09
3. Insane 03:10
4. Back to Beginning 03:44
5. Forgotten Pictures 03:00
6. Pigfuckers 03:15
7. Absolutely Overdose 04:07
8. Deflagratio 03:55
******************************
Total playing time: 28:05




[more=Extended info]Pepíno Guitars (1998-present)
See also: Livores Mortis, V.A.R.
Mačetazo Drums (2003-2005, 2011-present)
See also: ex-Act of God
Loppi Vocals (2011-present)
See also: ex-Carpe Noctum
FiDo Bass (2016-present)
[youtube]_dm0H-sE3Kk[/youtube][/more]

[more=Technical info]
Input File: 04. Back to Beginning.mp3
Channels : 2
Sample Rate : 44100
Precision : 16-bit
Duration : 00:03:44.00 = 9878400 samples = 16800 CDDA sectors
File Size : 9.47M
Bit Rate : 338k
Sample Encoding: MPEG audio (layer I, II or III)
Comments :
Title=Back to Beginning
Artist=Pikodeath
Album=Insane (320)
Tracknumber=04
Year=2017
Genre=Metal

[/more]

Register
(13) atavist, boby9052, caro, Foneg, GorAtheist, infiltrator, metala, Olethros, Rosen, stumpheavyrock, Styx, wanderer73, Wolftribes,
Feb 21 2020, 02:41:39 Kritter - The Fuckening (2020)


*Artist: Kritter
*Album: The Fuckening
*Year: 2020
*Genre: Melodic Death/Power Metal
*Country: Spain
*Format: mp3@CBR320kbps
*Size: 89MB

Tracklist:
1. Your Sacrifice 04:33
2. Pretty Harlot 04:53
3. Ashes of a Life 05:03
4. Duality 04:10
5. Live in Heaven, Live in Earth 04:07
6. Behind Your Mask 05:48
7. 8 Millions of Gods 04:38
8. Empty River 05:27
******************************
Total playing time: 38:39




[more=Extended info]Javi Bass
David Drums
See also: ex-Furia Eterna, ex-Llvme
Javier Hernández Guitars (2009-present)
See also: Sarah Evil
Gabe Vocals (2012-present)
See also: ex-Stoykos, ex-Masquerade
[youtube]TBrZrFRG4Oo[/youtube]
[youtube]JMSEmbTmizI[/youtube][/more]

[more=Technical info]
Input File: 04 - Duality.mp3
Channels : 2
Sample Rate : 44100
Precision : 16-bit
Duration : 00:04:10.45 = 11044933 samples = 18783.9 CDDA sectors
File Size : 10.1M
Bit Rate : 324k
Sample Encoding: MPEG audio (layer I, II or III)
Comments :
Title=Duality
Artist=Kritter
Album=The Fuckening
Tracknumber=4
Year=2020-02-19
Genre=Metal
Discnumber=1

[/more]

Register
(12) ASkyThatBurns, boby9052, Herrant, infiltrator, metalwoman, Olethros, Rosen, satanist666, VALERY, wn129aa, zhol, Сварог Барг,
Feb 21 2020, 02:15:30 Your Last Wish - Eradicate (2020)


*Artist: Your Last Wish
*Album: Eradicate
*Year: 2020
*Genre: Melodic Death Metal
*Country: Canada
*Format: mp3@CBR320kbps
*Size: 108MB

Tracklist:
1. Eradicate
2. Exile
3. Monarque
4. Décimé
5. Lost
6. Pursuit
7. Pandore
8. Prestige
9. Le cri du monde
******************************
Total playing time: 46:39




[more=Extended info]Roxana Bouchard - Vocals
Dave Gagné - Guitar
Michael Cope - Guitar
Blake Lemieux - Drums
Peter Hamm - Bass
[youtube]Y4955UoRIfE[/youtube]
[youtube]cVFkwT_PAtA[/youtube][/more]

[more=Technical info]
Input File: 03 - Monarque.mp3
Channels : 2
Sample Rate : 44100
Precision : 16-bit
Duration : 00:05:33.40 = 14702764 samples = 25004.7 CDDA sectors
File Size : 13.5M
Bit Rate : 323k
Sample Encoding: MPEG audio (layer I, II or III)
Comments :
Title=Monarque
Artist=Your Last Wish
Album=Eradicate
Tracknumber=3
Year=2020-02-20
Genre=Metal
Discnumber=1

[/more]

Register
(21) AHBAnep, ASkyThatBurns, BugEyes, caro, Farung, Foneg, GorAtheist, infiltrator, metalwoman, Niknne, Olethros, Olrak, Rosen, satanist666, sergsazan, serjred, VALERY, wanderer73, WX419, zhol, Сварог Барг,
Feb 21 2020, 01:28:00 Slaughter Messiah - Cursed To The Pyre (2020)
FLAC (Tracks) 286 mb
Register
(2) infiltrator, Olethros,
Feb 21 2020, 01:10:04 Alvarez - Hadad (2020)


*Artist: Alvarez
*Album: Hadad
*Year: 2020
*Genre: Death/Doom Metal
*Country: Austria
*Format: mp3@CBR320kbps
*Size: 89MB

Tracklist:
1. Giants 04:10
2. Ischtar 06:48
3. King of Darkness 04:52
4. Immortality 06:00
5. Temple of Refreshment 03:09
6. Full Moon Ritual 04:38
7. Black Star 06:09
8. In Sumeria 02:47
******************************
Total playing time: 38:33




[more=Extended info]Mr. Z Drums (2019-present)
J. Plecho Guitars (2019-present)
Alvarez Vocals, Bass (2019-present)
[youtube]jMtXk1pNAtE[/youtube]
[youtube]-6cHLuWjD-k[/youtube]
[youtube]aNgIdiXZ6CQ[/youtube][/more]

[more=Technical info]
Input File: 03 - King of darkness.mp3
Channels : 2
Sample Rate : 44100
Precision : 16-bit
Duration : 00:04:52.23 = 12887123 samples = 21916.9 CDDA sectors
File Size : 11.8M
Bit Rate : 323k
Sample Encoding: MPEG audio (layer I, II or III)
Comments :
Title=King of darkness
Artist=Alvarez
Album=HADAD
Tracknumber=3
Year=2020-02-21
Genre=Rock; Metal
Discnumber=1

[/more]

Register
(17) 0x13, andreikun, ASkyThatBurns, caro, Ice Gnoll, infiltrator, KVRT, LEGION69, metala, Olethros, Ostinato, raattent, Rosen, SatanicPanzer, sergsazan, tOmV, VALERY,
Feb 20 2020, 23:01:14 Wicked Asylum - Out Of The Mist (2020)


*Artist: Wicked Asylum
*Album: Out Of The Mist
*Year: 2020
*Genre: Heavy Metal
*Country: Italy
*Format: mp3@CBR320kbps
*Size: 79MB

Tracklist:
1. Haze
2. Sold(ier)
3. Bleeding Rust
4. Split
5. Threnody
6. Sun Will Rise
7. Out of the Mist
8. Choke and Die
9. The Meadow of Sins
10. Maze
******************************
Total playing time: 34:20




[more=Extended info]Cioppa Drums
Fade Guitars (lead)
Luna Guitars (rhythm)
Banshee Vocals
Chiara Bass (2017-present)
See also: A Pale December, Evil Reality
[youtube]RpxFs8yVNDc[/youtube]
[youtube]MmOdnvu0Jhg[/youtube][/more]

[more=Technical info]
Input File: 3 - Bleeding Rust.mp3
Channels : 2
Sample Rate : 44100
Precision : 16-bit
Duration : 00:04:04.68 = 10790344 samples = 18350.9 CDDA sectors
File Size : 9.84M
Bit Rate : 322k
Sample Encoding: MPEG audio (layer I, II or III)
Comments :
Title=Bleeding Rust
Artist=Wicked Asylum
Album=Out of the Mist
Tracknumber=3
Year=2020
Genre=Metal
Discnumber=1

[/more]

Register
(12) aviacademy, gwar, infiltrator, metala, metalwoman, Niknne, Olethros, postal67, Rosen, sergsazan, vir2al, WX419,
Feb 20 2020, 22:39:37 Malamorte - God Needs Evil (2020)


*Artist: Malamorte
*Album: God Needs Evil
*Year: 2020
*Genre: Blackened Heavy Metal
*Country: Italy
*Format: mp3@CBR320kbps
*Size: 105MB

Tracklist:
1. The Demons that Devour Your Soul 04:29
2. The Sinner 04:42
3. Psycho Priest 04:08
4. After the Apocalypse 06:40
5. They Shall See the Truth 04:46
6. A Demon Dressed by Angel 05:22
7. Morbid Temptation 06:20
8. Suicide Forest 03:45
9. God Needs Evil 05:30
******************************
Total playing time: 45:42



[more=Extended info]SK Guitars, Bass, Programming
See also: Cain, ex-The Last Winter, ex-Lord Vampyr, ex-Shadowsreign
L.V. Vocals, Guitars, Keyboards
See also: Cain, Hermeticum, Lord Vampyr, Nailed God, ex-Shadowsreign, ex-Sepolcrum, ex-Theatres des Vampires, ex-VII Arcano
[youtube]WqTzR6Z34ys[/youtube][/more]

[more=Technical info]
Input File: 03 - Psycho Priest.mp3
Channels : 2
Sample Rate : 44100
Precision : 16-bit
Duration : 00:04:08.47 = 10957395 samples = 18635 CDDA sectors
File Size : 10.0M
Bit Rate : 322k
Sample Encoding: MPEG audio (layer I, II or III)
Comments :
Title=Psycho Priest
Artist=Malamorte
Album=God Needs Evil
Tracknumber=3
Year=2020
Genre=Heavy Metal
Discnumber=1

[/more]

Register
(13) ASkyThatBurns, aviacademy, GorAtheist, infiltrator, metala, Niknne, Olethros, postal67, satanath, sergsazan, suseka, VALERY, Сварог Барг,
Feb 20 2020, 22:22:24 Runescarred - The Distant Infinite (2020)


*Artist: Runescarred
*Album: The Distant Infinite
*Year: 2020
*Genre: Progressive Heavy/Thrash Metal
*Country: United States
*Format: mp3@CBR320kbps
*Size: 103MB

Tracklist:
01. Hexit 04:29
02. Inviting Rivers 03:26
03. Minor Progressions 04:53
04. Swallow Your Tail 05:36
05. Legionem Eclipsem 04:02
06. Twisting Flesh 06:39
07. This Distant Infinite 01:53
08. Sorrow Is 03:08
09. Poison Oasis 05:18
10. Mammoth 05:30
******************************
Total playing time: 44:54




[more=Extended info][youtube]v8Kx94wwi-4[/youtube]
[youtube]uBbejtfZ6eI[/youtube][/more]

[more=Technical info]
Input File: 3 - Minor Progressions.mp3
Channels : 2
Sample Rate : 44100
Precision : 16-bit
Duration : 00:04:53.69 = 12951641 samples = 22026.6 CDDA sectors
File Size : 11.8M
Bit Rate : 322k
Sample Encoding: MPEG audio (layer I, II or III)
Comments :
Title=Minor Progressions
Artist=Runescarred
Album=The Distant Infinite
Tracknumber=3
Year=2020
Discnumber=1

[/more]

Register
(11) ASkyThatBurns, aviacademy, BandR75, caro, Diflock, infiltrator, Niknne, Olethros, postal67, Rosen, sadmannn,
Feb 20 2020, 22:09:04 Mental Disaster - The Repulsive Abomination (2020)


*Artist: Mental Disaster
*Album: The Repulsive Abomination
*Year: 2020
*Genre: Death/Thrash Metal
*Country: Norway
*Format: mp3@CBR320kbps
*Size: 71MB

Tracklist:
1. The Repulsive Abomination 03:03
2. Disciples of Ignorance 04:01
3. High Priest of Doom 03:13
4. Bow to the Blade 03:20
5. Graveyard Symposium 04:02
6. Sword of Vengeance 03:20
7. Testify and Repent 02:49
8. Mauled Beyond Belief 03:26
9. Berserker Rage Unfold 03:00
10. Sapiens So Pure 03:45
******************************
Total playing time: 33:59




[more=Extended info]Bengt Orstad Bass
See also: Blot
David Olsen Drums
See also: Faanefjell
Bernt Sørensen Guitars
See also: In the Woods..., Tonka, ex-Haunted Hollow, ex-Transform
Jan Åge Lindeland Vocals
See also: Blot
[youtube]FOpWoZG2U3E[/youtube][/more]

[more=Technical info]
Input File: 05. Graveyard Symposium.mp3
Channels : 2
Sample Rate : 44100
Precision : 16-bit
Duration : 00:04:02.25 = 10683225 samples = 18168.8 CDDA sectors
File Size : 9.78M
Bit Rate : 323k
Sample Encoding: MPEG audio (layer I, II or III)
Comments :
Title=Graveyard Symposium
Artist=Mental Disaster
Album=The Repulsive Abomination
Tracknumber=5
Year=2020
Genre=9

[/more]

Register
(15) AHBAnep, akym, atavist, boby9052, BugEyes, caro, GorAtheist, infiltrator, metala, MMMMM, Niknne, Olethros, Rosen, wanderer73, WX419,
Feb 20 2020, 14:13:15 On Thorns I Lay - Threnos (2020)
ЦИТАТА(Moonshtook @ 20th February 2020 - 15:09:33) *
Что реально death doom?

Местами готика))А что,тебя что то не устраивает?
(2) Ghostb, infiltrator,
Feb 20 2020, 13:40:20 Nawaharjan - Lokabrenna (2020)
Fryz,
ЦИТАТА
А почему в лоу?

хз.. с такими спектрами продаются на всей цифре.
(3) Fryz, infiltrator, Occultas,
Feb 20 2020, 13:27:41 Slaughter Messiah - Cursed To The Pyre (2020)
Cloud Mail 320
Register
(9) AHBAnep, boby9052, infiltrator, Leshiy666, multizwilling, older68, wanderer73, wolverine, wtk.412,
Feb 20 2020, 13:16:00 Slaughter Messiah - Cursed To The Pyre (2020)


*Artist: Slaughter Messiah
*Album: Cursed To The Pyre
*Year: 2020
*Genre: Black/Thrash Metal
*Country: Belgium
*Format: mp3@CBR320kbps
*Size: 97MB

Tracklist:
1. From the Tomb into the Void 04:38
2. Mutilated by Depths 06:02
3. Pouring Chaos 03:42
4. Hideous Afflicition 06:59
5. Descending to Black Fire 05:12
6. Pyre 05:30
7. The Hammer of Ghouls 04:46
8. Fog of the Malevolent Sore 05:46
******************************
Total playing time: 42:35




[more=Extended info]Rod "Iron Bitch Desecrator" Guitars (2008-2010, 2011-present)
See also: Heinous, ex-Einherjar
Lord Sabathan Vocals, Bass (2011-present)
See also: Heinous, ex-Godsend, ex-Horacle, ex-Slanesh, ex-Dying Corpse, Sabathan, ex-Distant Warning, ex-Enthroned, ex-Dawn of Crucifixion, ex-Morbid Death
Thomas "Exhumator" Guitars (2012-present)
See also: Cerro Blasfemo, Destrukt, Heinous, Spermafrost, Murder One, ex-Anal Vomit (live), ex-Horacle (live)
John Berry Drums (2015-present)
See also: Burial Ground, Gae Bolga, Nocturnal, ex-Goat Torment (live)
[youtube]Iq6bk6uWgK8[/youtube][/more]

[more=Technical info]
Input File: 04. Hideous Affliction.mp3
Channels : 2
Sample Rate : 44100
Precision : 16-bit
Duration : 00:06:59.50 = 18499818 samples = 31462.3 CDDA sectors
File Size : 16.8M
Bit Rate : 320k
Sample Encoding: MPEG audio (layer I, II or III)
Comments :
Title=Hideous Affliction
Artist=Slaughter Messiah
Album=Cursed to the Pyre
Tracknumber=04/08
Year=2020-20-20
Discnumber=1/1

[/more]

Register
(39) Asketto, ASkyThatBurns, atavist, autumnwood, Bzth, caro, cast_iron, DarkHorde, Der_Hexer, dvlz, Foneg, infiltrator, kauyumari, LEGION69, Leshiy666, marilin, metala, metalboll, Morgoth, Niknne, obituarydark, Olethros, poeira, Rosen, SaintVitus, satanist666, stumpheavyrock, suseka, thrashiac55, THROWER666, Tino, vasiljev_sergej, Vladimir, Wail, wanderer73, wgs73, Wolftribes, wrath082, WX419,
Feb 20 2020, 13:07:15 On Thorns I Lay - Threnos (2020)
Cloud Mail 320
Register
(25) AHBAnep, as71, Bloodn Lord, boby9052, cancer1974, DarkHorde, DMIYUR, doomTemplar, dromord, Evjenne, Fess, infiltrator, kluval, lucifix, marilin, multizwilling, nadin85, older68, Ostinato, postal67, Rofllipop, RUDACHUR, Satyr, vo140182fav, wanderer73,

725 Pages V   1 2 3 > » 
- Lo-Fi Version Support form
Copyrights and abuse reports form
Time is now: 23rd February 2020 - 02:46:15