Welcome Guest ( Log In | Register )

История благодарностей участнику Samaritianin ::: Спасибо сказали: 488274 раз(а)
Дата поста: В теме: За сообщение: Спасибо сказали:
Yesterday, 21:41:48 Atomwinter - Sakrileg (2023)


*Artist: Atomwinter
*Album: Sakrileg
*Year: 2023
*Genre: Old School Death Metal
*Country: Germany
*Format: mp3@CBR320kbps
*Size: 93MB

Tracklist:
1. Intro 01:12 instrumental
2. Ov Blood and Flesh 02:43
3. The Lungs ov Hell 05:32
4. Brutal Scriptures 03:27
5. Catatonic Pathway 03:29
6. The Dark Void 04:44
7. Sakrileg 05:21
8. Cryptic Death 03:13
9. Until the Loss ov God 03:11
10. Born into Iron Coffins 05:04
******************************
Total playing time: 37:56




[more=Extended info]Martin S. Bass
Benni G. Guitars
Patrick W. Drums
Florian Bauer Vocals
[youtube]I22vDsdDFHo[/youtube][/more]

[more=Technical info]
Input File: 07. Sakrileg.mp3
Channels : 2
Sample Rate : 44100
Precision : 16-bit
Duration : 00:05:22.14 = 14206198 samples = 24160.2 CDDA sectors
File Size : 13.5M
Bit Rate : 335k
Sample Encoding: MPEG audio (layer I, II or III)
Comments :
Title=Sakrileg
Artist=Atomwinter
Album=Sakrileg
Tracknumber=07
Year=2023
Genre=Metal

[/more]

Register
(11) artscald, Grev, jollo, judaz, Militia, Night, pabedit, stumpheavyrock, sunska, vov7609, zhol,
Yesterday, 15:34:18 Atomic Drop - Steaming Cheeks (2023)


*Artist: Atomic Drop
*Album: Steaming Cheeks
*Year: 2023
*Genre: Thrash Metal
*Country: United States
*Format: mp3@CBR320kbps
*Size: 66MB

Tracklist:
1. PARTY 03:04
2. Forget Regret 02:41
3. Let's Tussle Some 03:17
4. Oldberg 02:35
5. Ascension 03:06
6. Sin, Thrive, Repeat 02:35
7. Banzai Drop 02:47
8. Bad Times Don't last, But Bad Guys Do 02:52
9. Commander Pawn 02:49
10. Judgement Night 02:51
******************************
Total playing time: 28:37




[more=Extended info]Luke Taylor Everything[/more]

[more=Technical info]
Input File: 03 - Let\'s Tussle Some.mp3
Channels : 2
Sample Rate : 44100
Precision : 16-bit
Duration : 00:03:17.00 = 8687700 samples = 14775 CDDA sectors
File Size : 7.98M
Bit Rate : 324k
Sample Encoding: MPEG audio (layer I, II or III)
Comments :
Title=Let's Tussle Some
Artist=Atomic Drop
Album=Steaming Cheekz
Tracknumber=3
Year=2023-02-08
Genre=Metal
Discnumber=1

[/more]

Register
(5) boby9052, metala, postal67, stumpheavyrock, suseka,
Yesterday, 15:15:43 WiderSin - Lost In Grey (2023)


*Artist: WiderSin
*Album: Lost In Grey
*Year: 2023
*Genre: Heavy Metal/Hard Rock
*Country: Greece
*Format: mp3@CBR320kbps
*Size: 106MB

Tracklist:
1. Cross the Line 03:58
2. 1000 Passwords 04:15
3. Stone 03:38
4. Manipulate 04:59
5. Martyrs 05:43
6. Port 07:10
7. Into the Light 05:08
8. Father's Son 11:47
******************************
Total playing time: 46:38




[more=Technical info]
Input File: 07 - Into The Light.mp3
Channels : 2
Sample Rate : 44100
Precision : 16-bit
Duration : 00:05:08.08 = 13586416 samples = 23106.1 CDDA sectors
File Size : 12.3M
Bit Rate : 320k
Sample Encoding: MPEG audio (layer I, II or III)
Comments :
Title=Into The Light
Artist=WiderSin
Album=Lost In Grey
Tracknumber=7
Year=2023

[/more]

Register
(7) after21allD, artscald, Bloodline Christian, Marek, metala, postal67, stumpheavyrock,
Yesterday, 15:09:41 Elyose - Déviante (2023)


*Artist: Elyose
*Album: Déviante
*Year: 2023
*Genre: Industrial/Gothic/Symphonic Metal
*Country: France
*Format: mp3@CBR320kbps
*Size: 93MB

Tracklist:
01. Ils t'ont dit
02. Le glaive
03. Vendredi noir
04. L'emblème
05. Retour au reel
06. Humaine
07. Deviante
08. L'Assemblee
09. De la Lune à la Terre
10. Retour au reel (Radio Mix)
******************************
Total playing time: 40:08



[more=Extended info][youtube]Rf_j5TnC9Uc[/youtube][/more]

[more=Technical info]
Input File: 09 - De la Lune à la Terre.mp3
Channels : 2
Sample Rate : 44100
Precision : 16-bit
Duration : 00:03:52.35 = 10246591 samples = 17426.2 CDDA sectors
File Size : 9.39M
Bit Rate : 323k
Sample Encoding: MPEG audio (layer I, II or III)
Comments :
Title=De la Lune à la Terre
Artist=Elyose
Album=Déviante
Tracknumber=9/10
Year=2023

[/more]

Register
(10) aleon, Alpha_Prime, Altkiller, artscald, metala, suseka, VALERY, Veggr, Сварог Барг, скептик,
Yesterday, 14:54:44 Schizophrenia - Chants Of The Abyss [ep] (2023)
FLAC (Tracks) 163 mb
Register

(3) isvili, Occultas, wertqqq,
Feb 7 2023, 20:02:58 Forax - El Inicio De Todo [ep] (2023)


*Artist: Forax
*Album: El Inicio De Todo [ep]
*Year: 2023
*Genre: Death/Thrash/Black Metal
*Country: Colombia
*Format: mp3@CBR320kbps
*Size: 63MB

Tracklist:
1. EL inicio de todo 03:05
2. La conquista 03:27
3. El caos 02:57
4. Destructor de planetas 03:14
5. Sangre para el Dios de la sangre 04:18
6. La legion negra 03:20
7. Virus arrazador 03:30
8. Hipernova 02:59
******************************
Total playing time: 26:50




[more=Extended info]Jeison Fabian Figueroa Loaiza Bass
SANTIAGO VELASQUEZ ALVAREZ drummer
Janklaud Osorio Dawkins lead guitar
Jhon Alexander Muñoz Duque rhythmic guitarist
Andres Felipe Vega Gomez Vocals[/more]

[more=Technical info]
Input File: 07 - Virus arrazador.mp3
Channels : 2
Sample Rate : 44100
Precision : 16-bit
Duration : 00:03:29.00 = 9216900 samples = 15675 CDDA sectors
File Size : 8.64M
Bit Rate : 331k
Sample Encoding: MPEG audio (layer I, II or III)
Comments :
Title=Virus arrazador
Artist=FORAX
Album=El Inicio de Todo
Tracknumber=7
Year=2023-02-07
Genre=Metal
Discnumber=1

[/more]

Register
(9) aedicksucker, AlexSmith, artscald, boby9052, sergsazan, stumpheavyrock, varlam4, vasiljev_sergej, wgs73,
Feb 7 2023, 02:28:12 Dïatrïbe - Rabid Nightmare (2023)
FLAC (Tracks) 258 mb
Register
(2) AndreFrancis, Marek,
Feb 6 2023, 18:48:50 Dïatrïbe - Rabid Nightmare (2023)


*Artist: Dïatrïbe
*Album: Rabid Nightmare
*Year: 2023
*Genre: Death Metal
*Country: France
*Format: mp3@CBR320kbps
*Size: 76MB

Tracklist:
1. Liar of Chaos
2. Blowned by the Fear
3. Searching for Meaning in Pain
4. Fluorescent Purgatory
5. Behold the Sin
6. Beyond Compassion
7. Forlorn Trust
8. Swamp Abomination
9. Heathen Blade
10. Slasher Night
11. Pavement of Skulls
******************************
Total playing time: 33:12


Preview 2

[more=Extended info]Ombre Everything
See also: Talven[/more]

[more=Technical info]
Input File: 07 - Forlorn Trust.mp3
Channels : 2
Sample Rate : 44100
Precision : 16-bit
Duration : 00:03:21.55 = 8888311 samples = 15116.2 CDDA sectors
File Size : 8.07M
Bit Rate : 320k
Sample Encoding: MPEG audio (layer I, II or III)
Comments :
Title=Forlorn Trust
Artist=Diatribe
Album=Rabid Nightmare
Tracknumber=7
Year=2023

[/more]

Register
(14) alikkon, artscald, BugEyes, chipsgott, infozahist, jollo, judaz, LiarOfAngmar, Marek, Sadist, scorpionmk, suseka, VALERY, wanderer73,
Feb 6 2023, 16:56:32 Akloleh - Aybiker Ritual (2023)


*Artist: Akloleh
*Album: Aybiker Ritual
*Year: 2023
*Genre: Black Metal
*Country: United States
*Format: mp3@CBR320kbps
*Size: 108MB

Tracklist:
1. Es Brent 05:26
2. Di Hailike Velder 04:10
3. Aybiker Ritual 05:16
4. Fin Shvartzkayt 09:09
5. Di Balas Ov fin Ender 09:32
6. Halameysim 02:43
7. Selah 07:14
8. Vai lan Dmisnan 03:24
******************************
Total playing time: 46:54



[more=Extended info]Mazik Vocals, Guitars, Keyboards, Drum programming (2022-present)[/more]

[more=Technical info]
Input File: 07. Selah.mp3
Channels : 2
Sample Rate : 44100
Precision : 16-bit
Duration : 00:07:14.50 = 19161230 samples = 32587.1 CDDA sectors
File Size : 17.6M
Bit Rate : 323k
Sample Encoding: MPEG audio (layer I, II or III)
Comments :
Title=Selah
Artist=Akloleh
Album=Aybiker Ritual
Tracknumber=07
Year=2023
Genre=Black Metal, Post-Metal

[/more]

Register
(13) AlexSmith, Altkiller, AndreFrancis, artscald, kim666, Marek, nemx, obituarydark, robertho777, suseka, VALERY, varlam4, vasiljev_sergej,
Feb 6 2023, 16:01:16 Tentachor - Master Of Gluttony (2022)


*Artist: Tentachor
*Album: Master Of Gluttony
*Year: 2022
*Genre: Doom Metal
*Country: United Kingdom
*Format: mp3@CBR320kbps
*Size: 82MB

Tracklist:
1. In the Halls of the Blood Feast 04:30
2. La Grande Bouffe 04:44
3. The King is Dead of Burgers 10:00
4. Incorrect and Indigested 04:57
5. Bid Me to Supper 05:02
6. Galoop 06:29
******************************
Total playing time: 35:42



[more=Technical info]
Input File: 05 - Bid Me To Supper.mp3
Channels : 2
Sample Rate : 44100
Precision : 16-bit
Duration : 00:05:02.00 = 13318200 samples = 22650 CDDA sectors
File Size : 12.2M
Bit Rate : 322k
Sample Encoding: MPEG audio (layer I, II or III)
Comments :
Title=Bid Me To Supper
Artist=Tentachor
Album=Master Of Gluttony
Tracknumber=5
Year=2022-03-01
Genre=Metal
Discnumber=1

[/more]

Register
(11) artscald, infozahist, Lux, metala, postal67, s810ic1, sergsazan, stumpheavyrock, suseka, VALERY, zhol,
Feb 6 2023, 14:17:56 Carpet Bomb - Awaken Terror [ep] (2023)


*Artist: Carpet Bomb
*Album: Awaken Terror [ep]
*Year: 2023
*Genre: Thrash Metal
*Country: United States
*Format: mp3@CBR320kbps
*Size: 56MB

Tracklist:
1. Malicious Intent (Album Version) 03:42
2. Pentagram 03:03
3. Holy Sacrifice (Album Version) 02:31
4. Prairie Fire 02:59
5. Firing Squad 03:19
6. Elijah's Song 04:29
7. Awaken Terror 04:01
******************************
Total playing time: 24:04

Preview 1

[more=Extended info]Nolan Moore (Vocals, guitar)
Elijah Kruger (bass, backing vocals)
Michael Maier (drums)
[youtube]gTZjsD44SNo[/youtube][/more]

[more=Technical info]
Input File: 07 - Awaken Terror.mp3
Channels : 2
Sample Rate : 44100
Precision : 16-bit
Duration : 00:04:01.00 = 10628100 samples = 18075 CDDA sectors
File Size : 9.81M
Bit Rate : 326k
Sample Encoding: MPEG audio (layer I, II or III)
Comments :
Title=Awaken Terror
Artist=Carpet Bomb
Album=Awaken Terror
Tracknumber=7
Year=2023-02-01
Genre=Metal
Discnumber=1

[/more]

Register
(16) after21allD, artscald, boby9052, BugEyes, chipsgott, CORPSEMIXA, hell_armageddon, infozahist, Marek, postal67, scorpionmk, sergsazan, stumpheavyrock, thrashiac55, wgs73, xariton,
Feb 6 2023, 13:31:34 Epitaph - Echoes Entombed: The Demo Anthology (1991-1992) [compilation] (2020)
ЦИТАТА(troll_swamp @ Sep 2 2022, 11:05:59) *
Есть ли возможность 320 перелить на мегу или файр? Заранее благодарен!

320 70mb
Register
(2) cynik, troll_swamp,
Feb 6 2023, 13:11:52 Dead Sun - Soul Diseased (2023)


*Artist: Dead Sun
*Album: Soul Diseased
*Year: 2023
*Genre: Old School Death Metal
*Country: Sweden
*Format: mp3@CBR320kbps
*Size: 84MB

Tracklist:
1. Sjuk själ 03:43
2. Deeper Down 03:22
3. Sand and Rot 03:55
4. Carved to the Bone 03:33
5. The Shape from Out the Shadows 03:36
6. Mausoleum Melodies 03:26
7. Tid för jakt 03:22
8. Soul Diseased 03:12
9. Stashed Away 04:08
10. Premature Burial 03:54
******************************
Total playing time: 36:11



[more=Extended info]Rogga Johansson Bass, Guitars, Keyboards, Vocals
See also: Battle Axis, Bloodgut, Carve, Catacomb, Down Among the Dead Men, Echelon, Eye of Purgatory, Fondlecorpse, Formaldehydist, Furnace, Gauntlet Rule, Ghoulhouse, God Cries, Grisly, Heir Corpse One, House by the Cemetary, Humanity Delete, Johansson & Speckmann, Leper Colony, Lobotomy Dept, Massacre, Megascavenger, Metal Against Coronavirus, Monstrous, Necrogod, Never the Dead, Paganizer, PermaDeath, Pile of Skulls, Putrevore, Reek, Revolting, Ribspreader, Rogga Johansson, Severed Limbs, Stass, Stygian Dark, Svitjod, The Cleaner and Mr. Filth's Van Murders, The Dead Cold, The Skeletal, Those Who Bring the Torture, To Descend, War Magic, ex-Demiurg, ex-Eaten, ex-Foreboding, ex-Minotaur Head, ex-Skeletal Spectre, ex-Swarming, ex-Terminal Grip, ex-The Grotesquery, ex-To the Gallows, Disruptor, Troikadon, ex-Banished from Inferno, ex-Graveyard After Graveyard, ex-Sinners Burn, ex-The 11th Hour, ex-Deranged (live), ex-Bone Gnawer
Jon Rudin Drums
See also: Dehumanaut, Formaldehydist, Heads for the Dead, Human Harvest, Just Before Dawn, Monstrous, Never the Dead, Pale King, Stygian Dark, Those Who Bring the Torture, Wormveil, ex-From Ruin, ex-Body Harvest, ex-Wombbath, ex-Ashcloud
[youtube]bO1LlvNTMNU[/youtube][/more]

[more=Technical info]
Input File: 07 - Tid För Jakt.mp3
Channels : 2
Sample Rate : 44100
Precision : 16-bit
Duration : 00:03:22.23 = 8918123 samples = 15166.9 CDDA sectors
File Size : 8.18M
Bit Rate : 324k
Sample Encoding: MPEG audio (layer I, II or III)
Comments :
Title=Tid För Jakt
Artist=Dead Sun
Album=Soul Diseased
Tracknumber=7/10
Year=2023

[/more]

Register
(27) AHBAnep, ALEXSATHANAS, Altkiller, andreikun, artscald, BugEyes, cesar, darkbrides, hell_armageddon, Ignativs, jollo, Korpse, LEGION69, LiarOfAngmar, Marek, pabedit, rominow, scorpionmk, sergsazan, stumpheavyrock, sunska, suseka, TeamatSE, teolost, VALERY, Velemysl, zhol,
Feb 6 2023, 13:08:06 Schizophrenia - Chants Of The Abyss [ep] (2023)


*Artist: Schizophrenia
*Album: Chants Of The Abyss [ep]
*Year: 2023
*Genre: Old School Death/Thrash Metal
*Country: Belgium
*Format: mp3@CBR320kbps
*Size: 48MB

Tracklist:
1. Necrophiliac (Slayer cover) 03:35
2. Maze of Torment (Morbid Angel cover) 04:29
3. Metal Meltdown (Judas Priest cover) 04:36
4. Bullet (Misfits cover) 01:27
5. Strike of the Beast (Exodus cover) 03:34
6. Race Against Time (GBH cover) 02:25
******************************
Total playing time: 20:06




[more=Extended info]Romeo Promos Promopoulos Guitars (2016-present)
See also: ex-Hämmerhead
Ricky Mandozzi Vocals, Bass (2016-present)
See also: ex-Hämmerhead, ex-Over Nation
Lorenzo Vissol Drums (2017-present)
See also: Bütcher, Vorax Virosus, ex-Eyes of the Insane, ex-Skelethal
Marty VK Guitars (2017-present)
[youtube]88G2O2EoL-I[/youtube]
[youtube]fBWLIWhRl9U[/youtube][/more]

[more=Technical info]
Input File: 03 - Schizophrenia - Metal Meltdown(Explicit).mp3
Channels : 2
Sample Rate : 44100
Precision : 16-bit
Duration : 00:04:36.19 = 12179759 samples = 20713.9 CDDA sectors
File Size : 11.4M
Bit Rate : 330k
Sample Encoding: MPEG audio (layer I, II or III)
Comments :
Title=Metal Meltdown
Artist=Schizophrenia
Album=Chants of the Abyss
Tracknumber=3/6
Year=2023
Discnumber=1/1

[/more]

Register
(27) after21allD, AHBAnep, akym, Appie_Thrasher, artscald, boby9052, cesar, chipsgott, Deada, desekrator, Ignativs, infozahist, Marek, METALHUNTER, metaljosue, Occultas, SadistikSlayer, scorpionmk, Sebastian_FullOvHell, sergsazan, stumpheavyrock, troll_swamp, VALERY, wanderer73, wgs73, wrath082, xariton,
Feb 6 2023, 12:43:40 Moonthoth - Uroczysko (2023)


*Artist: Moonthoth
*Album: Uroczysko
*Year: 2023
*Genre: Black Metal
*Country: Poland
*Format: mp3@CBR320kbps
*Size: 114MB

Tracklist:
1. Uroczysko
2. Pomrok
3. Brzask odmętem zgaszony
4. Żercy pieśń krucza
5. Żalnik
6. Wołchwowe widziadła
7. MARtwe TWe żywOTA
8. Popielnik
9. Chram Chorsa
******************************
Total playing time: 50:06




[more=Extended info]Nocturnal Everything
See also: Blackmoon[/more]

[more=Technical info]
Input File: 08 - Popielnik.mp3
Channels : 2
Sample Rate : 44100
Precision : 16-bit
Duration : 00:05:12.68 = 13789188 samples = 23451 CDDA sectors
File Size : 12.5M
Bit Rate : 321k
Sample Encoding: MPEG audio (layer I, II or III)
Comments :
Title=Popielnik
Artist=Moonthoth
Album=Uroczysko
Tracknumber=8/9
Year=2023

[/more]

Register
(13) AlexSmith, Altkiller, artscald, judaz, kim666, nemx, obituarydark, robertho777, skogtroll, suseka, VALERY, varlam4, vasiljev_sergej,
Feb 6 2023, 12:33:49 Voelker - How The Other Half Dies (2023)


*Artist: Voelker
*Album: How The Other Half Dies
*Year: 2023
*Genre: Heavy/Thrash Metal
*Country: United States
*Format: mp3@CBR320kbps
*Size: 131MB

Tracklist:
1. Smithereens
2. How The Other Half Dies
3. One Percent
4. Better Man
5. Friction
6. Tabula Rasa
7. Put 'Em All To Sleep
8. Good As Gone
9. Tap In The Wire
10. Stuck In Motion
11. Contemplating
******************************
Total playing time: 56:37

[more=Technical info]
Input File: 07 - Put \'Em All To Sleep.mp3
Channels : 2
Sample Rate : 44100
Precision : 16-bit
Duration : 00:04:53.00 = 12921300 samples = 21975 CDDA sectors
File Size : 11.9M
Bit Rate : 325k
Sample Encoding: MPEG audio (layer I, II or III)
Comments :
Title=Put 'Em All To Sleep
Artist=Voelker
Album=How The Other Half Dies
Tracknumber=7
Year=2023-02-03
Genre=Metal
Discnumber=1

[/more]

Register
(13) after21allD, artscald, Bloodline Christian, boby9052, infozahist, Marek, metala, postal67, Rover, sergsazan, stumpheavyrock, suseka, vir2al,
Feb 5 2023, 16:06:07 Doomas - R'lyeh (2023)
FLAC (Tracks) 649 mb
Register
(5) AndreFrancis, Lux, Marek, suseka, Velemysl,
Feb 5 2023, 15:40:36 Dark Abyss Of Life - Turned Inside Out (2023)


*Artist: Dark Abyss Of Life
*Album: Turned Inside Out
*Year: 2023
*Genre: Depressive Black/Gothic Metal
*Country: Brazil
*Format: mp3@CBR320kbps
*Size: 92MB

Tracklist:
01. Into My Cave
02. Illusion
03. Turned Inside Out
04. Dungeon of Fear
05. My World in Darkness
06. Hateful Existence
******************************
Total playing time: 40:07



[more=Extended info]Nattens All instruments (2019-present)
See also: Algoz Profanador, Arma, Blackgoat Holocaust, Blackmoon Eclipse, Dark Desires, Goat Kommander, Madrigal, Nocturnal Fog, Old Coffin Spirit, Primitive, Serpent Coven, Tümulo, Weedthrone, ex-Despojos, ex-Mordor, ex-Oldevil, ex-Order of Tepes, ex-Profanus Philosophy, ex-Vingador, ex-Waffen, ex-Diabolical Mind, ex-Raining Forest, ex-Tragedies, Cold Forest, Morphic Fields, ex-Black Celebration, ex-Gates of Carpathia, ex-Omegalpha, ex-Deathcharge (live), ex-Em Ruínas (live), ex-Alien Grave, ex-Man on Mars, ex-The Electric Brain Code[/more]

[more=Technical info]
Input File: 05 - My World in Darkness.mp3
Channels : 2
Sample Rate : 44100
Precision : 16-bit
Duration : 00:06:19.58 = 16739610 samples = 28468.7 CDDA sectors
File Size : 15.3M
Bit Rate : 322k
Sample Encoding: MPEG audio (layer I, II or III)
Comments :
Title=My World in Darkness
Artist=Dark Abyss of Life
Album=Turned Inside Out
Tracknumber=5/6
Year=2023

[/more]

Register
(17) aleon, AlexSmith, Altkiller, artscald, Cartman223, chipsgott, dermarsoran, Grev, infozahist, kim666, Lord Of The Siths, Megakimi, postal67, rominow, suseka, VALERY, vasiljev_sergej,
Feb 5 2023, 05:50:17 Doomas - R'lyeh (2023)


*Artist: Doomas
*Album: R'lyeh
*Year: 2023
*Genre: Melodic Doom/Death Metal
*Country: Slovakia
*Format: mp3@CBR320kbps
*Size: 123MB

Tracklist:
1. Cult Yog-Sothoth 07:55
2. Ia Kingu! 05:50
3. Abyss 07:32
4. Portal 05:33
5. Hounds of Tyndalos 05:45
6. A_Ω 05:43
7. The Crown 05:42
8. Consumed by the Ocean-Father! 09:14
******************************
Total playing time: 53:14


Preview 2


[more=Extended info]Peter "Doomas" Beťko Bass, Vocals (2006-present)
See also: Unmourned, ex-Hefaistos
Martin "Kalmi" Kalmancai Guitars (2009-present)
See also: Unmourned, ex-Achsar, ex-God Defamer (live)
Erik Sabo Drums (2012-present)
Noro Bajzat Guitars (2017-present)
[youtube]coaCaLM-ZtU[/youtube][/more]

[more=Technical info]
Input File: 07 - The Crown.mp3
Channels : 2
Sample Rate : 44100
Precision : 16-bit
Duration : 00:05:42.00 = 15082200 samples = 25650 CDDA sectors
File Size : 13.9M
Bit Rate : 324k
Sample Encoding: MPEG audio (layer I, II or III)
Comments :
Title=The Crown
Artist=Doomas
Album=R´LYEH
Tracknumber=7
Year=2023-02-05
Genre=Metal
Discnumber=1

[/more]

Register
(34) aa144aa, AHBAnep, alikkon, Altkiller, artscald, BlackMirror, Dark Sage, evelyn, Gazzzooo, Grev, gwynnbleid, infozahist, kluval, Korpse, lacrimoza, LiarOfAngmar, Marek, metala, murayne, Narasimha, nsk2008, Old Vyaine, Olrak, Reverend, RUDACHUR, sergsazan, StoneTemple, stumpheavyrock, sunska, suseka, VALERY, vyacheslav, zhol, Волос,
Feb 5 2023, 03:04:19 Humiliation - Infantry (2022)


*Artist: Humiliation
*Album: Infantry
*Year: 2022
*Genre: Old School Death Metal
*Country: Malaysia
*Format: mp3@CBR320kbps
*Size: 96MB

Tracklist:
1. Colonization 04:32
2. Victims Of Opression 03:58
3. Resistance Against Restrictions 03:47
4. The Evoke 04:51
5. Rebellion 03:32
6. Kampar - Advancing Down 04:48
7. Gemencheh Bridge 03:47
8. In The Darkness Of Endau's Night 04:29
9. Last Days 04:19
10. Medal Of Honour 03:31
******************************
Total playing time: 41:34




[more=Extended info]Aima Bass
Mudon Drums (2009-present)
See also: ex-Nightshaders
Bear-Bee Vocals (2009-present)
See also: ex-Nightshaders
Asraf Guitars (2012-present)
See also: ex-Bloody Anatomies (live)
Amir Faisal Guitars (2015-present)
See also: Ulterior Decimation, ex-Bilharzia, ex-Died[/more]

[more=Technical info]
Input File: 08 - In The Darkness Of Endau\'s Night.mp3
Channels : 2
Sample Rate : 44100
Precision : 16-bit
Duration : 00:04:29.00 = 11862900 samples = 20175 CDDA sectors
File Size : 10.9M
Bit Rate : 325k
Sample Encoding: MPEG audio (layer I, II or III)
Comments :
Title=In The Darkness Of Endau's Night
Artist=Humiliation
Album=Infantry
Tracknumber=8
Year=2022-12-02
Genre=Metal
Discnumber=1

[/more]

Register
(34) Agressor, AHBAnep, alikkon, andreikun, artscald, Bregon, cesar, Corpuscul, ern1kkk, Golfzilla, Grev, infozahist, jollo, madera, metaljosue, Moonshtook, Phlebotomized, rebornflms95, RUSP73, russ777, sergsazan, SS2998, stumpheavyrock, sunska, suseka, TeamatSE, tim47, Unscarted, VALERY, vitosdemon, vosmidesijatye, vyacheslav, wanderer73, wertqqq,
Feb 4 2023, 18:57:01 Alchemist - Architecture Of Humanity [ep] (2023)


*Artist: Alchemist
*Album: Architecture Of Humanity [ep]
*Year: 2023
*Genre: Thrash Metal
*Country: Italy
*Format: mp3@CBR320kbps
*Size: 67MB

Tracklist:
1. The Fallen Angel 05:25
2. Wings of Freedom 04:19
3. Empty Mirrors 08:30
4. Cyclone of Torments 06:02
5. Human Impurity 05:21
******************************
Total playing time: 29:37




[more=Extended info]Lorenzo Daminato Bass
Michele Moglia Drums
Alessandro Gargivolo Vocals, Guitars
[youtube]qxnpQAGnJw8[/youtube]
[youtube]mvw8GpqdG4o[/youtube]
[youtube]bQpGmP5ua24[/youtube][/more]

[more=Technical info]
Input File: 04 - Cyclone of Torments.mp3
Channels : 2
Sample Rate : 44100
Precision : 16-bit
Duration : 00:06:02.34 = 15979282 samples = 27175.6 CDDA sectors
File Size : 14.5M
Bit Rate : 320k
Sample Encoding: MPEG audio (layer I, II or III)
Comments :
Title=Cyclone of Torments
Artist=Alchemist
Album=Architecture of Humanity
Tracknumber=4
Year=2023
Genre=Thrash Metal

[/more]

Register
(18) after21allD, artscald, boby9052, chipsgott, Corpuscul, Grev, infozahist, Lord Of The Siths, Marek, metala, METALHUNTER, metaljosue, Reverend, sergsazan, stumpheavyrock, thenecromancer, Wail, Xtohar,
Feb 4 2023, 18:08:15 Crippling Madness - Władcy Nocy (2023)


*Artist: Crippling Madness
*Album: Władcy Nocy
*Year: 2023
*Genre: Thrash Metal
*Country: Poland
*Format: mp3@CBR320kbps
*Size: 87MB

Tracklist:
1. Pancerna pięść 03:48
2. Lśniące zimne ostrze 05:24
3. Klątwa Innsmouth 03:33
4. W świetle prawa 04:38
5. Rozdarte dusze 04:49
6. Władcy nocy 05:01
7. Noc żywych trupów 04:38
8. Zerwij łańcuchy 05:02
******************************
Total playing time: 36:53




[more=Extended info]Mrówa Bass
Bosiek Drums
Bek Guitars
Pater Guitars
Boroth Vocals
[youtube]BiDD8E_jLZE[/youtube]
[youtube]XVTDF9LlRLY[/youtube][/more]

[more=Technical info]
Input File: 06 - Władcy nocy.mp3
Channels : 2
Sample Rate : 44100
Precision : 16-bit
Duration : 00:05:01.01 = 13274321 samples = 22575.4 CDDA sectors
File Size : 12.0M
Bit Rate : 320k
Sample Encoding: MPEG audio (layer I, II or III)
Comments :
Title=Władcy nocy
Artist=Crippling Madness
Album=Władcy Nocy
Tracknumber=6
Year=2023
Genre=Thrash Metal

[/more]

Register
(23) after21allD, andreikun, artscald, boby9052, cesar, CORPSEMIXA, gorlum22, hell_armageddon, infozahist, isvili, Marek, metala, metaljosue, Militia, postal67, sergsazan, stumpheavyrock, troll_swamp, v.v.m, Winterdark, wtk.412, xariton, Xtohar,
Feb 3 2023, 20:19:08 Soulmass - Let Us Pray (2023)
FLAC (Tracks) 375 mb
Register
(6) AHBAnep, CheCoola, isvili, LiarOfAngmar, Marek, suseka,
Feb 3 2023, 19:39:02 Soulmass - Let Us Pray (2023)


*Artist: Soulmass
*Album: Let Us Pray
*Year: 2023
*Genre: Death/Doom Metal
*Country: United States
*Format: mp3@CBR320kbps
*Size: 117MB

Tracklist:
1. A Call Beyond
2. Sympathy's Desire
3. Below the Lake
4. Ominous Prayer
5. Vile Executioner
6. Where the Crow Feathers Fall
7. Nightmares Reign
******************************
Total playing time: 51:00



[more=Extended info]Brett Windnagle All instruments (2014-present)
See also: Lascaille's Shroud, ex-Vermiform, ex-Kingdoms of Flesh, ex-Sedulity
Lux Edwards Vocals (2014-present)
See also: Wraithstorm, ex-This Solemn Vow, ex-Vermiform, ex-Kingdoms of Flesh, ex-Seven Kingdoms
[youtube]g9Wir3Da07Y[/youtube][/more]

[more=Technical info]
Input File: 07 - Nightmares Reign.mp3
Channels : 2
Sample Rate : 44100
Precision : 16-bit
Duration : 00:10:40.00 = 28224000 samples = 48000 CDDA sectors
File Size : 25.7M
Bit Rate : 321k
Sample Encoding: MPEG audio (layer I, II or III)
Comments :
Title=Nightmares Reign
Artist=Soulmass
Album=Let Us Pray
Tracknumber=7
Year=2023-02-03
Genre=Metal
Discnumber=1

[/more]

Register
(29) Altkiller, andreikun, BladeOvDarkness, CheCoola, chipsgott, Deada, doomTemplar, Grev, hellbibber, infozahist, kluval, kolar666, lacrimoza, LiarOfAngmar, Lord Of The Siths, Marek, metala, MMMMM, RUDACHUR, sergsazan, stumpheavyrock, suseka, TeamatSE, tim47, VALERY, vlad74, vyacheslav, yinchanghanhuang, yuratroll,
Feb 3 2023, 17:17:02 Evisarize - Blood For The Blackened Eyes [ep] (2022)


*Artist: Evisarize
*Album: Blood For The Blackened Eyes [ep]
*Year: 2022
*Genre: Black/Death/Thrash Metal
*Country: United Kingdom
*Format: mp3@CBR320kbps
*Size: 42MB

Tracklist:
1. Blood for the Blackened Eyes 03:40
2. Piss Runs Red 04:12
3. Inhuman Lust 02:58
4. Kusôzu 02:07
5. Dancing on the Grave of the World 05:05
******************************
Total playing time: 18:02




[more=Extended info]Alex Dickie Guitars (lead) (2015-present)
Ben Gillam Guitars (rhythm) (2015-present)
Vas Vocals (2015-present)
Chris Tuckley Bass (2022-present)
See also: BloodBomb, Complexant, Deiformity
Davide Marini Drums (2022-present)
See also: Concrete Age, ex-Lightless Moor, ex-Neravendetta, ex-Nightlord, ex-Slivers
[youtube]jEJPrZhRuzk[/youtube][/more]

[more=Technical info]
Input File: 05 - Dancing On The Grave Of The World.mp3
Channels : 2
Sample Rate : 44100
Precision : 16-bit
Duration : 00:05:05.00 = 13450500 samples = 22875 CDDA sectors
File Size : 12.3M
Bit Rate : 323k
Sample Encoding: MPEG audio (layer I, II or III)
Comments :
Title=Dancing On The Grave Of The World
Artist=Evisarize
Album=Blood For The Blackened Eyes
Tracknumber=5
Year=2022-10-31
Genre=Metal
Discnumber=1

[/more]

Register
(8) boby9052, dermarsoran, Grev, lldma, Lord Of The Siths, Marek, stumpheavyrock, wgs73,

1144 Pages V   1 2 3 > » 
- Lo-Fi Version Support form
Copyrights and abuse reports form
Time is now: 9th February 2023 - 07:17:47