Welcome Guest ( Log In | Register )

История благодарностей участнику Samaritianin ::: Спасибо сказали: 385097 раз(а)
Дата поста: В теме: За сообщение: Спасибо сказали:
Today, 02:14:39 Evildays - The End 2021 (2021)


*Artist: Evildays
*Album: The End 2021
*Year: 2021
*Genre: Death/Thrash Metal
*Country: Thailand
*Format: mp3@CBR320kbps
*Size: 102MB

Tracklist:
1. Intro 00:56
2. Death 04:07
3. Repay 03:21
4. Mail of Death 05:05
5. Don't Speak 03:49
6. Hell of Me 04:15
7. Aimless 04:51
8. The End 07:15
9. Outro 01:37
10. Evil of Nature 09:00
******************************
Total playing time: 44:16




[more=Extended info]Bundit Ruckveratham All instruments, Vocals
See also: Killing Fields, Lake of Rebirth, ex-Purgatory, Maha Khunchorn Trisian, Nirankarn, ex-Batstorm[/more]

[more=Technical info]
Input File: 08 - The End.mp3
Channels : 2
Sample Rate : 44100
Precision : 16-bit
Duration : 00:07:15.00 = 19183500 samples = 32625 CDDA sectors
File Size : 17.6M
Bit Rate : 323k
Sample Encoding: MPEG audio (layer I, II or III)
Comments :
Title=The End
Artist=EvilDays
Album=The End 2021
Tracknumber=8
Year=2021-07-23
Genre=Metal
Discnumber=1

[/more]

Register
(13) boby9052, caro, chipsgott, Fater_Hu, GorAtheist, infiltrator, metala, Olethros, sergsazan, supremo, suseka, Taakeferd, thrashiac55,
Yesterday, 19:56:29 The Biscuit Merchant - Unexplained Wounds (2021)


*Artist: The Biscuit Merchant
*Album: Unexplained Wounds
*Year: 2021
*Genre: Progressive/Modern Death Metal
*Country: United States
*Format: mp3@CBR320kbps
*Size: 113MB

Tracklist:
1. Particular 03:06
2. Uncanny Valley 07:31
3. Panic Panic 05:12
4. Messiah 04:27
5. Wallow 06:04
6. Maladaptive Man 03:08
7. Stereotype 04:38
8. Dokuro 05:09
9. Molecular 09:57
******************************
Total playing time: 49:12




[more=Technical info]
Input File: 08 - Dokuro.mp3
Channels : 2
Sample Rate : 44100
Precision : 16-bit
Duration : 00:05:09.00 = 13626900 samples = 23175 CDDA sectors
File Size : 12.5M
Bit Rate : 323k
Sample Encoding: MPEG audio (layer I, II or III)
Comments :
Title=Dokuro
Artist=The Biscuit Merchant
Album=Unexplained Wounds
Tracknumber=8
Year=2021-03-16
Discnumber=1

[/more]

Register
(8) caro, Fater_Hu, metala, Olethros, Orgasmik, suseka, Taakeferd, VALERY,
Yesterday, 18:47:15 Blacksword - Alive Again (2021)


*Artist: Blacksword
*Album: Alive Again
*Year: 2021
*Genre: Heavy/Power Metal
*Country: Russian Federation
*Format: mp3@CBR320kbps
*Size: 112MB

Tracklist:
1. Iron Will 04:56
2. Cave of the Witch 05:03
3. Immortal Hero 05:46
4. Barbarian Born 05:51
5. Long Lost Days 05:58
6. Darkest Heart 04:17
7. The Last Viking 06:27
8. Alive Again 08:00
9. The Crown of All 03:08
******************************
Total playing time: 49:26


Preview 2

[more=Extended info]Mike Livas - vocals
Ivan Viking - bass
Denis Grebenkin - guitars
Artem Omelenchuk - guitars
Stanislav Volkov - drums
[youtube]eJLSU1DQ-1E[/youtube]
[youtube]2wSJPo9m_f8[/youtube][/more]

[more=Technical info]
Input File: 07 - The Last Viking.mp3
Channels : 2
Sample Rate : 44100
Precision : 16-bit
Duration : 00:06:27.53 = 17089897 samples = 29064.5 CDDA sectors
File Size : 15.5M
Bit Rate : 320k
Sample Encoding: MPEG audio (layer I, II or III)
Comments :
Title=The Last Viking
Artist=BlackSword
Album=Alive Again
Tracknumber=7
Year=2021
Genre=Metal

[/more]

Register
(13) ace73pq, BandR75, boby9052, caro, Fater_Hu, Herrant, infiltrator, metala, Olethros, poeira, Rover, serrrgej, Taakeferd,
Yesterday, 18:04:34 Багира - И Грянет Гром (2021)


*Artist: Багира
*Album: И Грянет Гром
*Year: 2021
*Genre: Heavy Metal
*Country: Russian Federation
*Format: mp3@CBR320kbps
*Size: 120MB

Tracklist:
1. И грянет гром 04:55
2. Риск 04:50
3. Ангел Ада 04:07
4. Брат на брата 03:45
5. Дотянуться до небес 04:46
6. Немой испуг 04:31
7. Ничего святого 03:22
8. Судьба правит всем 06:29
9. Сбежать 04:20
10. Табу 04:05
11. Рок-н-ролла больше нет 04:01
12. Guardian Angel 02:38
******************************
Total playing time: 51:49




[more=Extended info]Alexander Shadrov Guitars
Alla Bulgakova Vocals
Rival Zakirov Bass
Bulat Sadreyev Drums
[youtube]Sp55XLZLoqY[/youtube]
[youtube]ER4bl8raubs[/youtube][/more]

[more=Technical info]
Input File: 08 - Судьба Правит Всем.mp3
Channels : 2
Sample Rate : 44100
Precision : 16-bit
Duration : 00:06:29.00 = 17154900 samples = 29175 CDDA sectors
File Size : 15.7M
Bit Rate : 323k
Sample Encoding: MPEG audio (layer I, II or III)
Comments :
Title=Судьба Правит Всем
Artist=Bagira
Album=И Грянет Гром
Tracknumber=8
Year=2021-07-27
Genre=Metal
Discnumber=1

[/more]

Register
(11) A.L.Rapsod, Aresson, caro, Fater_Hu, GorAtheist, infiltrator, Olethros, Rover, Taakeferd, VALERY, Сварог Барг,
Yesterday, 17:15:50 Trail Of Blood - Trail Of Blood [ep] (2021)


*Artist: Trail Of Blood
*Album: Trail Of Blood [ep]
*Year: 2021
*Genre: Old School Death Metal
*Country: Sweden
*Format: mp3@CBR320kbps
*Size: 38MB

Tracklist:
1. False Prophets 03:04
2. Carnal Creation 02:52
3. The Serpent of Old 03:27
4. Beyond Redemption 03:54
5. Harbinger of Death 03:26
******************************
Total playing time: 16:43



[more=Technical info]
Input File: 04. Beyond Redemption.mp3
Channels : 2
Sample Rate : 44100
Precision : 16-bit
Duration : 00:03:54.54 = 10343346 samples = 17590.7 CDDA sectors
File Size : 9.38M
Bit Rate : 320k
Sample Encoding: MPEG audio (layer I, II or III)
Comments :
Title=Beyond Redemption
Artist=Trail of Blood
Album=Trail of Blood
Tracknumber=04
Year=2021

[/more]

Register
(14) caro, Fater_Hu, Geralder, GorAtheist, infiltrator, infozahist, metalboll, older68, Olethros, sergsazan, soulflesh, Taakeferd, VALERY, zhol,
Yesterday, 16:55:58 Profane Desecration - Abysmal Stillness (2021)


*Artist: Profane Desecration
*Album: Abysmal Stillness
*Year: 2021
*Genre: Death Metal
*Country: United States
*Format: mp3@CBR320kbps
*Size: 75MB

Tracklist:
1. Dead Planet 04:27
2. Leave No Trace 02:51
3. The Reaper Is Waiting 04:35
4. At Midnight 02:05
5. Forest Graves 03:18
6. Abysmal 05:03
7. Stillness 03:57
8. The Drowning Temple 05:42
******************************
Total playing time: 31:58




[more=Extended info]B Bass, Vocals
M Drums
K Guitars[/more]

[more=Technical info]
Input File: Profane Desecration - Abysmal Stillness - 08 The Drowning Temple.mp3
Channels : 2
Sample Rate : 44100
Precision : 16-bit
Duration : 00:05:43.06 = 15128902 samples = 25729.4 CDDA sectors
File Size : 13.9M
Bit Rate : 325k
Sample Encoding: MPEG audio (layer I, II or III)
Comments :
Title=The Drowning Temple
Artist=Profane Desecration
Album=Abysmal Stillness
Tracknumber=8
Year=2021

[/more]

Register
(12) caro, Fater_Hu, grimoir, infiltrator, older68, Olethros, Pinhead666, supremo, suseka, Taakeferd, VALERY, wtk.412,
Yesterday, 16:44:37 Vroma - Oubliette (2021)


*Artist: Vroma
*Album: Oubliette
*Year: 2021
*Genre: Brutal Death Metal
*Country: United States
*Format: mp3@CBR320kbps
*Size: 73MB

Tracklist:
1. Putrid Excrement
2. Transformed by Mutilation
3. Beaten and Burned
4. 245 Trioxcin
5. Decomposing Sacrifice
6. Death Process
7. Human Slaughterhouse
8. Lucilia Sericata
9. Flesh Combined
10. Efialtis the Old One
11. Tangled in Intenstines
******************************
Total playing time: 32:01



[more=Extended info]Alex - Guitars/Vocals/Production
Stephen - Guitars/Bass[/more]

[more=Technical info]
Input File: 07 - Human Slaughterhouse.mp3
Channels : 2
Sample Rate : 44100
Precision : 16-bit
Duration : 00:03:37.09 = 9573757 samples = 16281.9 CDDA sectors
File Size : 8.69M
Bit Rate : 320k
Sample Encoding: MPEG audio (layer I, II or III)
Comments :
Title=Human Slaughterhouse
Artist=Vroma
Album=Oubliette
Tracknumber=7
Year=2021

[/more]

Register
(13) Bregon, caro, EvilSpirit, GorAtheist, infiltrator, metala, noel666, older68, Olethros, sludge666, supremo, suseka, Taakeferd,
Yesterday, 16:32:57 Cygnium - Born Under A Pile Of Zombie Dung (2021)


*Artist: Cygnium
*Album: Born Under A Pile Of Zombie Dung
*Year: 2021
*Genre: Death Metal
*Country: Germany
*Format: mp3@CBR320kbps
*Size: 63MB

Tracklist:
1. Putrephile
2. Two For One
3. Island Of The Dead
4. The End Of Consent
5. In The End It Pays The Rent
6. Born Under A Pile Of Zombie Dung
7. Abusing The Oozing
8. Zombies Ate My Neighbour
9. Overdeaden
******************************
Total playing time: 27:38



[more=Extended info]Michael Smykalla Unknown (2007-present)
See also: ex-Deathstruction, ex-Exposed Guts, ex-Cuatro X
David Frieg Vocals, Bass (2009-present)[/more]

[more=Technical info]
Input File: 07 - Abusing The Oozing.mp3
Channels : 2
Sample Rate : 44100
Precision : 16-bit
Duration : 00:03:18.13 = 8737357 samples = 14859.5 CDDA sectors
File Size : 7.93M
Bit Rate : 320k
Sample Encoding: MPEG audio (layer I, II or III)
Comments :
Title=Abusing The Oozing
Artist=Cygnium
Album=Born Under A Pile Of Zombie Dung
Tracknumber=7
Year=2021

[/more]

Register
(10) caro, infiltrator, infozahist, metamfer, Olethros, Orgasmik, supremo, suseka, Taakeferd, VALERY,
Yesterday, 16:21:20 Verdugo 1905 - Cadenas (2021)


*Artist: Verdugo 1905
*Album: Cadenas
*Year: 2021
*Genre: Death/Thrash Metal
*Country: Chile
*Format: mp3@CBR320kbps
*Size: 65MB

Tracklist:
1. Almas 05:14
2. Contra el poder 05:04
3. Autopsia 02:55
4. Intro 1905 01:09
5. Cadenas 04:08
6. Lucha por las tierras 05:08
7. Aguas putrefactas 05:01
******************************
Total playing time: 28:39



[more=Extended info]José Nuñez Drums (2013-present)
Milko Gutierrez Vocals (2013-present)
See also: ex-DeathSoul
Sebastián Castillo Guitars (2014-present)
See also: Iconoclasta
Francisco Navarro Barrientos Bass (2019-present)
[youtube]YTLLYuOPXys[/youtube][/more]

[more=Technical info]
Input File: 07 - Aguas Putrefactas.mp3
Channels : 2
Sample Rate : 44100
Precision : 16-bit
Duration : 00:05:01.37 = 13290329 samples = 22602.6 CDDA sectors
File Size : 12.1M
Bit Rate : 320k
Sample Encoding: MPEG audio (layer I, II or III)
Comments :
Title=Aguas Putrefactas
Artist=Verdugo 1905
Album=Cadenas
Tracknumber=7
Year=2021

[/more]

Register
(10) boby9052, caro, infiltrator, metala, Olethros, smysl, supremo, suseka, Taakeferd, thrashiac55,
Jul 26 2021, 23:53:01 Gaslarm - Songs From The Crypt (2021)


*Artist: Gaslarm
*Album: Songs From The Crypt
*Year: 2021
*Genre: Thrash/Speed Metal
*Country: Sweden
*Format: mp3@CBR320kbps
*Size: 93MB

Tracklist:
1. Intro 02:20
2. Fire Fear Flames 04:53
3. Life As Such 03:35
4. Disembodied 03:46
5. Mythadrinia 05:38
6. Down In The Bog 04:36
7. Mirror Mirror 06:25
8. Heeding The Cull 03:58
9. Not Human 05:07
******************************
Total playing time: 40:18




[more=Extended info]Riff Lord All instruments, Vocals
See also: A.L.P., The Porridgeface, ex-Age of Nefarious, ex-Excöriator, ex-HeadQuaker, ex-Psychotrone, ex-Secret Attack
Charles Daaboul Lyrics
Pallav Adhikari Lyrics (2017-present)
Peter Nyström Lyrics (2018-present)[/more]

[more=Technical info]
Input File: 07 - Mirror Mirror.mp3
Channels : 2
Sample Rate : 44100
Precision : 16-bit
Duration : 00:06:25.00 = 16978500 samples = 28875 CDDA sectors
File Size : 15.5M
Bit Rate : 322k
Sample Encoding: MPEG audio (layer I, II or III)
Comments :
Title=Mirror Mirror
Artist=Gaslarm
Album=Songs from the Crypt
Tracknumber=7
Year=2021-07-17
Discnumber=1

[/more]

Register
(24) after21allD, avather, boby9052, caro, chipsgott, dan22, Fater_Hu, GorAtheist, HMHamster, infiltrator, infozahist, Marek, Olethros, sagratan, sergsazan, smes, stumpheavyrock, supremo, suseka, thrashiac55, VALERY, varg23, wgs73, Z28517,
Jul 26 2021, 17:02:51 Digimortal - Гравитация (2021)


*Artist: Digimortal
*Album: Гравитация
*Year: 2021
*Genre: Industrial/Modern Metal
*Country: Russian Federation
*Format: mp3@CBR320kbps
*Size: 200MB

Tracklist:
1. Дай нам силы 02:00 instrumental
2. Правда 05:23
3. Кровью 03:22
4. Свет нового дня 04:59
5. Карма 04:43
6. Анонимус 03:30
7. Вверх 04:25
8. Тонкий лёд 04:33
9. Один 04:19
10. Digimortal 04:42
11. Гравитация 04:23 instrumental
12. Правда (Instrumental) 05:21
13. Кровью (Instrumental) 03:18
14. Свет Нового Дня (Instrumental) 05:00
15. Карма (Instrumental) 04:43
16. Анонимус (Instrumental) 03:30
17. Вверх (Instrumental) 04:27
18. Тонкий Лёд (Instrumental) 04:33
19. Один (Instrumental) 04:20
20. Digimortal (Instrumental) 04:44
******************************
Total playing time: 1:26:15



[more=Extended info]Serdj Vocals, Guitars, Samples
Danil Bass
Anton Drums
Vadim Guitars
[youtube]al7UfaNpZ7Y[/youtube][/more]

[more=Technical info]
Input File: 07 - Вверх.mp3
Channels : 2
Sample Rate : 44100
Precision : 16-bit
Duration : 00:04:25.00 = 11686500 samples = 19875 CDDA sectors
File Size : 10.8M
Bit Rate : 326k
Sample Encoding: MPEG audio (layer I, II or III)
Comments :
Title=Вверх
Artist=Digimortal
Album=Гравитация
Tracknumber=7
Year=2021-07-27
Genre=Metal
Discnumber=1

[/more]

Register
(20) Aresson, Bregon, caro, chipsgott, Fater_Hu, GorAtheist, hate_eternal, infiltrator, Kasper969, let4ikmiha, MeatWolf, Nitais_Ter, Olethros, Paradayz, Phlebotomized, SaintVitus, Slam91, VALERY, varg23, Сварог Барг,
Jul 26 2021, 16:35:47 Vassago - Storm Of Satan (2021)


*Artist: Vassago
*Album: Storm Of Satan
*Year: 2021
*Genre: Death/Black Metal
*Country: Sweden
*Format: mp3@CBR320kbps
*Size: 92MB

Tracklist:
1. Darkness of Satan 03:50
2. Elite of Satan 03:50
3. Evil of Satan 03:29
4. Fire of Satan 03:30
5. Grind of Satan 03:47
6. Mayhem of Satan 03:29
7. Metal of Satan 05:51
8. Sign of Satan 04:10
9. Storm of Satan 04:20
10. War of Satan 04:27
******************************
Total playing time: 40:43



[more=Extended info]Anders Bass (?-?, ?-present)
See also: Trident, ex-Death Tyrant, ex-Lord Belial
Niclas "Pepa" Andersson Guitars
See also: Lord Belial, ex-Gallows Pride, ex-Sacramentum, ex-Dimension Zero (live), ex-Latex
Suckdog Guitars (lead) (?-?, ?-present)
KK Kranium Keyboards (?-?, ?-present)
Micke Vocals, Drums
See also: Lord Belial, ex-Altus Ultionis, ex-Hellgoat, ex-Latex, Hex, ex-Them
[youtube]oMl5oT05-U0[/youtube][/more]

[more=Technical info]
Input File: 07 - Metal of Satan.mp3
Channels : 2
Sample Rate : 44100
Precision : 16-bit
Duration : 00:05:51.43 = 15497975 samples = 26357.1 CDDA sectors
File Size : 14.1M
Bit Rate : 320k
Sample Encoding: MPEG audio (layer I, II or III)
Comments :
Title=Metal of Satan
Artist=Vassago
Album=Storm of Satan
Tracknumber=7
Year=2021
Genre=Metal

[/more]

Register
(30) alex-82, AlexSmith, atavist, BERZERK, Bzth, caro, craP_cillA, DarkHorde, deadpyhto, Fater_Hu, ForzaMinardi1977, GorAtheist, infiltrator, Marek, metala, MikkeFFF, MP101M, older68, Olethros, quicksand, smes, smysl, stumpheavyrock, supremo, suseka, VALERY, vov7609, vyacheslav, WarmasterChorus, Варяг,
Jul 26 2021, 14:44:38 Deathcrime - Crueldad Subconsciente [ep] (2021)


*Artist: Deathcrime
*Album: Crueldad Subconsciente [ep]
*Year: 2021
*Genre: Death Metal
*Country: Colombia
*Format: mp3@CBR320kbps
*Size: 35MB

Tracklist:
01. Bacrim
02. Illuminati
03. Manipulacion
04. Masacre en Bojaya
05. Prueba de Muerte
******************************
Total playing time: 14:55



[more=Extended info]Javier Patiño Bass
Ronald Rodríguez Drums
Rodrigo Lizarazo Guitars
Johan Andrés Luna Guitars
Cristian Naranjo Vocals
[youtube]sAo5j5g7sjs[/youtube][/more]

[more=Technical info]
Input File: 05 - Prueba de Muerte.mp3
Channels : 2
Sample Rate : 44100
Precision : 16-bit
Duration : 00:04:03.00 = 10716300 samples = 18225 CDDA sectors
File Size : 9.90M
Bit Rate : 326k
Sample Encoding: MPEG audio (layer I, II or III)
Comments :
Title=Prueba de Muerte
Artist=Death Crime Colombia
Album=Crueldad Subconsciente
Tracknumber=5
Year=2021-03-09
Genre=Metal
Discnumber=1

[/more]

Register
(8) caro, Fater_Hu, infiltrator, Olethros, Taakeferd, VALERY, vyacheslav, wanderer73,
Jul 25 2021, 19:03:32 Godslave - Positive Aggressive (2021)
ЦИТАТА(sadmannn @ 25th July 2021 - 18:01:53) *
Хороший трэшак

Да.
Они каждый альбом выдают вполне на уровне,хотя их земляки Eradicator
с их новым творением за счет мелодий понравился мне гораздо больше.
(2) Diflock, metamfer,
Jul 25 2021, 17:25:42 Born A Ghost - The Beginning To An Ending (2021)


*Artist: Born A Ghost
*Album: The Beginning To An Ending
*Year: 2021
*Genre: Drone/Doom/Post-Metal
*Country: United States
*Format: mp3@CBR320kbps
*Size: 102MB

Tracklist:
1. Shun the Believer 04:30
2. The Beginning to an Ending 03:24
3. Neurotic 05:09
4. Blind Witness 05:38
5. Mildew 04:33
6. The Long Road 04:13
7. Echoes 05:19
8. Rot Sequence 03:40
9. The Tower 08:06
******************************
Total playing time: 44:32




[more=Extended info]Sergio Vasquez Bass
Craig Hathaway Drums, Keyboards
Howard Taylor Jolin Vocals, Guitars, Keyboards[/more]

[more=Technical info]
Input File: 07 - Echoes.mp3
Channels : 2
Sample Rate : 44100
Precision : 16-bit
Duration : 00:05:19.29 = 14080645 samples = 23946.7 CDDA sectors
File Size : 12.8M
Bit Rate : 320k
Sample Encoding: MPEG audio (layer I, II or III)
Comments :
Title=Echoes
Artist=Born a Ghost
Album=The Beginning to an Ending
Tracknumber=7
Year=2021

[/more]

Register
(7) caro, Fater_Hu, HMHamster, infiltrator, Mencae77, Olethros, suseka,
Jul 25 2021, 16:57:08 Nurseflesh - Music Made Of Nothing (2021)


*Artist: Nurseflesh
*Album: Music Made Of Nothing
*Year: 2021
*Genre: Black/Industrial Metal
*Country: United Kingdom
*Format: mp3@CBR320kbps
*Size: 83MB

Tracklist:
1. Event Horizon
2. Inch Man
3. Acid Rain (2021 Remaster)
4. Equal
5. Scorched Earth (2021 Remaster)
6. Suspiria
7. Persepfiya / Funeral
8. Cauterize
9. Black Mass (2021 Remaster)
10. Nuclear War (2021 Remaster)
11. Bad Seed
******************************
Total playing time: 36:09




[more=Extended info][youtube]vQdIfpQshrg[/youtube][/more]

[more=Technical info]
Input File: 07 - Persepfiya _ Funeral.mp3
Channels : 2
Sample Rate : 44100
Precision : 16-bit
Duration : 00:04:18.68 = 11407832 samples = 19401.1 CDDA sectors
File Size : 10.4M
Bit Rate : 320k
Sample Encoding: MPEG audio (layer I, II or III)
Comments :
Title=Persepfiya / Funeral
Artist=Nurseflesh
Album=Music Made of Nothing
Tracknumber=7
Year=2021

[/more]

Register
(11) AlexSmith, caro, Fater_Hu, infiltrator, metala, Olethros, Ostinato, supremo, VALERY, yuratroll, Сварог Барг,
Jul 25 2021, 03:16:31 Galvanizer - Prying Sight Of Imperception (2021)
FLAC (Tracks) 217 mb
Register
(3) Marek, Olethros, wtk.412,
Jul 25 2021, 03:14:46 Kompost - Pallor Mortis (2021)
FLAC (Tracks) 235 mb
Register
(3) AHBAnep, infiltrator, Olethros,
Jul 25 2021, 03:06:20 Craven Idol - Forked Tongues (2021)
FLAC (Tracks) 527 mb
Register
(5) AHBAnep, infiltrator, metamfer, Olethros, wtk.412,
Jul 25 2021, 03:02:59 Fulci - Exhumed Information (2021)
FLAC (Tracks) 208 mb
Register
(3) AHBAnep, infiltrator, Olethros,
Jul 25 2021, 03:00:54 Caedere - Eighty Years' War (Dutch War Of Independence) (2021)
FLAC (Tracks) 282 mb
Register
(3) AHBAnep, infiltrator, Olethros,
Jul 25 2021, 02:55:49 Temple Of Dread - Hades Unleashed (2021)
FLAC (Tracks) 305 mb
Register
(4) AHBAnep, infiltrator, isvili, Olethros,
Jul 25 2021, 02:46:58 Necrogod - In Extremis (2021)
FLAC (Tracks) 251 mb
Register
(5) AHBAnep, infiltrator, metamfer, Olethros, suseka,
Jul 24 2021, 21:06:00 Znich - Xxv (2021)


*Artist: Znich
*Album: Xxv
*Year: 2021
*Genre: Pagan/Folk Metal
*Country: Belarus
*Format: mp3@CBR320kbps
*Size: 125MB

Tracklist:
1. Язычнік я... 03:47
2. Чорны Зніч 03:33
3. Ой дымна за дваром 04:18
4. Крыва Крывейта 02:56
5. Як пушчу стралу 05:20
6. Беларусь 05:10
7. Крыжы Абярэгі 04:38
8. Каляда-Калядзец 03:50
9. Мроя 05:17
10. Ярыла 05:07
11. Дунаю 05:07
12. Жыццё (bonus) 05:00
******************************
Total playing time: 54:03


Preview 2

[more=Extended info]Алесь Таболіч – вакал
Максім Лях – гітара
Марына Макарэвіч – клавішы, вакал
Кастусь Трамбіцкі – дудкі, дуда
Максім Сцец – бас
Усевалад Календа – бубны, перкусія
Марына Пятрова – вакал
Таццяна Уласевіч – вакал
Дар'я Зуева – вакал[/more]

[more=Technical info]
Input File: 09 - Мроя.mp3
Channels : 2
Sample Rate : 44100
Precision : 16-bit
Duration : 00:05:17.00 = 13979700 samples = 23775 CDDA sectors
File Size : 12.8M
Bit Rate : 324k
Sample Encoding: MPEG audio (layer I, II or III)
Comments :
Title=Мроя
Artist=Znich
Album=XXV
Tracknumber=9
Year=2021-07-22
Genre=Metal
Discnumber=1

[/more]

Register
(49) aleon, AlexSmith, alikkon, Aresson, Black Cat, Brutal, caro, Cartman223, chipsgott, Fater_Hu, gav-gafi, gena, grobator, gwar, HMHamster, infiltrator, infozahist, kluval, kostja, metala, metamfer, Moonshtook, Olethros, Orkkh, Phlebotomized, ripper33, SaintVitus, samm69, serjred, Slavas, smes, spazm, stone88, supremo, suseka, Taakeferd, TeamatSE, tt2008, Un4given, v.v.m, VALERY, varg23, varlam4, vasiljev_sergej, Vitald, wanderer73, Авел, Сварог Барг, скептик,
Jul 24 2021, 19:16:14 Mercaptan - Shadows Of The Cross (2021)


*Artist: Mercaptan
*Album: Shadows Of The Cross
*Year: 2021
*Genre: Thrash/Heavy Metal
*Country: Romania
*Format: mp3@CBR320kbps
*Size: 143MB

Tracklist:
1. Lifeline
2. Train of consequences
3. The day I'll be free
4. Welcome the apocalypse
5. Abortion
6. The unmendable
7. Addiction, suicide
8. The dead redeemer
9. Suicide mission
******************************
Total playing time: 1:02:37



[more=Extended info][youtube]VjSDhL4EVuk[/youtube]
[youtube]pq2wMYRXSY8[/youtube][/more]

[more=Technical info]
Input File: 08 - The dead redeemer.mp3
Channels : 2
Sample Rate : 44100
Precision : 16-bit
Duration : 00:09:03.51 = 23968791 samples = 40763.2 CDDA sectors
File Size : 21.7M
Bit Rate : 320k
Sample Encoding: MPEG audio (layer I, II or III)
Comments :
Title=The dead redeemer
Artist=Mercaptan
Album=Shadows of the cross
Tracknumber=8
Year=2021

[/more]

Register
(18) after21allD, alikkon, boby9052, caro, cesar, Fater_Hu, gwar, HMHamster, infiltrator, infozahist, metala, Olethros, postal67, Rover, sergsazan, stumpheavyrock, Taakeferd, thrashiac55,

959 Pages V   1 2 3 > » 
- Lo-Fi Version Support form
Copyrights and abuse reports form
Time is now: 28th July 2021 - 18:30:07