Welcome Guest ( Log In | Register )

История благодарностей участнику Samaritianin ::: Спасибо сказали: 221045 раз(а)
Дата поста: В теме: За сообщение: Спасибо сказали:
Today, 02:56:10 Unaussprechlichen Kulten - Teufelsbücher (2019)
320 104 mb
Register
(2) Beazth, deathic,
Yesterday, 19:54:21 Dødsdrift - Weltenszission (2019)
Cloud Mail 320
Register
(1) system36,
Yesterday, 19:48:16 Speedemon - Hellcome (2019)
Cloud Mail 320
Register
(2) boby9052, Diflock,
Oct 19 2019, 22:15:31 Species - The Monument Of Envy [ep] (2019)


*Artist: Species
*Album: The Monument Of Envy [ep]
*Year: 2019
*Genre: Progressive Thrash Metal
*Country: Poland
*Format: mp3@CBR320kbps
*Size: 43MB

Tracklist:
1. Falls the Tower 06:06
2. The Monument of Envy 05:33
3. Thy Name Is Slaughter 06:55
******************************
Total playing time: 18:34




[more=Extended info]Przemysław Hampelski Drums
Michał Kępka Guitars
Piotr Drobina Vocals, Bass
[youtube]2TBNgoywUS0[/youtube][/more]

[more=Technical info]
Input File: 02 - The Monument of Envy.mp3
Channels : 2
Sample Rate : 44100
Precision : 16-bit
Duration : 00:05:33.89 = 14724505 samples = 25041.7 CDDA sectors
File Size : 13.5M
Bit Rate : 323k
Sample Encoding: MPEG audio (layer I, II or III)
Comments :
Title=The Monument of Envy
Artist=Species
Album=The Monument of Envy
Tracknumber=2
Year=2019-05-31
Genre=Metal
Discnumber=1

[/more]

Register
(10) artscald, boby9052, chipsgott, kimkayoung, metala, Olethros, Penetralia, pichileon, thrashiac, Луч,
Oct 19 2019, 21:39:44 Anti-Hero - Rolling Thunder [ep] (2019)


*Artist: Anti-Hero
*Album: Rolling Thunder [ep]
*Year: 2019
*Genre: Thrash Metal
*Country: United States
*Format: mp3@CBR320kbps
*Size: 48MB

Tracklist:
1. Rolling Thunder 03:42
2. Sacrificial Goat 04:32
3. Get the Lead Out 06:10
4. Rocketfire 05:53
******************************
Total playing time: 20:17




[more=Extended info]David Goldberg Drums
Justin Ellis Vocals (backing), Bass
Neil Metcalf Vocals (backing), Guitars
Calvin Adrian Vocals (lead), Guitars
[youtube]W0imw82PcPs[/youtube][/more]

[more=Technical info]
Input File: 03 - Get the Lead Out.mp3
Channels : 2
Sample Rate : 44100
Precision : 16-bit
Duration : 00:06:10.12 = 16322424 samples = 27759.2 CDDA sectors
File Size : 15.0M
Bit Rate : 325k
Sample Encoding: MPEG audio (layer I, II or III)
Comments :
Title=Get the Lead Out
Artist=Anti-Hero
Album=Rolling Thunder
Tracknumber=3
Year=2019-04-19
Genre=Metal
Discnumber=1

[/more]

Register
(6) artscald, boby9052, Olethros, pichileon, thrashiac, wanderer73,
Oct 19 2019, 21:14:17 Gmoh - Grayscale Spectrum (2019)


*Artist: Gmoh
*Album: Grayscale Spectrum
*Year: 2019
*Genre: Sludge/Death Metal/Post-Metal
*Country: Poland
*Format: mp3@CBR320kbps
*Size: 75MB

Tracklist:
1. Prelude 00:33 instrumental
2. Cathedrals of Loath 04:26
3. Nihilum Tenebris 04:01
4. Like Mercury 03:42
5. Fall of Faith 05:20
6. Declaration of Chaos 04:36
7. Dark Dead Tomorrow 04:54
8. No More the Slave 04:48
******************************
Total playing time: 32:20




[more=Extended info]M. Guitars, Vocals (2011-present)
Z. Guitars, Vocals (2011-present)
K. Drums (2015-present)
G. Bass (2016-present)
[youtube]-tilKOcp7qQ[/youtube][/more]

[more=Technical info]
Input File: 05 - Fall of Faith.mp3
Channels : 2
Sample Rate : 44100
Precision : 16-bit
Duration : 00:05:20.67 = 14141547 samples = 24050.2 CDDA sectors
File Size : 12.9M
Bit Rate : 322k
Sample Encoding: MPEG audio (layer I, II or III)
Comments :
Title=Fall of Faith
Artist=Gmoh
Album=Grayscale Spectrum
Tracknumber=5
Year=2019-10-13
Genre=Metal
Discnumber=1

[/more]

Register
(5) artscald, as71, Olethros, Ostinato, Герб,
Oct 19 2019, 20:38:40 Torrax - V Každym Z Nás (2019)


*Artist: Torrax
*Album: V Každym Z Nás
*Year: 2019
*Genre: Power Metal
*Country: Czech Republic
*Format: mp3@CBR320kbps
*Size: 100MB

Tracklist:
1. Intro 00:58
2. Dej se k nám 04:16
3. Metalová 02:29
4. Duše 03:44
5. Deprese 03:54
6. Život už dal ti dost 04:20
7. Bludnej Holanďan 03:33
8. V Ardenách 06:45
9. Jizvy v srdcích 06:14
10. Somálská 06:51
******************************
Total playing time: 43:04




[more=Extended info]Honza Sobota
Michal Kružík
David Svoboda
Jindřich Čejka
Jaroslav Komberec
[youtube]McL7LeLGrE0[/youtube][/more]

[more=Technical info]
Input File: 05 - Deprese.mp3
Channels : 2
Sample Rate : 44100
Precision : 16-bit
Duration : 00:03:54.88 = 10358164 samples = 17615.9 CDDA sectors
File Size : 9.57M
Bit Rate : 326k
Sample Encoding: MPEG audio (layer I, II or III)
Comments :
Title=Deprese
Artist=Torrax
Album=V každym z nás
Tracknumber=5
Year=2019

[/more]

Register
(6) artscald, metalwoman, Olethros, Rover, zhol, Сварог Барг,
Oct 19 2019, 20:16:37 Eviscerator - Unparalleled Peril [ep] (2019)


*Artist: Eviscerator
*Album: Unparalleled Peril [ep]
*Year: 2019
*Genre: Slamming Technical Deathcore
*Country: United States
*Format: mp3@CBR320kbps
*Size: 33MB

Tracklist:
1. Death 01:00
2. Profane Glory 02:19
3. Drowning 01:03
4. Re-Birth 00:45
5. Unparalleled Peril 02:51
6. The Food Chain (feat. Lucca Schmerler) 04:00
7. The Serpent's Eye 02:04
******************************
Total playing time: 14:02




[more=Extended info]Andrew Johnson
Austin Doyle
Ft. Lucca Schmerler
[youtube]ELXqqneXpgo[/youtube][/more]

[more=Technical info]
Input File: 06 - The Food Chain (feat. Lucca Schmerler).mp3
Channels : 2
Sample Rate : 44100
Precision : 16-bit
Duration : 00:04:00.24 = 10594364 samples = 18017.6 CDDA sectors
File Size : 9.73M
Bit Rate : 324k
Sample Encoding: MPEG audio (layer I, II or III)
Comments :
Title=The Food Chain (feat. Lucca Schmerler)
Artist=Eviscerator; Lucca Schmerler
Album=Unparalleled Peril
Tracknumber=6
Year=2019-10-15
Genre=Metal
Discnumber=1

[/more]

Register
(3) artscald, chipsgott, Olethros,
Oct 19 2019, 19:45:34 First Time In Hell - First Time In Hell (2019)


*Artist: First Time In Hell
*Album: First Time In Hell
*Year: 2019
*Genre: Heavy Metal
*Country: Germany
*Format: mp3@CBR320kbps
*Size: 106MB

Tracklist:
01. No Decency
02. Rising
03. Mask to Cover the Truth
04. Lz-36 (Giant in the Sky)
05. Morlocks
06. Things That Never Were
07. First Time in Hell
******************************
Total playing time: 49:47



[more=Extended info]Thilo Henke: Lead Vocals
Stephan Tillmann: Guitars
Kai Tauber: Bass
Christoph Thiele: Drums[/more]

[more=Technical info]
Input File: 03. Mask to Cover the Truth.mp3
Channels : 2
Sample Rate : 44100
Precision : 16-bit
Duration : 00:09:02.10 = 23906610 samples = 40657.5 CDDA sectors
File Size : 21.8M
Bit Rate : 321k
Sample Encoding: MPEG audio (layer I, II or III)
Comments :
Title=Mask to Cover the Truth
Artist=First Time In Hell
Album=First Time in Hell
Tracknumber=3/7
Year=2019
Genre=9
Discnumber=1/1

[/more]

Register
(7) artscald, aviacademy, metala, Olethros, postal67, Rover, Сварог Барг,
Oct 19 2019, 19:31:28 Endless - Endless (2019)


*Artist: Endless
*Album: Endless
*Year: 2019
*Genre: Progressive Black/Post-Metal
*Country: Mexico
*Format: mp3@CBR320kbps
*Size: 104MB

Tracklist:
1. M.M.A.D. I
2. 25-17
3. M.M.A.D. II
4. Not Your Gods
5. M.M.A.D. III
6. Unholy Mountain
7. M.M.A.D. IV
8. Onassis
9. M.M.A.D. V
10. Remember The Sun feat. Ikanunna
11. M.M.A.D. VI
12. Casi Perdemos Todo
13. Remember The Sun (Instrumental - Bonus Track)
******************************
Total playing time: 45:20



[more=Extended info]Alex
Fernando
Gio
Romo[/more]

[more=Technical info]
Input File: 04 - Not Your Gods.mp3
Channels : 2
Sample Rate : 44100
Precision : 16-bit
Duration : 00:04:59.20 = 13194544 samples = 22439.7 CDDA sectors
File Size : 12.1M
Bit Rate : 322k
Sample Encoding: MPEG audio (layer I, II or III)
Comments :
Title=Not Your Gods
Artist=Endless
Album=Endless
Tracknumber=4
Year=2019

[/more]

Register
(7) 1968_janeart, artscald, kimkayoung, Olethros, Ostinato, suseka, tamerz,
Oct 19 2019, 18:29:41 Purulent Necrosis - Cadaverized Humanity (2019)


*Artist: Purulent Necrosis
*Album: Cadaverized Humanity
*Year: 2019
*Genre: Brutal Death Metal
*Country: United States
*Format: mp3@CBR320kbps
*Size: 63MB

Tracklist:
01. Calculated Acts of Retribution
02. Merciless Vivisection Process
03. Invoke the Creophagous
04. Purity Shrouded in Putrefaction
05. Decimate the Consecrated
06. Cadaverized Humanity
07. Induced Parasitic Gestation
08. Festering Anal Vomit (Lust of Decay)
09. Vile Formations of Putridity
10. Scriptures of Ominous Suffering
11. Throne of Carnage
******************************
Total playing time: 31:07




[more=Extended info]Justin Downs - Vocals
Blake Scott - Guitars
Steve Green - Guitars
Matthew Green - Drums
Jason Keating - Bass
[youtube]4QXULaSeLlg[/youtube][/more]

[more=Technical info]
Input File: 04. Purity Shrouded In Putrefaction.mp3
Channels : 2
Sample Rate : 44100
Precision : 16-bit
Duration : 00:03:39.16 = 9664956 samples = 16437 CDDA sectors
File Size : 8.85M
Bit Rate : 323k
Sample Encoding: MPEG audio (layer I, II or III)
Comments :
Title=Purity Shrouded In Putrefaction
Artist=Purulent Necrosis
Album=Cadaverized Humanity
Tracknumber=4
Year=2019
Genre=Brutal Death

[/more]

Register
(6) artscald, jollo, maochen, metala, Olethros, Герб,
Oct 19 2019, 18:15:17 Black Knife - Spell Caster (2019)


*Artist: Black Knife
*Album: Spell Caster
*Year: 2019
*Genre: Black Metal/Punk
*Country: United States
*Format: mp3@CBR320kbps
*Size: 73MB

Tracklist:
1. Drag You to Hell 02:38
2. Spell Caster 02:03
3. Pentagram of Rats 01:42
4. The Devil's Rock N' Roll 01:54
5. Ripper on the Loose 02:38
6. Full Moon Suicide 03:13
7. Graveyard Bitch 02:04
8. Beyond the Mortuary 03:00
9. Bury Your God 02:30
10. Lust for Lacerations 02:57
11. In Satan's Name We Pray 05:19
******************************
Total playing time: 29:58




[more=Extended info]Bast Bass
Hellwulv Guitars, Vocals[/more]

[more=Technical info]
Input File: 06 - Full Moon Suicide.mp3
Channels : 2
Sample Rate : 44100
Precision : 16-bit
Duration : 00:03:13.60 = 8537936 samples = 14520.3 CDDA sectors
File Size : 8.09M
Bit Rate : 334k
Sample Encoding: MPEG audio (layer I, II or III)
Comments :
Title=Full Moon Suicide
Artist=Black Knife
Album=Spell Caster
Tracknumber=6
Year=2019

[/more]

Register
(8) artscald, Olethros, Ostinato, stub888, suseka, ThornyAlex, Wail, Волос,
Oct 19 2019, 18:02:32 Dødsdrift - Weltenszission (2019)


*Artist: Dødsdrift
*Album: Weltenszission
*Year: 2019
*Genre: Melodic Black Metal
*Country: Germany
*Format: mp3@CBR320kbps
*Size: 74MB

Tracklist:
1. Aufs Meer hinaus
2. Vorboten
3. Weltenszission
4. Zu Grunde
5. Märtyrer des Geistes
6. Anheim
7. Gedankensturm
8. ...vom Mythos Frieden
******************************
Total playing time: 31:20




[more=Technical info]
Input File: 03 - Weltenszission.mp3
Channels : 2
Sample Rate : 44100
Precision : 16-bit
Duration : 00:03:36.37 = 9542049 samples = 16228 CDDA sectors
File Size : 8.66M
Bit Rate : 320k
Sample Encoding: MPEG audio (layer I, II or III)
Comments :
Title=Weltenszission
Artist=Dødsdrift
Album=Weltenszission
Tracknumber=3
Year=2019
Genre=Black Metal

[/more]

Register
(19) 1968_janeart, artscald, craP_cillA, demonosz, ironyserg, kim666, kimkayoung, Korpse, metaljinie, metalwoman, Morgoth, Olethros, Ostinato, Rover, suseka, vasiljev_sergej, wanderer73, zhol, Сварог Барг,
Oct 19 2019, 17:07:24 Speedemon - Hellcome (2019)


*Artist: Speedemon
*Album: Hellcome
*Year: 2019
*Genre: Old School Speed/Thrash Metal
*Country: Portugal
*Format: mp3@CBR320kbps
*Size: 84MB

Tracklist:
1. Army of the Doomed (Intro)
2. Legion of Fools
3. Thunderball
4. Atrocity Divine
5. Road to Madness
6. Wall of Pain
7. Kings of the Road
8. Speedemon
9. 1974
10. Ride Over Skulls (Instrumental)
******************************
Total playing time: 36:20



[more=Extended info]Bruno Brutus Bass, Vocals, Guitars
Bicho Guitars
Rui Marujo Bass
Luis Meco Drums
[youtube]F4v4FZPnMXs[/youtube]
[youtube]VSUoffBMpJo[/youtube][/more]

[more=Technical info]
Input File: 04 - Atrocity Divine.mp3
Channels : 2
Sample Rate : 44100
Precision : 16-bit
Duration : 00:04:07.84 = 10929788 samples = 18588.1 CDDA sectors
File Size : 9.92M
Bit Rate : 320k
Sample Encoding: MPEG audio (layer I, II or III)
Comments :
Title=Atrocity Divine
Artist=Speedemon
Album=Hellcome
Tracknumber=4
Year=2019
Genre=Thrash Metal

[/more]

Register
(14) AHBAnep, andreikun, artscald, aviacademy, Diflock, kessler, metala, older68, Olethros, pichileon, postal67, Rover, Wail, wanderer73,
Oct 19 2019, 16:44:56 D.A.W.N. - Ende Ihrer (2019)


*Artist: D.A.W.N.
*Album: Ende Ihrer
*Year: 2019
*Genre: Progressive Death Metal
*Country: Austria
*Format: mp3@CBR320kbps
*Size: 107MB

Tracklist:
1. Anfang 03:43 instrumental
2. Traum 1 06:49
3. Traum 2 04:54
4. Ende ihrer 08:56
5. Weit weit ist der Weg 07:25 instrumental
6. Das Leben ist wahr 04:17
7. Weiter nichts 05:42
8. Zeige mir 03:32
9. Ende 01:01 instrumental
******************************
Total playing time: 46:19



[more=Extended info]Lukas Massinger Guitars
Markus Massinger Vocals, Bass
Simon Schnückel Drums
[youtube]iV7W0dCaRXg[/youtube][/more]

[more=Technical info]
Input File: 05 - Weit weit ist der Weg.mp3
Channels : 2
Sample Rate : 44100
Precision : 16-bit
Duration : 00:07:25.73 = 19656473 samples = 33429.4 CDDA sectors
File Size : 18.0M
Bit Rate : 322k
Sample Encoding: MPEG audio (layer I, II or III)
Comments :
Title=Weit weit ist der Weg
Artist=D.A.W.N.
Album=Ende Ihrer
Tracknumber=5
Year=2019

[/more]

Register
(9) AHBAnep, artscald, chipsgott, craP_cillA, kimkayoung, metala, older68, Olethros, wanderer73,
Oct 19 2019, 16:05:19 Zodiac Ass - Where Injustice Turns Into Law (2019)


*Artist: Zodiac Ass
*Album: Where Injustice Turns Into Law
*Year: 2019
*Genre: Thrash/Groove Metal
*Country: International
*Format: mp3@CBR320kbps
*Size: 96MB

Tracklist:
1. Suicide of Jesus Christ 03:29
2. Where Injustice Turns into Law 02:40
3. Vengeance 05:31
4. Slaves and Masters 05:58
5. Trapped in Living Death 05:06
6. Under Angel Eyes 06:16
7. Kiss of a Butterfly 03:33
8. White Noise 04:51
9. Bavaustrian Metalbrothers 04:13
******************************
Total playing time: 41:37



[more=Extended info]Austria / Germany
Thomas Schmidt Drums (2001-present)
See also: Wolfchant, ex-Low Down, ex-Underground Groove Front
Wolfgang Denk Vocals, Guitars (2001-present)
Josef "Sebbi" Altmann Guitars (2007-present)
See also: Collapsed Minds, Wolfchant (live)
Benjamin Jensen Bass (2019-present)
See also: Cemetery Dust, Rittmeister, ex-Behind the Mask, ex-Dioptas, ex-The Bastard Chronicles, ex-Tombstone Of Misery, ex-Die Dorks (live)
[youtube]B1tuQfG0cwc[/youtube][/more]

[more=Technical info]
Input File: 3 - Vengeance.mp3
Channels : 2
Sample Rate : 44100
Precision : 16-bit
Duration : 00:05:30.62 = 14580518 samples = 24796.8 CDDA sectors
File Size : 13.3M
Bit Rate : 322k
Sample Encoding: MPEG audio (layer I, II or III)
Comments :
Title=Vengeance
Artist=Zodiac Ass
Album=Where Injustice Turns Into Law
Tracknumber=3
Year=2019
Genre=Metal
Discnumber=1

[/more]

Register
(5) artscald, boby9052, metala, Olethros, TeamatSE,
Oct 19 2019, 15:52:11 Remorseful - Exit (2019)


*Artist: Remorseful
*Album: Exit
*Year: 2019
*Genre: Blackened Sludge/Doom Metal
*Country: United States
*Format: mp3@CBR320kbps
*Size: 132MB

Tracklist:
1. Crumple 16:53
2. Through No Pollution 12:17
3. The Stomach 13:58
4. To Stand Corrected 14:46
******************************
Total playing time: 57:54



[more=Extended info]Remorseful Everything[/more]

[more=Technical info]
Input File: 02 - Through No Pollution.mp3
Channels : 2
Sample Rate : 44100
Precision : 16-bit
Duration : 00:12:17.22 = 32511226 samples = 55291.2 CDDA sectors
File Size : 29.6M
Bit Rate : 321k
Sample Encoding: MPEG audio (layer I, II or III)
Comments :
Title=Through No Pollution
Artist=Remorseful
Album=Exit
Tracknumber=2
Year=2019

[/more]

Register
(9) artscald, as71, Doooomed, gena, kessler, Olethros, Ostinato, stub888, suseka,
Oct 19 2019, 15:40:27 Vermicular Incubation - Chapter Of The Vermin Domain (2019)


*Artist: Vermicular Incubation
*Album: Chapter Of The Vermin Domain
*Year: 2019
*Genre: Slamming Brutal Death Metal
*Country: International
*Format: mp3@CBR320kbps
*Size: 77MB

Tracklist:
01. Intro
02. Molecular Deformity
03. Shores of Styx
04. Miasma Extermination
05. Whispers of Savagery
06. The Parasitic Order
07. Infested Colony (Feat. Rene of Slamentation)
08. Suffocated by Maggots
09. Upon the Throne of Tragedy
10. Wormhole Transportation (Feat. John of Phrymerial)
11. Venomous Torment (Feat. Sergio of Bleeding Display)
******************************
Total playing time: 32:51




[more=Extended info]France / Switzerland / Hong Kong
Ricardo - Vocals (ex-Analepsy, Enzephalitis, Neoplassis)
Thibault - Bass (Child Of Waste)
Maxime - Guitar / Drum (Hurakan, Dimensional Decay, Vicious Intent)
Wilson - Guitar (Facelift Deformation, Dimensional Decay, Incestuous Impregnation, Vicious Intent)
[youtube]8iU1-Mer5SU[/youtube][/more]

[more=Technical info]
Input File: 03. Shores of Styx.mp3
Channels : 2
Sample Rate : 44100
Precision : 16-bit
Duration : 00:03:49.27 = 10110631 samples = 17195 CDDA sectors
File Size : 9.23M
Bit Rate : 322k
Sample Encoding: MPEG audio (layer I, II or III)
Comments :
Title=Shores of Styx
Artist=Vermicular Incubation
Album=Chapter of the Vermin Domain
Tracknumber=3
Year=2019
Genre=Slam
Discnumber=1

[/more]

Register
(4) artscald, jollo, Olethros, Герб,
Oct 19 2019, 15:21:55 Endless Drain - War Of My Hate (2019)


*Artist: Endless Drain
*Album: War Of My Hate
*Year: 2019
*Genre: Modern Thrash/Death Metal
*Country: Czech Republic
*Format: mp3@CBR320kbps
*Size: 71MB

Tracklist:
1. Desire
2. L.O.T.D.
3. Hunted
4. Execution Lights
5. Sky of Lies
6. Restless
7. Psycho Shot
8. War of My Hate
9. Lifeless Sight
******************************
Total playing time: 30:39



[more=Extended info][youtube]A7zUo-_1EcU[/youtube][/more]

[more=Technical info]
Input File: 03 - Hunted.mp3
Channels : 2
Sample Rate : 44100
Precision : 16-bit
Duration : 00:03:46.13 = 9972245 samples = 16959.6 CDDA sectors
File Size : 9.19M
Bit Rate : 325k
Sample Encoding: MPEG audio (layer I, II or III)
Comments :
Title=Hunted
Artist=Endless Drain
Album=War of My Hate
Tracknumber=3
Year=2019

[/more]

Register
(2) metala, tamerz,
Oct 19 2019, 15:03:06 Cryptic Crown - Weapons (2019)


*Artist: Cryptic Crown
*Album: Weapons
*Year: 2019
*Genre: Death/Thrash Metal
*Country: Germany
*Format: mp3@CBR320kbps
*Size: 100MB

Tracklist:
1. Crystal Meth 02:50
2. Black Pearl of Death 03:08
3. Black Soul 02:57
4. They Come to Kill 03:21
5. Lightbringer 03:53
6. Nuclear Apocalypse 04:30
7. Weapons 03:50
8. Into the Endless Void 03:11
9. War 03:16
10. Cravalera 03:50
11. Next Trip 04:04
12. Demon Plague 04:10
******************************
Total playing time: 43:00




[more=Extended info]Jocelyn Drums
Joschko Guitars
Zimbo Guitars
Dennis Vocals. Bass
[youtube]VbAzL45GVs0[/youtube][/more]

[more=Technical info]
Input File: 04 - They Come to Kill.mp3
Channels : 2
Sample Rate : 44100
Precision : 16-bit
Duration : 00:03:21.70 = 8895058 samples = 15127.6 CDDA sectors
File Size : 8.20M
Bit Rate : 325k
Sample Encoding: MPEG audio (layer I, II or III)
Comments :
Title=They Come to Kill
Artist=Cryptic Crown
Album=Weapons
Tracknumber=4
Year=2019

[/more]

Register
(7) artscald, craP_cillA, izan, jollo, metala, Olethros, TeamatSE,
Oct 19 2019, 03:04:38 Sceptic Angel - Sceptic Angel (2019)


*Artist: Sceptic Angel
*Album: Sceptic Angel
*Year: 2019
*Genre: Heavy/Thrash Metal
*Country: Brazil
*Format: mp3@CBR320kbps
*Size: 84MB

Tracklist:
1. Friendly Death 03:24
2. Learning Your Lie 06:05
3. Tomahawk 03:44
4. Rest in Peace 03:12
5. Suicide Memories 03:51
6. The Cross to Kill 05:17
7. War 03:27
8. The End 02:56
9. Feel the Death 04:11
******************************
Total playing time: 36:07



[more=Extended info]Leandro Tavares Bass
Humberto Nogueira Drums
João Jefferson Guitars
Filipe Cavalcanti Guitars
Iana Reckman Vocals
[youtube]PJB5FhJok98[/youtube][/more]

[more=Technical info]
Input File: 06 - The Cross to Kill.mp3
Channels : 2
Sample Rate : 44100
Precision : 16-bit
Duration : 00:05:17.54 = 14003294 samples = 23815.1 CDDA sectors
File Size : 12.9M
Bit Rate : 325k
Sample Encoding: MPEG audio (layer I, II or III)
Comments :
Title=The Cross to Kill
Artist=Sceptic Angel
Album=Sceptic Angel
Tracknumber=6
Year=2019-10-17
Genre=Rock; Metal
Discnumber=1

[/more]

Register
(7) artscald, aviacademy, metala, Olethros, postal67, Rover, vir2al,
Oct 19 2019, 00:55:07 Filthdigger - Defied Mummified [ep] (2019)


*Artist: Filthdigger
*Album: Defied Mummified [ep]
*Year: 2019
*Genre: Old School Death Metal
*Country: Norway
*Format: mp3@CBR320kbps
*Size: 68MB

Tracklist:
1. Defied Mummified 05:29
2. Evil Witch (Of Hell) 03:12
3. Unholy Slaughter 04:08
4. The Living Dead 05:30
5. Ended Life 03:36
6. Rapid Descend 04:30
7. Nagasaki Nightmare 03:18
******************************
Total playing time: 29:43




[more=Extended info]Violator Bass, Vocals
Deströyer Drums
Lobotomizör Guitars
[youtube]Sw18cGmc400[/youtube][/more]

[more=Technical info]
Input File: 03 - Unholy Slaughter.mp3
Channels : 2
Sample Rate : 44100
Precision : 16-bit
Duration : 00:04:08.67 = 10966479 samples = 18650.5 CDDA sectors
File Size : 10.0M
Bit Rate : 323k
Sample Encoding: MPEG audio (layer I, II or III)
Comments :
Title=Unholy Slaughter
Artist=Filthdigger
Album=Defied Mummified
Tracknumber=3
Year=2019-10-13
Genre=Metal
Discnumber=1

[/more]

Register
(7) artscald, older68, Olethros, Sheogorath, Wail, zhol, Герб,
Oct 18 2019, 20:53:15 Coffin Rot - A Monument To The Dead (2019)
FLAC (Tracks from bandcamp) 385 mb
Register
(4) Ambercandle, deatholocaust, FlammenTod666, orgondnor,
Oct 18 2019, 19:53:48 Vargbyte - Northbound [ep] (2019)


*Artist: Vargbyte
*Album: Northbound [ep]
*Year: 2019
*Genre: Death/Thrash Metal
*Country: United States
*Format: mp3@CBR320kbps
*Size: 51MB

Tracklist:
1. Surreality 04:49
2. Trephining 04:16
3. Permafrost 03:59
4. Expunge 08:44
******************************
Total playing time: 21:48



[more=Extended info]Bennett Blake Bass
Brendan Bahan Drums
Oscar Carlson Guitars, Vocals
Nick Mastrapa Vocals
[youtube]fOckRwFjTVU[/youtube]
[youtube]Jyqc0GSRzNU[/youtube][/more]

[more=Technical info]
Input File: 03 - Permafrost.mp3
Channels : 2
Sample Rate : 44100
Precision : 16-bit
Duration : 00:03:59.14 = 10545986 samples = 17935.4 CDDA sectors
File Size : 9.78M
Bit Rate : 327k
Sample Encoding: MPEG audio (layer I, II or III)
Comments :
Title=Permafrost
Artist=Vargbyte
Album=Northbound
Tracknumber=3
Year=2019-10-18
Discnumber=1

[/more]

Register
(5) artscald, boby9052, chipsgott, Olethros, Ostinato,
Oct 18 2019, 19:41:25 Persecutor - Rebirth (2019)
FLAC (Tracks) 250 mb
Register
(5) ahp, Diflock, FlammenTod666, isvili, Olethros,

664 Pages V   1 2 3 > » 
- Lo-Fi Version Support form
Copyrights and abuse reports form
Time is now: 21st October 2019 - 08:50:44