Welcome Guest ( Log In | Register )

История благодарностей участнику Samaritianin ::: Спасибо сказали: 259327 раз(а)
Дата поста: В теме: За сообщение: Спасибо сказали:
Today, 13:01:39 Razgate - Countdown To The End [ep] (2014)
320 48mb
Register
(1) Volk11911,
Today, 04:08:40 Bakken - This Means War (2020)
Cloud Mail 320
Register
(3) boby9052, infiltrator, postal67,
Today, 03:47:50 Skum - Molitva (2020)
Cloud Mail 320
Register
(3) AHBAnep, boby9052, infiltrator,
Today, 03:45:40 Bakken - This Means War (2020)


*Artist: Bakken
*Album: This Means War
*Year: 2020
*Genre: Thrash/Heavy Metal
*Country: United Kingdom
*Format: mp3@CBR320kbps
*Size: 95MB

Tracklist:
1. This Means War 05:09
2. Cold Blooded Murder 05:10
3. Star Machine 03:34
4. Evil Walks This Way 04:10
5. In Requiem 06:09
6. Two-Edged Blade 05:54
7. We Fight 05:30
8. Storm Angels 05:57
******************************
Total playing time: 41:33




[more=Extended info]Niall McGrotty Drums (2011-present)
Simon Pickett Vocals, Guitars (2011-present)
Frank Levi Vocals (2018-present)
Thomas Alford Bass (2019-present)
See also: ex-Selene, ex-Gate XIII
Shaun Nelson Guitars (2019-present)
See also: ex-IronHeart, Secrets of Steel, ex-Conjuring Fate, ex-Syth, ex-Rabid Bitch of the North (live), ex-Attica Rage, ex-Argonath
[youtube]X4qpFWZzTX8[/youtube][/more]

[more=Technical info]
Input File: 4 - Evil Walks This Way.mp3
Channels : 2
Sample Rate : 44100
Precision : 16-bit
Duration : 00:04:10.53 = 11048417 samples = 18789.8 CDDA sectors
File Size : 10.1M
Bit Rate : 322k
Sample Encoding: MPEG audio (layer I, II or III)
Comments :
Title=Evil Walks This Way
Artist=Bakken
Album=This Means War
Tracknumber=4
Year=2020
Genre=Alternative / Indie Rock / Metal
Discnumber=1

[/more]

Register
(10) chipsgott, gwar, Herrant, infiltrator, metala, Niknne, Olethros, suseka, thrashiac55, wgs73,
Today, 03:17:30 Skum - Molitva (2020)


*Artist: Skum
*Album: Molitva
*Year: 2020
*Genre: Death/Thrash Metal
*Country: Germany
*Format: mp3@CBR320kbps
*Size: 102MB

Tracklist:
01. Molitva
02. Cowards
03. Zalost
04. Bloodline
05. Need
06. Mother Lord
07. Seed of Hate
08. Bloodrush
09. Ruin
10. Happy Ending
******************************
Total playing time: 40:48




[more=Extended info]Nikola Grgic Vocals (1997-present)
See also: ex-Grail of Darkness, ex-Vatra
Christoph Buchheim Drums (1998-present)
See also: ex-Ages Gone, ex-Guerrilla, ex-Sad, ex-Hellbound Boozehounds, ex-Moloch, ex-Soul Enchantment, ex-Unwaken Hate
Flagg Bass (2008-present)
See also: ex-Hordes of Loki, ex-Orkus, ex-Beltez, ex-Nektra, ex-Debt of Nature
Roberto Parada Guitars (2009-present)
[youtube]yvIm4NfObdA[/youtube][/more]

[more=Technical info]
Input File: 3 - Zalost.mp3
Channels : 2
Sample Rate : 44100
Precision : 16-bit
Duration : 00:04:05.88 = 10843352 samples = 18441.1 CDDA sectors
File Size : 9.91M
Bit Rate : 322k
Sample Encoding: MPEG audio (layer I, II or III)
Comments :
Title=Zalost
Artist=Skum
Album=Molitva
Tracknumber=3
Year=2020
Genre=Metal
Discnumber=1

[/more]

Register
(16) alikkon, atavist, cesar, chipsgott, cist, infiltrator, jollo, metala, morbidangelo, Niknne, older68, Olethros, sergsazan, suseka, wanderer73, wgs73,
Yesterday, 16:03:11 Old Leshy - Pośród Monumentalnych Szczytów (2020)


*Artist: Old Leshy
*Album: Pośród Monumentalnych Szczytów
*Year: 2020
*Genre: Pagan Black Metal
*Country: Poland
*Format: mp3@CBR320kbps
*Size: 97MB

Tracklist:
1. W Skrajnej Nienawiści 04:55
2. Szczyt 04:56
3. Za Mgłą 03:56
4. Jaskinia 05:28
5. Lawina 04:33
6. Milcząca Planeta 03:42
7. Burza 05:27
8. Gwiezdny Blask Zaśnieżonej Nocy 06:51
9. Pożegnanie 02:52 instrumental
******************************
Total playing time: 42:40




[more=Extended info]Salmar Guitars, Songwriting
See also: Sunwheel, ex-Golfaron, ex-Hammer of Hate, ex-Prawo Krwi, ex-Uroczysko
Premyslav Vocals (session)
See also: ex-Golfaron, 1920, Winter Offensive, ex-Sirion, ex-Uroczysko
G Vocals (2016-present)
[youtube]8ANqbecvunA[/youtube][/more]

[more=Technical info]
Input File: 04. Jaskinia.mp3
Channels : 2
Sample Rate : 44100
Precision : 16-bit
Duration : 00:05:27.62 = 14448130 samples = 24571.6 CDDA sectors
File Size : 13.1M
Bit Rate : 320k
Sample Encoding: MPEG audio (layer I, II or III)
Comments :
Title=Jaskinia
Artist=Old Leshy
Album=Pośród Monumentalnych Szczytów
Tracknumber=4/9
Year=2020
Genre=Black Metal/Pagan Metal

[/more]

Register
(23) atavist, autumnwood, Druidir, Golodomor, infiltrator, judaz, kim666, Lamby90, Moonshtook, morbidangelo, Morgoth, Olethros, pain, robertho777, satanist666, Satyr, Slavas, stone88, suseka, VALERY, vasiljev_sergej, wolverine, Сварог Барг,
Yesterday, 15:33:44 Witches Of Doom - Funeral Radio (2020)


*Artist: Witches Of Doom
*Album: Funeral Radio
*Year: 2020
*Genre: Gothic/Stoner/Doom Metal
*Country: Italy
*Format: mp3@CBR320kbps
*Size: 101MB

Tracklist:
1. Master of Depression 04:43
2. Coma Moonlight 04:46
3. Queen of Suburbia 04:46
4. Funeral Radio 06:55
5. Sister Fire 04:55
6. Ghost Train 04:16
7. November Flames 06:00
8. Hotel Paranoia 07:28
******************************
Total playing time: 43:49




[more=Extended info]Federico "Fed" Venditti Guitars
Danilo "Groova" Piludu Vocals
Francesco Ciacciarelli Drums
Saiax Bass
[youtube]-REGRzYNTKs[/youtube][/more]

[more=Technical info]
Input File: 5 - Sister Fire.mp3
Channels : 2
Sample Rate : 44100
Precision : 16-bit
Duration : 00:04:55.44 = 13028816 samples = 22157.9 CDDA sectors
File Size : 11.9M
Bit Rate : 322k
Sample Encoding: MPEG audio (layer I, II or III)
Comments :
Title=Sister Fire
Artist=Witches of Doom
Album=Funeral Radio
Tracknumber=5
Year=2020
Genre=Rock / Hard Rock / Metal
Discnumber=1

[/more]

Register
(12) aleon, chipsgott, infiltrator, kluval, marilin, Olethros, SatanicPanzer, senecazm, stumpheavyrock, suseka, thenecromancer, VALERY,
Yesterday, 14:46:54 Sadistic Vision - Rebirth (2020)


*Artist: Sadistic Vision
*Album: Rebirth
*Year: 2020
*Genre: Death Metal
*Country: United States
*Format: mp3@CBR320kbps
*Size: 83MB

Tracklist:
1. Without Regret
2. My Body Bleeds at Night
3. Rebirth (To Insanity)
4. Suction
5. Scar
6. The Humans Are All Gone
7. Live to Kill
8. Sadistic Vision
******************************
Total playing time: 38:41



[more=Extended info]Brian Reed Bass
See also: Immaculate Deception
Justin K Drums
B.C. Vocals, Guitars[/more]

[more=Technical info]
Input File: 04. Suction.mp3
Channels : 2
Sample Rate : 44100
Precision : 16-bit
Duration : 00:04:56.35 = 13069123 samples = 22226.4 CDDA sectors
File Size : 11.9M
Bit Rate : 322k
Sample Encoding: MPEG audio (layer I, II or III)
Comments :
Title=Suction
Artist=Sadistic Vision
Album=Rebirth
Tracknumber=4/8
Year=2020
Genre=9
Discnumber=1/1

[/more]

Register
(17) andreikun, atavist, cesar, Corpuscul, infiltrator, jollo, metala, morbidangelo, Morgoth, older68, Olethros, samokot, suseka, thrashiac55, tim47, VALERY, wanderer73,
Yesterday, 14:33:50 Last Conscious - Psychological Torture (2020)


*Artist: Last Conscious
*Album: Psychological Torture
*Year: 2020
*Genre: Death/Thrash Metal
*Country: Brazil
*Format: mp3@CBR320kbps
*Size: 87MB

Tracklist:
1. Inner Horror (Intro)
2. Vicious Circle
3. Drowning Words
4. Illusion of Being Alive
5. Unconscious
6. The Programmed Coma
7. Psychological Torture
8. The Evil That Belongs to Me (The Hate)
9. PrisГЈo Existencial
10. Cemetery Dreams
******************************
Total playing time: 37:51



[more=Extended info]Gustavo Timoteo (vocal)
Jefferson Soares (Guitarra)
AeD Vieira (Baixo)
Fabiano Borges (Guitarra)
Lu Borges (bateria)[/more]

[more=Technical info]
Input File: 5 - Unconscious.mp3
Channels : 2
Sample Rate : 44100
Precision : 16-bit
Duration : 00:04:38.41 = 12277661 samples = 20880.4 CDDA sectors
File Size : 11.2M
Bit Rate : 322k
Sample Encoding: MPEG audio (layer I, II or III)
Comments :
Title=Unconscious
Artist=Last Conscious
Album=Psychological Torture
Tracknumber=5
Year=2020
Genre=Metal
Discnumber=1

[/more]

Register
(12) atavist, boby9052, infiltrator, jollo, metala, morbidangelo, Olethros, sergsazan, stumpheavyrock, thrashiac55, wanderer73, wgs73,
Yesterday, 14:18:57 Lady Beast - The Vulture's Amulet (2020)


*Artist: Lady Beast
*Album: The Vulture's Amulet
*Year: 2020
*Genre: Heavy Metal
*Country: United States
*Format: mp3@CBR320kbps
*Size: 102MB

Tracklist:
01. Metal Machine 03:15
02. Runes of Rust 04:26
03. The Gift 05:09
04. Sacrifice to the Unseen 05:09
05. Betrayer 03:29
06. The Champion 05:24
07. Transcend the Blade 03:42
08. The Vultures Amulet 05:14
09. Vow of the Valkyrie 05:03
******************************
Total playing time: 40:51




[more=Extended info]Adam Ramage Drums
Christopher "Twiz" Tritschler Guitars (rhythm)
Greg Colaizzi Bass
Deborah Levine Vocals
Andy Ramage Guitars (lead
[youtube]br05xt8If1k[/youtube][/more]

[more=Technical info]
Input File: 4 - Sacrifice to the Unseen.mp3
Channels : 2
Sample Rate : 44100
Precision : 16-bit
Duration : 00:05:09.07 = 13630163 samples = 23180.5 CDDA sectors
File Size : 12.4M
Bit Rate : 322k
Sample Encoding: MPEG audio (layer I, II or III)
Comments :
Title=Sacrifice to the Unseen
Artist=Lady Beast
Album=The Vulture's Amulet
Tracknumber=4
Year=2020
Genre=GetMetal.CLUB
Discnumber=1

[/more]

Register
(16) Asketto, atavist, chipsgott, gwar, infiltrator, metala, METALHUNTER, morbidangelo, Olethros, Rover, senecazm, stumpheavyrock, vir2al, Wail, wgs73, Сварог Барг,
Yesterday, 14:00:57 Manam - Ouroboros (2020)


*Artist: Manam
*Album: Ouroboros
*Year: 2020
*Genre: Melodic Death Metal
*Country: Italy
*Format: mp3@CBR320kbps
*Size: 90MB

Tracklist:
1. Nigredo
2. The Enclosing Veil
3. Storm
4. Albedo
5. The Silver Bride
6. Citrinitas
7. Ouroboros
8. Rubedo
9. Evenfall
******************************
Total playing time: 38:57



[more=Extended info]Marco Montipò Bass, Vocals (backing)
See also: Moth's Circle Flight
Nicola De Cesero Drums
See also: Indikon, M.A.I.M.
Marco Salvador Guitars (lead), Vocals
See also: Indikon, Kanseil, ex-Silverbones, ex-Blades Rampage
Thomas Montefusco Guitars (rhythm)
Luca Mantovani Guitars (rhythm)
[youtube]GseRuLk0aUM[/youtube][/more]

[more=Technical info]
Input File: 5 - The Silver Bride.mp3
Channels : 2
Sample Rate : 44100
Precision : 16-bit
Duration : 00:04:20.95 = 11508071 samples = 19571.5 CDDA sectors
File Size : 10.5M
Bit Rate : 323k
Sample Encoding: MPEG audio (layer I, II or III)
Comments :
Title=The Silver Bride
Artist=Manam
Album=Ouroboros
Tracknumber=5
Year=2020
Genre=Rock
Discnumber=1

[/more]

Register
(16) AHBAnep, BugEyes, chipsgott, infiltrator, ironyserg, morbidangelo, Olethros, sadmannn, satanist666, thenego, VALERY, Vladimir, wanderer73, zhol, Сварог Барг, скептик,
Yesterday, 13:48:14 Skam - Sounds Of A Disease (2020)


*Artist: Skam
*Album: Sounds Of A Disease
*Year: 2020
*Genre: Black/Death Metal/Crust
*Country: Sweden
*Format: mp3@CBR320kbps
*Size: 70MB

Tracklist:
01. Have You Tried Not Thinking About It
02. When Liquid is the New Solid
03. Passenger of Decline
04. Millstone Gallows
05. Shit Out of Luck
06. Prison of Skin
07. A Stray in the Life
08. Echoes and
09. Sounds of a Disease
10. Learning to Die
11. Used, Defiled, Expended
12. The Face of Decadence
13. Sentencing
******************************
Total playing time: 29:21



[more=Technical info]
Input File: 06. Prison of Skin.mp3
Channels : 2
Sample Rate : 44100
Precision : 16-bit
Duration : 00:02:14.80 = 5944768 samples = 10110.1 CDDA sectors
File Size : 5.55M
Bit Rate : 329k
Sample Encoding: MPEG audio (layer I, II or III)
Comments :
Title=Prison of Skin
Artist=Skam
Album=Sounds of a Disease
Tracknumber=6
Year=2020
Discnumber=1

[/more]

Register
(13) atavist, Doooomed, infiltrator, Leshiy666, morbidangelo, Olethros, satanist666, sludge666, stumpheavyrock, suseka, VALERY, wgs73, yuratroll,
Yesterday, 13:29:56 Razgate - After The Storm... The Fire (2020)


*Artist: Razgate
*Album: After The Storm... The Fire
*Year: 2020
*Genre: Thrash Metal
*Country: Italy
*Format: mp3@CBR320kbps
*Size: 88MB

Tracklist:
1. Lacrimosa Dies 01:41
2. Rising Death 03:56
3. Broken by Fire 04:29
4. After the Storm 04:17
5. Grinding Metal 04:19
6. Shredding Praise 02:48
7. Behind the Walls of Terror 05:46
8. To the Rope! 03:23
9. Bloodshed & Deliverance 04:58
10. Crucify (The Master Deceiver) 02:54
******************************
Total playing time: 38:31




[more=Extended info]Niccolò "Snacchio" Olivieri Bass
See also: ex-Inside Mankind, ex-Chronic Insane, ex-Dark Woodoo
Francesco Monaci Guitars (lead)
See also: Inside Mankind, Age of Sin, Damness, ex-Diadema
Giacomo "Capo" James Burgassi Guitars (rhythm), Vocals
See also: Legionem
Iago Bruchi Drums (2019-present)
See also: Necromorbid, Tuchulcha, Peucharist (live), ex-Hobbs Angel of Death, ex-Violentor, ex-Nido di Vespe (live)[/more]

[more=Technical info]
Input File: 5 - Grinding Metal.mp3
Channels : 2
Sample Rate : 44100
Precision : 16-bit
Duration : 00:04:19.07 = 11425119 samples = 19430.5 CDDA sectors
File Size : 10.4M
Bit Rate : 322k
Sample Encoding: MPEG audio (layer I, II or III)
Comments :
Title=Grinding Metal
Artist=Razgate
Album=After the Storm... The Fire!
Tracknumber=5
Year=2020
Genre=Metal
Discnumber=1

[/more]

Register
(22) andreikun, atavist, boby9052, BugEyes, cesar, Corpuscul, DTGB, gwar, infiltrator, kaporator, LightWizard, metala, morbidangelo, Niknne, Olethros, postal67, sergsazan, stumpheavyrock, terron, thrashiac55, Wail, wgs73,
Yesterday, 13:20:22 Dark Passage - The Legacy Of Blood (2020)


*Artist: Dark Passage
*Album: The Legacy Of Blood
*Year: 2020
*Genre: Heavy Metal
*Country: Italy
*Format: mp3@CBR320kbps
*Size: 130MB

Tracklist:
1. The Father and the Son
2. Heavens Bent
3. To Cleanse with Blood
4. When I Killed the King
5. Hatching Lies
6. Lie
7. Legacy to Stand
8. The Legacy of Blood
9. A Roll of Dice
10. An Outcast's Choice
11. Royal Breed
12. Crown Prince
13. Son of War
14. Charade of Souls
15. The Last Defeat
16. Words of Wisdom
******************************
Total playing time: 56:35



[more=Extended info]Giovanni Lauria Bass, Vocals (2012-present)
Christian Fiume Drums (2012-present)
See also: ex-Feary Tales
Marco Fontana Guitars (2012-present)
See also: ex-Feary Tales
Paolo Boraso Guitars (2012-present)
[youtube]Kmtqxo_uXOA[/youtube][/more]

[more=Technical info]
Input File: 8 - The Legacy of Blood.mp3
Channels : 2
Sample Rate : 44100
Precision : 16-bit
Duration : 00:04:11.13 = 11074921 samples = 18834.9 CDDA sectors
File Size : 10.1M
Bit Rate : 322k
Sample Encoding: MPEG audio (layer I, II or III)
Comments :
Title=The Legacy of Blood
Artist=Dark Passage
Album=The Legacy of Blood
Tracknumber=8
Year=2020
Genre=Rock
Discnumber=1

[/more]

Register
(13) aviacademy, gwar, infiltrator, metala, morbidangelo, Olethros, postal67, Rover, senecazm, sergsazan, stumpheavyrock, vir2al, Сварог Барг,
Yesterday, 13:06:24 Ande - Vossenkuil (2020)


*Artist: Ande
*Album: Vossenkuil
*Year: 2020
*Genre: Atmospheric Black Metal
*Country: Belgium
*Format: mp3@CBR320kbps
*Size: 98MB

Tracklist:
1. Aanvang 01:14
2. Nachtwandeling 08:09
3. Beverdansen 06:33
4. Eeuwig vuur 04:26
5. De hutten 07:04
6. Mijn koninkrijk van groen (Lugubrum cover) 06:18
7. Sneeuw op het meer 05:13
8. Afsluiting 03:59
******************************
Total playing time: 42:56




[more=Extended info]Jim Everything (2015-present)
See also: The Whocares[/more]

[more=Technical info]
Input File: 4 - Eeuwig Vuur.mp3
Channels : 2
Sample Rate : 44100
Precision : 16-bit
Duration : 00:04:26.39 = 11747711 samples = 19979.1 CDDA sectors
File Size : 10.8M
Bit Rate : 323k
Sample Encoding: MPEG audio (layer I, II or III)
Comments :
Title=Eeuwig Vuur
Artist=Ande
Album=Vossenkuil
Tracknumber=4
Year=2020
Genre=Metal
Discnumber=1

[/more]

Register
(17) 1968_janeart, atavist, El_Chibo, infiltrator, kim666, morbidangelo, Morgoth, Olethros, robertho777, satanist666, senecazm, stub888, suseka, tim47, VALERY, vasiljev_sergej, vovenom,
Yesterday, 12:57:12 Drakonis - Blessed By Embers (2020)


*Artist: Drakonis
*Album: Blessed By Embers
*Year: 2020
*Genre: Death/Black Metal
*Country: United Kingdom
*Format: mp3@CBR320kbps
*Size: 111MB

Tracklist:
1. Threnody
2. From the Eternal
3. Fear of the Wretched
4. Blessed by Embers
5. Of Dusk and of Pyre
6. As the Rot
7. All Is Still
8. An Anthem of Ashes
******************************
Total playing time: 48:43



[more=Extended info]Stephenie Dickey Bass
Lee Mccartney Drums
See also: Waylander
Tommy Hewitt Guitars
Saul McMichael Guitars, Vocals (backing) (2009-present)
See also: Waylander, ex-Dorchadas, ex-Whiplash
Steve Reynolds Vocals (2017-present)
See also: Altus, Creation's Tears, ex-Fallen, ex-Waylander, ex-Chambercraft (live), ex-Sorrowfall
Serah Decay Keyboards (2019-present)
See also: Cross Eyed Mary
[youtube]QHs09pdd1Qw[/youtube][/more]

[more=Technical info]
Input File: 4 - Blessed by Embers.mp3
Channels : 2
Sample Rate : 44100
Precision : 16-bit
Duration : 00:05:43.58 = 15152054 samples = 25768.8 CDDA sectors
File Size : 13.8M
Bit Rate : 321k
Sample Encoding: MPEG audio (layer I, II or III)
Comments :
Title=Blessed by Embers
Artist=Drakonis
Album=Blessed by Embers
Tracknumber=4
Year=2020
Genre=Alternative / Indie Rock / Metal
Discnumber=1

[/more]

Register
(15) atavist, El_Chibo, infiltrator, metala, morbidangelo, Morgoth, older68, Olethros, Ostinato, satanist666, stub888, suseka, VALERY, Vladimir, Сварог Барг,
Yesterday, 12:44:12 Live Burial - Unending Futility (2020)


*Artist: Live Burial
*Album: Unending Futility
*Year: 2020
*Genre: Old School Death Metal
*Country: United Kingdom
*Format: mp3@CBR320kbps
*Size: 94MB

Tracklist:
1. Seeping into the Earth 05:30
2. Condemned to the Boats 05:34
3. Swing of the Pendulum 05:09
4. The Crypt of Slumbering Madness 06:20
5. Rotting on the Rope 07:17
6. Winds of Solace 01:31
7. Cemetery Fog 09:42
******************************
Total playing time: 41:03




[more=Extended info]Lee Anderson Bass (2012-present)
See also: Horrified, Plague Rider, Proboscis, Rodney Shades Band (live)
Matt Henderson Drums (2012-present)
See also: Plague Rider, Rat Faced Bastard, Rodney Shades Band (live), ex-Horrified, ex-Winds of Genocide
Jamie Brown Vocals (2012-present)
See also: Rat Faced Bastard, ex-Plague Rider
Richard Codling Guitars (2013-present)
Rob Hindmarsh Guitars (2013-present)
See also: Rat Faced Bastard, Rodney Shades Band (live), ex-Horrified, ex-Plague Rider[/more]

[more=Technical info]
Input File: 4 - The Crypt of Slumbering Madness.mp3
Channels : 2
Sample Rate : 44100
Precision : 16-bit
Duration : 00:06:22.56 = 16870940 samples = 28692.1 CDDA sectors
File Size : 15.4M
Bit Rate : 322k
Sample Encoding: MPEG audio (layer I, II or III)
Comments :
Title=The Crypt of Slumbering Madness
Artist=Live Burial
Album=Unending Futility
Tracknumber=4
Year=2020
Genre=Metal
Discnumber=1

[/more]

Register
(22) AHBAnep, andreikun, atavist, daemonarch, infiltrator, jollo, metala, Morgoth, older68, Olethros, Ostinato, samokot, SatanicPanzer, Satyr, sergsazan, suseka, thrashiac55, THROWER666, Tino, VALERY, wtk.412, zhol,
Yesterday, 12:35:18 Shodan - Death, Rule Over Us (2020)


*Artist: Shodan
*Album: Death, Rule Over Us
*Year: 2020
*Genre: Melodic Death/Thrash Metal
*Country: Poland
*Format: mp3@CBR320kbps
*Size: 96MB

Tracklist:
1. Breslau 03:48
2. Fuel to Grandeur 05:37
3. Doomsday Melody 08:06
4. Ray of Darkness 05:31
5. Primordial Incest 05:04
6. I Have Crowned Myself 07:55
7. Death, Rule over Us 05:25
******************************
Total playing time: 41:26




[more=Extended info]Michał Jarosz Drums (2013-present)
See also: Extinct Gods, ex-Into the Nightmare, ex-Heap of Ashes
Szczepan Inglot Vocals, Guitars (2013-present)
See also: Banisher, ex-Extinct Gods, ex-Maigra
Tomasz Sadlak Bass (2016-present)
See also: Hate (live)[/more]

[more=Technical info]
Input File: 04 Ray of Darkness.mp3
Channels : 2
Sample Rate : 44100
Precision : 16-bit
Duration : 00:05:31.54 = 14620826 samples = 24865.4 CDDA sectors
File Size : 13.7M
Bit Rate : 329k
Sample Encoding: MPEG audio (layer I, II or III)
Comments :
Title=Ray of Darkness
Artist=Shodan
Album=Death, Rule Over US
Tracknumber=4/7
Year=2020

[/more]

Register
(14) AHBAnep, BugEyes, Corpuscul, infiltrator, metala, Morgoth, Niknne, Olethros, Ostinato, sergsazan, stumpheavyrock, terron, zhol, Сварог Барг,
Yesterday, 12:26:33 Aara - En Ergô Einai (2020)


*Artist: Aara
*Album: En Ergô Einai
*Year: 2020
*Genre: Atmospheric Black Metal
*Country: Switzerland
*Format: mp3@CBR320kbps
*Size: 77MB

Tracklist:
1. Arkanum 09:01
2. Stein auf Stein 05:47
3. Aargesang (Aare II) 05:27
4. Entelechie 05:58
5. Telôs 07:37
******************************
Total playing time: 33:50




[more=Extended info]Berg All instruments (2018-present)
Fluss Vocals, Lyrics (2018-present)[/more]

[more=Technical info]
Input File: 3 - Aargesang (Aare II).mp3
Channels : 2
Sample Rate : 44100
Precision : 16-bit
Duration : 00:05:26.58 = 14402090 samples = 24493.4 CDDA sectors
File Size : 13.1M
Bit Rate : 321k
Sample Encoding: MPEG audio (layer I, II or III)
Comments :
Title=Aargesang (Aare II)
Artist=AARA
Album=En Ergô Einai
Tracknumber=3
Year=2020
Genre=Rock
Discnumber=1

[/more]

Register
(20) 1968_janeart, aleon, atavist, El_Chibo, EvilPiet, infiltrator, kim666, Lamby90, metala, murian, Olethros, robertho777, senecazm, stone88, stub888, suseka, thenecromancer, VALERY, vasiljev_sergej, yuratroll,
Yesterday, 12:14:52 Clear Sky Nailstorm - The Deep Dark Black (2020)


*Artist: Clear Sky Nailstorm
*Album: The Deep Dark Black
*Year: 2020
*Genre: Melodic Thrash Metal
*Country: Germany
*Format: mp3@CBR320kbps
*Size: 70MB

Tracklist:
1. The Toxic Ages
2. Kill It With Fire
3. Close My Eyes
4. The Deep Dark Black
5. Onward To Extinction
6. Forgiveness Denied
******************************
Total playing time: 30:38



[more=Extended info]Oliver Giesen Drums
Thomas Eisenmenger Vocals, Guitars
Alexander Junge Bass (2017-present)
See also: ex-Lunar Eclipse
Joachim Folta Guitars (lead) (2017-present)
See also: ex-Iron Angel, ex-Subcutane, ex-Spirit Descent
[youtube]-Bk79ESRowI[/youtube]
[youtube]JGguJVpV0MI[/youtube][/more]

[more=Technical info]
Input File: 3 - Close My Eyes.mp3
Channels : 2
Sample Rate : 44100
Precision : 16-bit
Duration : 00:05:42.54 = 15105970 samples = 25690.4 CDDA sectors
File Size : 13.8M
Bit Rate : 321k
Sample Encoding: MPEG audio (layer I, II or III)
Comments :
Title=Close My Eyes
Artist=Clear Sky Nailstorm
Album=The Deep Dark Black
Tracknumber=3
Year=2020
Genre=Rock / Hard Rock / Metal
Discnumber=1

[/more]

Register
(14) aviacademy, boby9052, BugEyes, Corpuscul, DTGB, gwar, infiltrator, Morgoth, Niknne, Olethros, terron, thrashiac55, vir2al, Vladimir,
Yesterday, 12:01:13 Svartkonst - Black Waves (2020)


*Artist: Svartkonst
*Album: Black Waves
*Year: 2020
*Genre: Black/Death Metal
*Country: Sweden
*Format: mp3@CBR320kbps
*Size: 90MB

Tracklist:
1. Death Magic
2. I Am The Void
3. World Ablaze
4. Stray In The Dark
5. Mountains Of Flesh
6. Ruins Of Splendour
7. Black Waves
******************************
Total playing time: 39:21




[more=Extended info]Rickard Törnqvist Everything (2012-present)
See also: Switchblade (live), ex-Warg[/more]

[more=Technical info]
Input File: 4 - Stray in the Dark.mp3
Channels : 2
Sample Rate : 44100
Precision : 16-bit
Duration : 00:07:27.85 = 19749965 samples = 33588.4 CDDA sectors
File Size : 18.0M
Bit Rate : 321k
Sample Encoding: MPEG audio (layer I, II or III)
Comments :
Title=Stray in the Dark
Artist=Svartkonst
Album=Black Waves
Tracknumber=4
Year=2020
Genre=Alternative / Indie Rock / Metal
Discnumber=1

[/more]

Register
(21) atavist, Doooomed, El_Chibo, infiltrator, kim666, metala, Morgoth, Narasimha, older68, Olethros, Ostinato, sabr, stub888, stumpheavyrock, terron, tim47, VALERY, vasiljev_sergej, wolverine, yuratroll, Сварог Барг,
Yesterday, 11:49:00 Ritual Dictates - Give In To Despair (2020)


*Artist: Ritual Dictates
*Album: Give In To Despair
*Year: 2020
*Genre: Death/Thrash Metal
*Country: Canada
*Format: mp3@CBR320kbps
*Size: 77MB

Tracklist:
1. It's About Goddamn Time (The Hours Of Folly Part One)
2. Dominance and Will
3. Given to Despair
4. Obsolete Instinct
5. Last Phase of Life
6. Poisonous Proclamation
7. Aperiam in Porta
8. Extinction
9. Indivisible Mind
10. What Cannot Be Altered Must Be Endured
11. Terror of Time (The Hours of Folly Part 2)
******************************
Total playing time: 33:26




[more=Extended info][youtube]1UscokiZ2p8[/youtube][/more]

[more=Technical info]
Input File: 7 - Aperiam in Porta.mp3
Channels : 2
Sample Rate : 44100
Precision : 16-bit
Duration : 00:05:46.22 = 15268258 samples = 25966.4 CDDA sectors
File Size : 14.0M
Bit Rate : 322k
Sample Encoding: MPEG audio (layer I, II or III)
Comments :
Title=Aperiam in Porta
Artist=Ritual Dictates
Album=Give in to Despair
Tracknumber=7
Year=2020
Genre=Metal
Discnumber=1

[/more]

Register
(14) AHBAnep, atavist, boby9052, daemonarch, infiltrator, jollo, metala, Morgoth, Ostinato, sergsazan, stumpheavyrock, terron, thrashiac55, Vladimir,
Yesterday, 11:36:19 Palace - Reject The System (2020)


*Artist: Palace
*Album: Reject The System
*Year: 2020
*Genre: Heavy Metal
*Country: Germany
*Format: mp3@CBR320kbps
*Size: 104MB

Tracklist:
1. Force of Steel
2. Soulseeker
3. Final Call of Destruction
4. The Faker
5. Hail to the Metal Lord
6. Bloodstained World
7. Valhalla Land
8. Legion of Resistance
9. Wings of Storm
10. No One Break My Will
******************************
Total playing time: 43:27



[more=Extended info]Tom Mayer Bass
See also: Awry Axle
Harry Reiter Drums
See also: ex-Saints' Anger
Harald "HP" Piller Vocals, Guitars
See also: ex-Saints' Anger
Nick Berger Guitars (2019-present)
See also: ex-Stormwitch
[youtube]heM0OEakHR0[/youtube][/more]

[more=Technical info]
Input File: 3 - Final Call of Destruction.mp3
Channels : 2
Sample Rate : 44100
Precision : 16-bit
Duration : 00:04:25.66 = 11715474 samples = 19924.3 CDDA sectors
File Size : 10.8M
Bit Rate : 325k
Sample Encoding: MPEG audio (layer I, II or III)
Comments :
Title=Final Call of Destruction
Artist=Palace
Album=Reject the System
Tracknumber=3
Year=2020
Genre=Rock
Discnumber=1

[/more]

Register
(14) BugEyes, DenisKov, DTGB, gwar, infiltrator, metala, Olethros, poeira, Rover, senecazm, stumpheavyrock, terron, vir2al, Сварог Барг,
Yesterday, 11:24:15 Depravation - III: Odor Mortis (2020)


*Artist: Depravation
*Album: III: Odor Mortis
*Year: 2020
*Genre: Black Metal
*Country: Germany
*Format: mp3@CBR320kbps
*Size: 87MB

Tracklist:
1. Casting Fear 04:05
2. Peitschenhieb 04:07
3. Misery 02:43
4. Beug Dich 03:40
5. Sickness 04:43
6. Amboss 04:17
7. Arrival 02:57
8. The Endless Night 04:33
9. Nothingness 06:47
******************************
Total playing time: 37:52




[more=Technical info]
Input File: 5 - Sickness.mp3
Channels : 2
Sample Rate : 44100
Precision : 16-bit
Duration : 00:04:43.50 = 12502306 samples = 21262.4 CDDA sectors
File Size : 11.4M
Bit Rate : 322k
Sample Encoding: MPEG audio (layer I, II or III)
Comments :
Title=Sickness
Artist=Depravation
Album=III: Odor Mortis
Tracknumber=5
Year=2020
Genre=Metal
Discnumber=1

[/more]

Register
(13) 1968_janeart, atavist, infiltrator, kim666, Morgoth, Olethros, peppuzzo, robertho777, satanist666, stub888, supremo, VALERY, vasiljev_sergej,
Yesterday, 11:11:45 Hounskull - Low (2020)


*Artist: Hounskull
*Album: Low
*Year: 2020
*Genre: Psychedelic Progressive Heavy/Doom Metal
*Country: Canada
*Format: mp3@CBR320kbps
*Size: 154MB

Tracklist:
1. Calm Before The Storm 02:12
2. The Wake 06:22
3. Lords Of Creation 07:19
4. Older Than The Earth 09:27
5. Cyclone 07:37
6. Low 05:33
7. Ascend From Darkness 09:11
8. Eclipse 15:34
9. Washed Ashore 03:26
******************************
Total playing time: 1:06:41




[more=Extended info]Kyle White Bass, Vocals
Shreyas Madhuranath Drums
Alex Tamo Guitars, Vocals[/more]

[more=Technical info]
Input File: 04 - Older Than the Earth.mp3
Channels : 2
Sample Rate : 44100
Precision : 16-bit
Duration : 00:09:27.86 = 25042538 samples = 42589.4 CDDA sectors
File Size : 23.1M
Bit Rate : 325k
Sample Encoding: MPEG audio (layer I, II or III)
Comments :
Title=Older Than the Earth
Artist=Hounskull
Album=Low
Tracknumber=4
Year=2020

[/more]

Register
(7) chipsgott, infiltrator, marilin, metala, Olethros, stumpheavyrock, VALERY,

748 Pages V   1 2 3 > » 
- Lo-Fi Version Support form
Copyrights and abuse reports form
Time is now: 3rd April 2020 - 21:27:29