Welcome Guest ( Log In | Register )

История благодарностей участнику Samaritianin ::: Спасибо сказали: 335973 раз(а)
Дата поста: В теме: За сообщение: Спасибо сказали:
Jan 18 2021, 23:45:10 Goat Fetus - A Dark Winter [ep] (2021)


*Artist: Goat Fetus
*Album: A Dark Winter [ep]
*Year: 2021
*Genre: Atmospheric Black Metal
*Country: Canada
*Format: mp3@CBR320kbps
*Size: 62MB

Tracklist:
1. The Fading Dream 05:28
2. Through the Portal of Time 02:25
3. Grand Delusion 03:00
4. Towards the Unknown 05:55
5. Testament of Man 04:14
6. Secret of the Spiritkeeper 05:12
******************************
Total playing time: 26:14




[more=Extended info]Sean Batty Guitars, Vocals
See also: Spread the Disease
[youtube]SOC0tNxyn9E[/youtube][/more]

[more=Technical info]
Input File: 06 Secret of the Spiritkeeper.mp3
Channels : 2
Sample Rate : 44100
Precision : 16-bit
Duration : 00:05:13.02 = 13804006 samples = 23476.2 CDDA sectors
File Size : 12.9M
Bit Rate : 330k
Sample Encoding: MPEG audio (layer I, II or III)
Comments :
Title=Secret of the Spiritkeeper
Artist=Goat Fetus
Album=A Dark Winter
Tracknumber=6/6
Year=2021-21-20
Discnumber=1/1

[/more]

Register
(6) kim666, Olethros, Rosen, sergsazan, suseka, vasiljev_sergej,
Jan 18 2021, 22:41:03 Swamp Lantern - Phantasms (2020)


*Artist: Swamp Lantern
*Album: Phantasms
*Year: 2020
*Genre: Psychedelic Doom/Heavy/Black Metal
*Country: United States
*Format: mp3@CBR320kbps
*Size: 142MB

Tracklist:
1. Shriveled Pigs Eyes 12:22
2. Corpses in the Barn 12:52
3. The Meadows Rip 09:16
4. They've Taken Our Tongues 06:08
5. Black Garbage Trucks 14:04
6. Neural Pathways Rerouted/Signals From the Witch Cabin 07:40
******************************
Total playing time: 1:02:22



[more=Extended info]Stewart Hodge Bass, Vocals
See also: Lifeless Form
Easton Sartor Drums
Jonny McIntyre Guitars, Keyboards, Vocals
Jeff Kastelic Guitars, Vocals
See also: Allura'taq, Lifeless Form, Devilry, ex-Full Frontal Assault, ex-Leatherhorn
Guest appearances:
Aimee Wright - vocals
Carly Gilliland - violin
Rich Canut - saw, synth
[youtube]4bA193PXrRs[/youtube][/more]

[more=Technical info]
Input File: 03 - The Meadows Rip.mp3
Channels : 2
Sample Rate : 44100
Precision : 16-bit
Duration : 00:09:16.50 = 24541650 samples = 41737.5 CDDA sectors
File Size : 22.3M
Bit Rate : 320k
Sample Encoding: MPEG audio (layer I, II or III)
Comments :
Title=The Meadows Rip
Artist=Swamp Lantern
Album=Phantasms
Tracknumber=3
Year=2020
Genre=Metal

[/more]

Register
(12) Aamiinaa, craP_cillA, infiltrator, metala, Narasimha, Rosen, sludge666, Taakeferd, VALERY, vosmidesijatye, yuratroll, ZambuL,
Jan 18 2021, 20:00:16 Goat Fetus - Origins Of Evil (2020)


*Artist: Goat Fetus
*Album: Origins Of Evil
*Year: 2020
*Genre: Symphonic Black Metal
*Country: Canada
*Format: mp3@CBR320kbps
*Size: 90MB

Tracklist:
1. Taste of the Forbidden 05:10
2. Tales from the Shadows 05:27
3. Aura of Evil 03:39
4. Horror from the Deep 04:25
5. Until Death 05:46
6. The Light Within 06:04
7. On the Shoulders of Giants 04:15
8. Midnight Rituals 03:24
******************************
Total playing time: 38:10




[more=Extended info]Sean Batty Guitars, Vocals
See also: Spread the Disease[/more]

[more=Technical info]
Input File: 06 The Light Within.mp3
Channels : 2
Sample Rate : 44100
Precision : 16-bit
Duration : 00:06:04.53 = 16075861 samples = 27339.9 CDDA sectors
File Size : 15.0M
Bit Rate : 329k
Sample Encoding: MPEG audio (layer I, II or III)
Comments :
Title=The Light Within
Artist=Goat Fetus
Album=Origins of Evil
Tracknumber=6/8
Year=2020-20-20
Discnumber=1/1

[/more]

Register
(11) AlexSmith, kim666, metala, obituarydark, Olethros, Rosen, sergsazan, suseka, vasiljev_sergej, zhol, Сварог Барг,
Jan 18 2021, 19:28:39 Unbounded Terror - Infernal Judgment [compilation] (2021)


*Artist: Unbounded Terror
*Album: Infernal Judgment [compilation]
*Year: 2021
*Genre: Old School Death Metal
*Country: Spain
*Format: mp3@CBR320kbps
*Size: 79MB

Tracklist:
1. Infernal Judgment 04:25
2. Dreamlord (2020 version) 04:03
3. Fear (2020 version) 04:20
4. Slaves of Sufferage (2020 version) 03:45
5. Sarcastic Souls (2020 version) 04:30
6. They Will Come from the Pain (live) 04:27
7. Silent Soul (live) 03:51
8. Hated in Hell (live) 04:37
******************************
Total playing time: 33:58





[more=Extended info]Vicente Payá Guitars (1991-1993, 2019-present), Vocals (2019)
See also: Bis•nte, Golgotha, Shock Wave, ex-Yskelgroth, Unwom, ex-Holycide, ex-Kocsis, ex-Lucifer
Andrew Spinosa Bass, Vocals (2019-present)
See also: Golgotha, In War, ex-Goreinhaled, ex-Eveth (live)
Jaume Porta Drums (2019-present)
Juan Mateu Guitars (2019-present)
See also: Golgotha (live)
[youtube]S-SDBWqSvfs[/youtube][/more]

[more=Technical info]
Input File: 05. Sarcastic Souls.mp3
Channels : 2
Sample Rate : 44100
Precision : 16-bit
Duration : 00:04:30.00 = 11907000 samples = 20250 CDDA sectors
File Size : 11.0M
Bit Rate : 326k
Sample Encoding: MPEG audio (layer I, II or III)
Comments :
Title=Sarcastic Souls
Artist=Unbounded Terror
Album=Infernal Judgment
Tracknumber=5
Year=2021
Discnumber=1

[/more]

Register
(16) AHBAnep, alikkon, Brutal, cesar, EvilSpirit, infiltrator, Occultas, Olethros, Ostinato, Rosen, smysl, spazm, stumpheavyrock, Taakeferd, VALERY, zhol,
Jan 18 2021, 13:38:27 Umvral - Distancias (2021)


*Artist: Umvral
*Album: Distancias
*Year: 2021
*Genre: Power/Progressive Metal
*Country: Chile
*Format: mp3@CBR320kbps
*Size: 109MB

Tracklist:
1. Huellas 02:02
2. Sin retorno 04:42
3. Hermanos 04:11
4. Perdidos 04:33
5. Prueba 04:39
6. Lejos 03:19
7. El daño 05:35
8. Viaje 03:42
9. Eternos 04:55
10. Ser: Elegir 04:30
******************************
Total playing time: 42:08




[more=Extended info]Pablo Rivas Bass (2007-2011, 2015-present)
Sebastián Lago Guitars (2007-2011, 2015-present)
Rodrigo Neira Keyboards (2007-2011, 2015-present)
See also: ex-Aeryth
Pablo Calbiague Drums (2009-2011, 2015-present)
Ricardo Curaqueo Vocals (2015-present)
[youtube]zXkw5UscGGI[/youtube]
[youtube]pilsevoiXAY[/youtube][/more]

[more=Technical info]
Input File: 07 - El Daño.mp3
Channels : 2
Sample Rate : 44100
Precision : 16-bit
Duration : 00:05:35.48 = 14794800 samples = 25161.2 CDDA sectors
File Size : 13.6M
Bit Rate : 323k
Sample Encoding: MPEG audio (layer I, II or III)
Comments :
Title=El Daño
Artist=Umvral
Album=Distancias
Tracknumber=7
Year=2021

[/more]

Register
(9) after21allD, boby9052, Herrant, infiltrator, Olethros, Rosen, stumpheavyrock, Taakeferd, Сварог Барг,
Jan 18 2021, 12:36:11 Im Herbst Unserer Kindheit - Horizont (2021)


*Artist: Im Herbst Unserer Kindheit
*Album: Horizont
*Year: 2021
*Genre: Avant-Garde Black Metal
*Country: Germany
*Format: mp3@CBR320kbps
*Size: 78MB

Tracklist:
1. Holle
2. Morast
3. Staub
4. Rastlos
5. Himmel
6. 100 Mann und ein Befehl
******************************
Total playing time: 34:15




[more=Technical info]
Input File: 05 - Himmel.mp3
Channels : 2
Sample Rate : 44100
Precision : 16-bit
Duration : 00:09:17.41 = 24581561 samples = 41805.4 CDDA sectors
File Size : 22.4M
Bit Rate : 321k
Sample Encoding: MPEG audio (layer I, II or III)
Comments :
Title=Himmel
Artist=Im Herbst unserer Kindheit
Album=Horizont
Tracknumber=5
Year=2021

[/more]

Register
(16) AlexSmith, alikkon, craP_cillA, hellbibber, infiltrator, judaz, M0ns1gn0r, metala, Olethros, Rosen, Semargl2010, suseka, Taakeferd, VALERY, vasiljev_sergej, yuratroll,
Jan 18 2021, 12:21:36 Nuit Macabre - Diablerie (2020)


*Artist: Nuit Macabre
*Album: Diablerie
*Year: 2020
*Genre: Black Metal
*Country: France
*Format: mp3@CBR320kbps
*Size: 81MB

Tracklist:
1. Mirage 02:40
2. Diablerie 04:16
3. Secrets 02:58
4. Visions 02:27
5. Ouija 04:00
6. Réalitée malsaine 03:08
7. Spectre 01:58
8. La brume des morts 03:23
9. Symbole du mal 02:55
10. Le cauchemard de Zémus 02:02
11. Malédiction 04:49
******************************
Total playing time: 34:36




[more=Extended info]Nyghlfar Everything
See also: Veine Morte, ex-Beyond the Torture, ex-Lunatia, ex-Voracian, ex-Red Dead, ex-Ad Nauseam, ex-Aurora, ex-Recidive, ex-Smegma
Julien Hovelaque Keyboards
See also: L'Éclat du Déclin, ex-Ave Tenebrae, Mater Tenebrarum, ex-Maleficentia
[youtube]Im-0hBzt7oY[/youtube][/more]

[more=Technical info]
Input File: 11 - Malédiction.mp3
Channels : 2
Sample Rate : 44100
Precision : 16-bit
Duration : 00:04:49.11 = 12749883 samples = 21683.5 CDDA sectors
File Size : 11.7M
Bit Rate : 325k
Sample Encoding: MPEG audio (layer I, II or III)
Comments :
Title=Malédiction
Artist=Nuit Macabre
Album=Diablerie
Tracknumber=11
Year=2020

[/more]

Register
(11) AlexSmith, dolmorgoth, Gylve, infiltrator, kim666, Olethros, Rosen, suseka, Taakeferd, VALERY, vasiljev_sergej,
Jan 18 2021, 12:09:22 Kaal Akuma - In The Mouth Of Madness (2021)


*Artist: Kaal Akuma
*Album: In The Mouth Of Madness
*Year: 2021
*Genre: Death Metal
*Country: Bangladesh
*Format: mp3@CBR320kbps
*Size: 84MB

Tracklist:
1. Black Death Sacrifice
2. Feast On Mortals
3. Master Of Metnal
4. In The Mouth Of Madness
5. Yamantaka
******************************
Total playing time: 36:34




[more=Extended info]Ah Puch Drums
Akif Guitars
See also: Homicide, ex-Dissector (live)
Rivoo Vocals, Bass[/more]

[more=Technical info]
Input File: 03 - Master Of Metnal.mp3
Channels : 2
Sample Rate : 44100
Precision : 16-bit
Duration : 00:06:19.87 = 16752267 samples = 28490.2 CDDA sectors
File Size : 15.4M
Bit Rate : 324k
Sample Encoding: MPEG audio (layer I, II or III)
Comments :
Title=Master Of Metnal
Artist=Kaal Akuma
Album=In The Mouth Of Madness
Tracknumber=3
Year=2021

[/more]

Register
(15) andreikun, cesar, CheCoola, EvilSpirit, infiltrator, judaz, metala, Mist13Signifier, Olethros, Rosen, suseka, Taakeferd, VALERY, vyacheslav, wanderer73,
Jan 18 2021, 12:00:01 Fjøsnisse - Vord (2021)


*Artist: Fjøsnisse
*Album: Vord
*Year: 2021
*Genre: Melodic Black Metal
*Country: Norway
*Format: mp3@CBR320kbps
*Size: 90MB

Tracklist:
1. Tusser Og Troll 05:34
2. Liksvøpt 06:00
3. Du Skal Slå Ihjel 04:21
4. Fjelleventyr 05:28
5. Der Kommer Ei Kjærring 04:32
6. Frossen Skog 05:30
7. Gjenferd 03:49
8. Jostedalsrypa 04:17
******************************
Total playing time: 39:31




[more=Extended info]Anders Vada All instruments, Vocals[/more]

[more=Technical info]
Input File: 06 - Frossen Skog.mp3
Channels : 2
Sample Rate : 44100
Precision : 16-bit
Duration : 00:05:30.57 = 14578181 samples = 24792.8 CDDA sectors
File Size : 13.4M
Bit Rate : 323k
Sample Encoding: MPEG audio (layer I, II or III)
Comments :
Title=Frossen Skog
Artist=Fjøsnisse
Album=Vord
Tracknumber=6
Year=2021

[/more]

Register
(16) cancer1974, cesar, judaz, kim666, Korpse, logunarm, metala, Olethros, Rosen, sergsazan, suseka, thenecromancer, toto, VVR, zhol, Сварог Барг,
Jan 17 2021, 19:19:59 R.I.P. - R.I.P. [ep] (2020)


*Artist: R.I.P.
*Album: R.I.P. [ep]
*Year: 2020
*Genre: Death Metal
*Country: Germany
*Format: mp3@CBR320kbps
*Size: 35MB

Tracklist:
1. Acid Mutilation 04:29
2. As Good as Dead 03:14
3. Infected 03:17
4. Traumatized 03:20
******************************
Total playing time: 14:20



[more=Technical info]
Input File: 04. Traumatized.mp3
Channels : 2
Sample Rate : 44100
Precision : 16-bit
Duration : 00:03:20.58 = 8845666 samples = 15043.6 CDDA sectors
File Size : 8.57M
Bit Rate : 342k
Sample Encoding: MPEG audio (layer I, II or III)
Comments :
Title=Traumatized
Artist=R.I.P.
Album=R.I.P. (320)
Tracknumber=04
Year=2020
Genre=Metal

[/more]

Register
(11) caro, craP_cillA, infiltrator, Olethros, Rosen, Taakeferd, THROWER666, VALERY, vyacheslav, wanderer73, Yngwarr,
Jan 17 2021, 17:04:18 Arcaneblaze - Spawn Of Putrefaction [ep] (2020)


*Artist: Arcaneblaze
*Album: Spawn Of Putrefaction [ep]
*Year: 2020
*Genre: Blackened Thrash/Speed Metal
*Country: Russian Federation
*Format: mp3@CBR320kbps
*Size: 25MB

Tracklist:
1. Will of Conjuration 03:00
2. World Devourer 02:17
3. Feat the Flesh 02:12
4. Burning Slut 02:58
******************************
Total playing time: 10:27




[more=Extended info]Dmitrii Borodin All instruments, Vocals[/more]

[more=Technical info]
Input File: Arcaneblaze - Spawn of putrefaction - 04 Burning slut.mp3
Channels : 2
Sample Rate : 44100
Precision : 16-bit
Duration : 00:02:58.58 = 7875466 samples = 13393.6 CDDA sectors
File Size : 7.36M
Bit Rate : 330k
Sample Encoding: MPEG audio (layer I, II or III)
Comments :
Title=Burning slut
Artist=Arcaneblaze
Album=Spawn of putrefaction
Tracknumber=4
Year=2020

[/more]

Register
(14) boby9052, Darkness, infiltrator, Olethros, Rosen, SadistikSlayer, scorn33, stumpheavyrock, Taakeferd, thrashiac55, Volk11911, Wail, wanderer73, wgs73,
Jan 17 2021, 15:46:08 Human Doll - Absent Sorrow (2020)


*Artist: Human Doll
*Album: Absent Sorrow
*Year: 2020
*Genre: Atmospheric Black Metal
*Country: Spain
*Format: mp3@CBR320kbps
*Size: 100MB

Tracklist:
1. Only Violence 11:04
2. A Thousand Crawling Demons 03:27
3. The Lord of the Night Ship 06:46
4. Descending into Darkness 09:11
5. Resonances 03:03
6. The Last Witness 09:57
******************************
Total playing time: 43:28




[more=Extended info]Álvaro Serrano López Bass, Vocals, Synths, Keyboards
Manuel Sánchez Hidalgo Drum programming, Bass, Guitars[/more]

[more=Technical info]
Input File: Human Doll - Absent Sorrow - 06 The Last Witness.mp3
Channels : 2
Sample Rate : 44100
Precision : 16-bit
Duration : 00:09:57.09 = 26331537 samples = 44781.5 CDDA sectors
File Size : 24.0M
Bit Rate : 322k
Sample Encoding: MPEG audio (layer I, II or III)
Comments :
Title=The Last Witness
Artist=Human Doll
Album=Absent Sorrow
Tracknumber=6
Year=2020

[/more]

Register
(12) AlexSmith, infiltrator, Olethros, Ostinato, robertho777, Rosen, sergsazan, suseka, Taakeferd, toly1917, VALERY, vasiljev_sergej,
Jan 17 2021, 15:34:53 Mother - I (2020)


*Artist: Mother
*Album: I
*Year: 2020
*Genre: Atmospheric Sludge/Post-Metal
*Country: Belgium
*Format: mp3@CBR320kbps
*Size: 105MB

Tracklist:
1. I.I 04:26
2. I.II 09:03
3. I.III 08:37
4. I.IV 05:11
5. I.V 05:24
6. I.VI 07:35
7. I.VII 03:31
******************************
Total playing time: 43:47




[more=Extended info]Lynn Claus Bass (2018-present)
Toon Soete Drums (2018-present)
See also: ex-Nemea
Tuur Soete Guitars, Vocals (2018-present)
See also: Ithilien[/more]

[more=Technical info]
Input File: 06 I.VI (Pt. One Chapter Six).mp3
Channels : 2
Sample Rate : 44100
Precision : 16-bit
Duration : 00:07:36.02 = 20110394 samples = 34201.4 CDDA sectors
File Size : 19.0M
Bit Rate : 333k
Sample Encoding: MPEG audio (layer I, II or III)
Comments :
Title=I.VI (Pt. One, Chapter Six)
Artist=Mother
Album=I
Tracknumber=6/7
Year=2020-20-20
Discnumber=1/1

[/more]

Register
(11) aleon, gena, Glioma, infiltrator, Kwaad, MeatWolf, Olethros, Rosen, SatanicPanzer, suseka, VALERY,
Jan 17 2021, 14:54:31 Sagenland - Oale Groond (2021)


*Artist: Sagenland
*Album: Oale Groond
*Year: 2021
*Genre: Black Metal
*Country: Netherlands
*Format: mp3@CBR320kbps
*Size: 76MB

Tracklist:
1. Weer thuus 01:01
2. De jammerklachten van Singraven – eerste deel 05:00
3. De jammerklachten van Singraven – tweede deel 05:32
4. Veur de leu van vrogger 01:16
5. Bladval 04:20
6. In 't bos 05:06
7. Van eigen land 00:52
8. Botte bijlen 03:54
9. 't Leste gedicht (Twentse earde) 05:02
10. Terug noar et laand van aleer 00:34 instrumental
******************************
Total playing time: 32:37




[more=Extended info]Floris Velthuis Bass, Drums, Vocals
See also: Asgrauw, Meslamtaea, ex-Deifecation, Annwfyn, ex-Escutcheon
Arjan Guitars, Vocals
See also: Cultus, Heimdalls Wacht, Uuntar, Absolutus (live), Blackdeath (live), Mordaehoth (live), ex-Gravenveld IX, ex-Pest, Annwfyn, ex-Countess, ex-Genocide, ex-Lugubre, ex-Hekel (live), ex-Mortifera (live), ex-Bitter, ex-Jupiter, ex-Terg
[youtube]ysoFVNAvmiY[/youtube][/more]

[more=Technical info]
Input File: 09 - 't Leste Gedicht (twentse Earde).mp3
Channels : 2
Sample Rate : 44100
Precision : 16-bit
Duration : 00:05:02.15 = 13324727 samples = 22661.1 CDDA sectors
File Size : 12.3M
Bit Rate : 326k
Sample Encoding: MPEG audio (layer I, II or III)
Comments :
Title='t Leste Gedicht (twentse Earde)
Artist=Sagenland
Album=Oale Groond
Tracknumber=9
Year=2021

[/more]

Register
(13) infiltrator, kim666, Marek, Olethros, Ostinato, robertho777, Rosen, SadistikSlayer, SSBandera, suseka, Taakeferd, VALERY, vasiljev_sergej,
Jan 17 2021, 02:19:09 Munkill - Ambition And Destruction (2020)


*Artist: Munkill
*Album: Ambition And Destruction
*Year: 2020
*Genre: Thrash/Black/Death Metal
*Country: Argentina
*Format: mp3@CBR320kbps
*Size: 108MB

Tracklist:
1. Completing a Cycle 04:00
2. Keep Hope! 05:56
3. El Peor Recuerdo 00:56
4. Little Men, Big Guns 04:58
5. Legado Maldito 01:40
6. Rise to Wealth 07:48
7. 1984 04:42
8. Munkill 2 07:08
9. Rise to Wealth (Instrumental) 07:48
******************************
Total playing time: 44:56




[more=Extended info]Maliz Bass
See also: Dark Morbid Frost, Dark Morbid Frost, ex-Diabolical Prayers
Demogorgon Vocals, Guitars
See also: Dark Morbid Frost, Samurai Bushido, Dark Morbid Frost, Jesus Christ Sodomized, Shit Society, ex-Colericos, ex-Diabolical Prayers, ex-Mountains of Goats, ex-Murk, ex-Sick (Ita)
Semiazas Drums (2014-present)
See also: Dark Morbid Frost
[youtube]Gpqjs9cRkW4[/youtube][/more]

[more=Technical info]
Input File: 06 Rise to Wealth.mp3
Channels : 2
Sample Rate : 44100
Precision : 16-bit
Duration : 00:07:48.09 = 20642637 samples = 35106.5 CDDA sectors
File Size : 19.3M
Bit Rate : 330k
Sample Encoding: MPEG audio (layer I, II or III)
Comments :
Title=Rise to Wealth
Artist=MUNKILL
Album=Ambition and Destruction
Tracknumber=6/9
Year=2020-20-20
Genre=Metal
Discnumber=1/1

[/more]

Register
(13) andreikun, atavist, boby9052, infiltrator, Marek, metala, Olethros, Rosen, sergsazan, stumpheavyrock, suseka, Taakeferd, vasiljev_sergej,
Jan 17 2021, 00:48:39 Потьма - Дубравлаг [ep] (2021)


*Artist: Потьма
*Album: Дубравлаг [ep]
*Year: 2021
*Genre: Black Metal
*Country: Russian Federation
*Format: mp3@CBR320kbps
*Size: 51MB

Tracklist:
1. Yavas 02:56
2. Thong 04:38
3. Windrey 02:52
4. Dubravlag 04:53
5. Inewed 02:22
6. Partsa 04:29
******************************
Total playing time: 22:10


Preview 2

[more=Extended info]Wiktor A. Bass
Alexander T. Drums
Max P. Guitars
Antoine K. Vocals
Juliana Yu. Vocals (backing)
[youtube]5LIXwRkc2OE[/youtube][/more]

[more=Technical info]
Input File: 04 - Дубравлаг.mp3
Channels : 2
Sample Rate : 44100
Precision : 16-bit
Duration : 00:04:53.25 = 12932369 samples = 21993.8 CDDA sectors
File Size : 11.7M
Bit Rate : 320k
Sample Encoding: MPEG audio (layer I, II or III)
Comments :
Title=Äóáðàâëàã
Artist=Ïîòüìà
Album=Äóáðàâëàã
Tracknumber=4
Year=2021
Genre=Black Metal

[/more]

Register
(19) caro, cesar, Fater_Hu, Golodomor, infiltrator, judaz, kim666, Olethros, Ostinato, robertho777, Rosen, SaintVitus, SilentNidhogg, Slavas, Taakeferd, terron, VALERY, vasiljev_sergej, Vitald,
Jan 17 2021, 00:18:59 The Secret Cult Of Yog-Sothoth - It Came To Kill Us All (2021)


*Artist: The Secret Cult Of Yog-Sothoth
*Album: It Came To Kill Us All
*Year: 2021
*Genre: Black/Death Metal
*Country: Spain
*Format: mp3@CBR320kbps
*Size: 75MB

Tracklist:
1. Ashes of Eternity 03:30
2. Astral Gate 02:44
3. The Secret Cult 03:58
4. It Came to Kill Us All 03:27
5. Invoking Dead Stars 02:50
6. I the Gate, I the Key 03:40
7. Wake Up Master 02:23
8. Ethereal Blasphemy 03:35
9. Interdimensional Ghost 03:55
10. Blessed by Gods from Outspace 03:47
******************************
Total playing time: 33:49




[more=Extended info]Javier E. Prieto Gion All instruments, Vocals
See also: Myrddin Cane, ex-Bleeder[/more]

[more=Technical info]
Input File: 09 - Interdimensional Ghost.mp3
Channels : 2
Sample Rate : 44100
Precision : 16-bit
Duration : 00:03:55.04 = 10365132 samples = 17627.8 CDDA sectors
File Size : 9.40M
Bit Rate : 320k
Sample Encoding: MPEG audio (layer I, II or III)
Comments :
Title=Interdimensional Ghost
Artist=The Secret Cult of Yog-Sothoth
Album=It Came to Kill Us All
Tracknumber=9
Year=2021
Genre=Black Metal

[/more]

Register
(13) AlexSmith, atavist, craP_cillA, infiltrator, Marek, Olethros, Rosen, SilentNidhogg, suseka, Taakeferd, VALERY, vasiljev_sergej, wanderer73,
Jan 16 2021, 21:15:44 Gospod - The Main Sins Of Humanity (2021)


*Artist: Gospod
*Album: The Main Sins Of Humanity
*Year: 2021
*Genre: Atmospheric Black Metal
*Country: Russian Federation
*Format: mp3@CBR320kbps
*Size: 78MB

Tracklist:
1. Greed 04:00
2. Anger 04:49
3. Gluttony 06:12
4. Laziness 03:16
5. Envy 06:04
6. Sadness 03:29
7. Lust 03:20
******************************
Total playing time: 31:10


Preview 2

[more=Extended info][youtube]dbdvXd-577U[/youtube]
[youtube]aalcdWdgLWc[/youtube][/more]

[more=Technical info]
Input File: 05 Envy.mp3
Channels : 2
Sample Rate : 44100
Precision : 16-bit
Duration : 00:06:04.14 = 16058574 samples = 27310.5 CDDA sectors
File Size : 15.5M
Bit Rate : 341k
Sample Encoding: MPEG audio (layer I, II or III)
Comments :
Title=Envy
Artist=Gospod
Album=The Main Sins of Humanity
Tracknumber=5/7
Year=2021-21-20
Genre=Metal
Discnumber=1/1

[/more]

Register
(14) alikkon, Exordium, Golodomor, infiltrator, kim666, metala, multizwilling, Olethros, Olrak, robertho777, Rosen, Taakeferd, umnaxtet, VALERY,
Jan 16 2021, 21:01:12 Lost Sacrament - Praesidio In Animo (2021)


*Artist: Lost Sacrament
*Album: Praesidio In Animo
*Year: 2021
*Genre: Progressive/Symphonic Metal
*Country: United States
*Format: mp3@CBR320kbps
*Size: 116MB

Tracklist:
1. Awakening 01:41 instrumental
2. Celestial Chasm (In a Lost Sea of Stars) 07:03
3. Voice of Illusion 05:57
4. Forbidden Touch 05:55
5. Rejuvenation 01:38
6. Trials of the Flame 04:51
7. Disease In the Outer Realm 06:28
8. Cure In the Dream Sequence 06:52
9. Radiate 02:24
10. Within These Walls 06:50
******************************
Total playing time: 49:39




[more=Extended info]Vicente Fernandez Drums
See also: ex-Doom Desire, ex-Sovereign Wrath, ex-An Eater's Curse, ex-Valdris, ex-Valgud, ex-Eternal Crown
Pete Oliva Guitars (lead)
Felipe Hernandez Guitars (rhythm)
Ena Estrella Vocals (2018-present)
See also: ex-Doom Desire, ex-Valgud
[youtube]NC68xKEEKKk[/youtube][/more]

[more=Technical info]
Input File: 07 - Disease In The Outer Realm.mp3
Channels : 2
Sample Rate : 44100
Precision : 16-bit
Duration : 00:06:28.49 = 17132321 samples = 29136.6 CDDA sectors
File Size : 15.8M
Bit Rate : 325k
Sample Encoding: MPEG audio (layer I, II or III)
Comments :
Title=Disease In The Outer Realm
Artist=Lost Sacrament
Album=Praesidio in Animo
Tracknumber=7
Year=2021

[/more]

Register
(11) after21allD, Alpha_Prime, Cartman223, DenisKov, Herrant, infiltrator, metala, Olethros, Rosen, Rover, Сварог Барг,
Jan 16 2021, 20:48:18 Blacketernal - Darkness Embrace 2: The Oakenford Chronicles (2021)


*Artist: Blacketernal
*Album: Darkness Embrace 2: The Oakenford Chronicles
*Year: 2021
*Genre: Symphonic/Cinematic Black Metal
*Country: United States
*Format: mp3@CBR320kbps
*Size: 334MB

Tracklist:
1. The Oakenford Chronicles (Prologue) 05:00
2. Pavor Nocturnus 07:26
3. Chronicles I 15:38
4. Voices From The Crypt 09:20
5. Halls of Madness 09:08
6. Chronicles II 22:18
7. Nocturnem Infernalis 10:25
8. The Haunting of Oakwood Isle (Intermission) 12:22
9. Thorne's Domain 07:16
10. Chronicles III 17:06
11. Demonic Spirits II 10:46
12. Darkness Embrace II 08:49
13. Capta Est (Chronicles IV) 09:42
******************************
Total playing time: 2:25:16




[more=Extended info]Nightmare All instruments, Vocals (2017-present)[/more]

[more=Technical info]
Input File: 07 - Nocturnem Infernalis.mp3
Channels : 2
Sample Rate : 44100
Precision : 16-bit
Duration : 00:10:25.93 = 27603425 samples = 46944.6 CDDA sectors
File Size : 25.2M
Bit Rate : 322k
Sample Encoding: MPEG audio (layer I, II or III)
Comments :
Title=Nocturnem Infernalis
Artist=BlackEternal
Album=Darkness Embrace II: The Oakenford Chronicles
Tracknumber=7
Year=2021

[/more]

Register
(9) infiltrator, Olethros, robertho777, Rosen, simonalacacarisa, Taakeferd, v.v.m, VALERY, vasiljev_sergej,
Jan 16 2021, 20:34:21 Scarabreed - Throne Of The Dark Ages (2020)


*Artist: Scarabreed
*Album: Throne Of The Dark Ages
*Year: 2020
*Genre: Blackened Death Metal
*Country: Switzerland
*Format: mp3@CBR320kbps
*Size: 117MB

Tracklist:
1. Chaoslord 07:46
2. God's dernière 05:02
3. No Harvest 04:10
4. Rise of the Hypocrite 07:14
5. Daughter of a Mortal Priest 04:59
6. Head by Head for the Lord 06:55
7. Danse des scarabrées 06:52 instrumental
8. Throne of Clay 07:32
******************************
Total playing time: 50:30




[more=Extended info]Markus Rücker Bass
See also: ex-Amputate
Phillip Stengele Drums
See also: ex-Denial, ex-Amputate
Riccardo Rossi Vocals, Guitars
See also: ex-Denial
Thomas Hades Vocals, Guitars
See also: Innocent F.F., ex-Azrael, ex-Sabaism, ex-2Black
[youtube]mCganRbMyno[/youtube][/more]

[more=Technical info]
Input File: 08 - Throne of Clay.mp3
Channels : 2
Sample Rate : 44100
Precision : 16-bit
Duration : 00:07:32.36 = 19949120 samples = 33927.1 CDDA sectors
File Size : 18.4M
Bit Rate : 325k
Sample Encoding: MPEG audio (layer I, II or III)
Comments :
Title=Throne of Clay
Artist=Scarabreed
Album=Throne of the Dark Ages
Tracknumber=8
Year=2020

[/more]

Register
(14) atavist, infiltrator, Korpse, Marek, Morgoth666, Olethros, Rosen, SadistikSlayer, stumpheavyrock, suseka, Taakeferd, VALERY, vyacheslav, Сварог Барг,
Jan 16 2021, 14:00:15 Karmesy - Vías Del Metal [demo] (2015)


*Artist: Karmesy
*Album: Vías Del Metal [demo]
*Year: 2015
*Genre: Thrash Metal
*Country: Ecuador
*Format: mp3@CBR320kbps
*Size: 46MB

Tracklist:
1. Aniquilador 04:48
2. Odio 02:44
3. Venganza 03:17
4. Hacer el Mundo 04:57
5. Vías del Metal 03:53
******************************
Total playing time: 19:39




[more=Technical info]
Input File: 04 Hacer el Mundo.mp3
Channels : 2
Sample Rate : 44100
Precision : 16-bit
Duration : 00:04:57.63 = 13125439 samples = 22322.2 CDDA sectors
File Size : 12.4M
Bit Rate : 334k
Sample Encoding: MPEG audio (layer I, II or III)
Comments :
Title=Hacer el Mundo
Artist=Karmesy
Album=Vías del Metal
Tracknumber=4/5
Year=2015-21-20
Discnumber=1/1

[/more]

Register
(6) after21allD, infiltrator, Olethros, Rosen, stumpheavyrock, thrashiac55,
Jan 16 2021, 13:04:25 Kharàce - Dakhalè (2021)


*Artist: Kharàce
*Album: Dakhalè
*Year: 2021
*Genre: Raw Black Metal
*Country: Italy
*Format: mp3@CBR320kbps
*Size: 77MB

Tracklist:
1. Dakhalè (Entrance) 06:05
2. Sillùmi (Stairway) 06:50
3. Qantarah (Bridge) 07:15
4. Sciràfi (Balcony) 04:52
5. Kharàce (Exit) 07:42
******************************
Total playing time: 32:44



[more=Extended info]Marchosias Everything (2020-present)
See also: Gelkhammar[/more]

[more=Technical info]
Input File: 03 Qantarah (Bridge).mp3
Channels : 2
Sample Rate : 44100
Precision : 16-bit
Duration : 00:07:15.77 = 19217545 samples = 32682.9 CDDA sectors
File Size : 18.0M
Bit Rate : 330k
Sample Encoding: MPEG audio (layer I, II or III)
Comments :
Title=Qantarah (Bridge)
Artist=Kharàce
Album=Dakhalè
Tracknumber=3/5
Year=2021-21-20
Genre=Rock
Discnumber=1/1

[/more]

Register
(15) El_Chibo, INDARKNESS, infiltrator, kim666, Lamby90, murian, Olethros, robertho777, Rosen, SilentNidhogg, stub888, supremo, Taakeferd, VALERY, vasiljev_sergej,
Jan 16 2021, 12:50:26 Infected - Divine Disbelief [ep] (2020)


*Artist: Infected
*Album: Divine Disbelief [ep]
*Year: 2020
*Genre: Melodic Black Metal
*Country: Turkey
*Format: mp3@CBR320kbps
*Size: 33MB

Tracklist:
1. Divine Disbelief 05:59
2. Old Man 03:36
3. Lost In Darkness 03:57
******************************
Total playing time: 13:32




[more=Extended info]Bahadir Uludaglar / Bass-Vocals
Ahmet Iba / Guitars
Oytun Turk / Guitars
Fatih Kanik / Drums
[youtube]AOKUBs1MpU4[/youtube][/more]

[more=Technical info]
Input File: 03 Lost in Darkness.mp3
Channels : 2
Sample Rate : 44100
Precision : 16-bit
Duration : 00:03:56.97 = 10450333 samples = 17772.7 CDDA sectors
File Size : 10.2M
Bit Rate : 345k
Sample Encoding: MPEG audio (layer I, II or III)
Comments :
Title=Lost in Darkness
Artist=Infected
Album=Divine Disbelief
Tracknumber=3/3
Year=2020-20-20
Genre=Metal
Discnumber=1/1

[/more]

Register
(13) BugEyes, djsema4, infiltrator, kimkayoung, legion01, Marek, Olethros, Ostinato, Rosen, sergsazan, SilentNidhogg, Taakeferd, vasiljev_sergej,
Jan 16 2021, 10:44:21 Divension - Conquer The Dying Sun (2020)


*Artist: Divension
*Album: Conquer The Dying Sun
*Year: 2020
*Genre: Melodic Death/Thrash Metal
*Country: Switzerland
*Format: mp3@CBR320kbps
*Size: 158MB

Tracklist:
1. Misguided Youth 04:00
2. Nobody Will Find You 04:37
3. Face This 05:05
4. Crossroads Are Questions 04:24
5. Escape (From My Thoughts) 04:19
6. Dark Future 05:18
7. Death Inspiration 04:48
8. Virtual Flash 03:44
9. Up from Grave 08:19
10. Distant Soul 05:05
11. Jigsaw (Hand of Doom) 06:08
12. Conquer the Dying Sun 13:10
******************************
Total playing time: 1:08:57



[more=Extended info]Connor Rothmund Bass
Dominik Gisler Drums
Leonardo Vetsch Guitars
Roger Baumgartner Guitars
See also: ex-The Uprising
Domo Bösch Vocals
See also: ex-Demonium
[youtube]L0ZJHquJA3E[/youtube][/more]

[more=Technical info]
Input File: 07 - Death Inspiration.mp3
Channels : 2
Sample Rate : 44100
Precision : 16-bit
Duration : 00:04:47.70 = 12687658 samples = 21577.6 CDDA sectors
File Size : 11.6M
Bit Rate : 323k
Sample Encoding: MPEG audio (layer I, II or III)
Comments :
Title=Death Inspiration
Artist=Divension
Album=Conquer the Dying Sun
Tracknumber=7
Year=2020

[/more]

Register
(17) boby9052, BugEyes, DenisKov, infiltrator, Korpse, Marek, metala, Olethros, Rosen, soulflesh, stumpheavyrock, Taakeferd, TeamatSE, thrashiac55, VALERY, wanderer73, zhol,

877 Pages V   1 2 3 > » 
- Lo-Fi Version Support form
Copyrights and abuse reports form
Time is now: 20th January 2021 - 08:01:28