Welcome Guest ( Log In | Register )

История благодарностей участнику Samaritianin ::: Спасибо сказали: 444828 раз(а)
Дата поста: В теме: За сообщение: Спасибо сказали:
Today, 03:59:29 Hörnhammer - Visions Of Storm (2017)
ЦИТАТА(wreak @ May 27 2022, 21:05:31) *
Reupload Please¡¡

320 105 mb
Register
(1) suseka,
Today, 00:14:49 Atomic Genocide - Días Desiertos [ep] (2022)


*Artist: Atomic Genocide
*Album: Días Desiertos [ep]
*Year: 2022
*Genre: Power/Thrash Metal
*Country: Chile
*Format: mp3@CBR320kbps
*Size: 57MB

Tracklist:
1. Días Desiertos 05:50
2. Searching the New Horizon 02:26
3. Dante 06:44
4. Escuadrón Bioterror 03:24
5. Hijos del Acero 06:08
******************************
Total playing time: 24:32



[more=Extended info]Victor Carmona Drums
See also: Kewa
Fernando Tello Guitars (1989-1991, 2006-2020, 2020-present)
See also: ex-Dilemma, ex-Adamantium
Andres Delgado Bass (2020-present)
See also: Kutrankan, Tirano, Infernal, ex-Luctus' Hydra, ex-Los Hotes, ex-The Mirror, ex-Tranai
Héctor Guzmán Guitars (2021-present)
See also: D1straught
Mauricio Bastias Vocals (2021-present)
See also: Masacritika, ex-Estruendo
[youtube]o8LHhv5LjLg[/youtube]
[youtube]UN8UMHwV9_M[/youtube][/more]

[more=Technical info]
Input File: 05 - Hijos del Acero.mp3
Channels : 2
Sample Rate : 44100
Precision : 16-bit
Duration : 00:06:08.00 = 16228800 samples = 27600 CDDA sectors
File Size : 14.8M
Bit Rate : 323k
Sample Encoding: MPEG audio (layer I, II or III)
Comments :
Title=Hijos del Acero
Artist=Atomic Genocide
Album=Días Desiertos
Tracknumber=5
Year=2022-05-27
Discnumber=1

[/more]

Register
(1) metaljosue,
Yesterday, 23:42:31 Cadaver Coils - Offerings Of Rapture And Decay (2022)


*Artist: Cadaver Coils
*Album: Offerings Of Rapture And Decay
*Year: 2022
*Genre: Death Metal
*Country: Greece
*Format: mp3@CBR320kbps
*Size: 84MB

Tracklist:
1. Wings as Blades 06:25
2. Fruits of Avarice 06:14
3. Splenetic Voices 06:23
4. Tongue of the Beast 02:46
5. Arid Sand Tomb 07:30
6. A Sovereign, a Monarch 07:33
******************************
Total playing time: 36:51





[more=Extended info][youtube]TGb4tFWJoZA[/youtube][/more]

[more=Technical info]
Input File: 05 Arid Sand Tomb.mp3
Channels : 2
Sample Rate : 44100
Precision : 16-bit
Duration : 00:07:29.10 = 19805090 samples = 33682.1 CDDA sectors
File Size : 18.1M
Bit Rate : 323k
Sample Encoding: MPEG audio (layer I, II or III)
Comments :
Title=Arid Sand Tomb
Artist=Cadaver Coils
Album=Offerings of Rapture and Decay
Tracknumber=5
Year=2022

[/more]

Register
(1) andreikun,
Yesterday, 20:39:20 The Chasm - The Scars Of A Lost Reflective Shadow (2022)
FLAC (Tracks) 547 mb
Register
(2) CTPEMLEHIE, suseka,
Yesterday, 20:37:02 Nimea - Etiam Peccata (2022)


*Artist: Nimea
*Album: Etiam Peccata
*Year: 2022
*Genre: Folk/Symphonic Metal
*Country: Russian Federation
*Format: mp3@CBR320kbps
*Size: 91MB

Tracklist:
1. Ветер 05:12
2. Летучий Голландец 04:30
3. Ненаглядный мой 04:55
4. Менестрель 04:05
5. Дай мне крылья 04:29
6. Ninna Nanna 04:42
7. Возьми меня за руку 05:07
8. Infanta 04:14
******************************
Total playing time: 37:14




[more=Extended info][youtube]gsAx8WVdduY[/youtube][/more]

[more=Technical info]
Input File: 07 Возьми Меня За Руку.mp3
Channels : 2
Sample Rate : 44100
Precision : 16-bit
Duration : 00:05:07.79 = 13573583 samples = 23084.3 CDDA sectors
File Size : 13.1M
Bit Rate : 340k
Sample Encoding: MPEG audio (layer I, II or III)
Comments :
Title=Возьми Меня За Руку
Artist=Nimea
Album=Etiam Peccata
Tracknumber=7
Year=2022
Genre=Symphonic / Folk Metal

[/more]

Register
(1) GorAtheist,
Yesterday, 18:51:47 The Chasm - The Scars Of A Lost Reflective Shadow (2022)


*Artist: The Chasm
*Album: The Scars Of A Lost Reflective Shadow
*Year: 2022
*Genre: Death/Thrash Metal
*Country: United States
*Format: mp3@CBR320kbps
*Size: 96MB

Tracklist:
1. Return of the End (The Ancient Spirit that Makes me Aware) 02:18 instrumental
2. A Keen but Empty Sight 05:03
3. Spectre of the Arcane Cognition 04:20
4. An Occult Gift Responds 05:41
5. The Constellations Stagger 05:16 instrumental
6. A Chronicle from the Parallel World 05:01
7. The Paths that Led to the Abysm 03:35 instrumental
8. The Nightfall Ills with Deathly Symbols 03:43
9. The Funeral Cortege:Sepulchre:/Final Flight of the Hateful Raven/Portal to the Isolated Domain 07:35
******************************
Total playing time: 42:32




[more=Extended info]Daniel Corchado Bass, Guitars, Vocals (1992-present)
See also: Acerus, Magnum Itiner Interius, ex-Damned Cross, ex-Cenotaph, ex-Incantation, ex-Obeisance, ex-Metalucifer (live), ex-Nuclear Death
Antonio León Drums (1992-present)
See also: Ancient Gods, Heavens Decay, ex-Thy Only Forgotten, ex-Hellnomorf, ex-Obeisance, ex-The Suffering, ex-Question of Madness (live)[/more]

[more=Technical info]
Input File: 05. The Constellations Stagger.mp3
Channels : 2
Sample Rate : 44100
Precision : 16-bit
Duration : 00:05:16.00 = 13935600 samples = 23700 CDDA sectors
File Size : 12.6M
Bit Rate : 320k
Sample Encoding: MPEG audio (layer I, II or III)
Comments :
Title=The Constellations Stagger
Artist=The Chasm
Album=The Scars of a Lost Reflective Shadow
Tracknumber=5
Year=2022
Genre=Metal

[/more]

Register
(26) Altkiller, andreikun, autumnwood, Balusina, boby9052, Bzth, cesar, chipsgott, CTPEMLEHIE, dermarsoran, Emm Human, ForzaMinardi1977, kauyumari, madera, Marek, metala, milosdjor, raattent, rebornflms95, scorpionmk, suseka, TheVoidReturned, troll_swamp, valgalder, varlam4, yinchanghanhuang,
Yesterday, 16:32:03 Cult Of The Night - Dance Of The Witches [ep] (2022)


*Artist: Cult Of The Night
*Album: Dance Of The Witches [ep]
*Year: 2022
*Genre: Blackened Speed/Thrash Metal
*Country: Australia
*Format: mp3@CBR320kbps
*Size: 45MB

Tracklist:
1. No Stranger to Evil 03:12
2. Metal Strike 03:12
3. Lusting to Burn 04:10
4. Maniac Killer 03:20
5. Dance of the Witches 05:36
******************************
Total playing time: 19:30




[more=Technical info]
Input File: 05 - Dance of the Witches.mp3
Channels : 2
Sample Rate : 44100
Precision : 16-bit
Duration : 00:05:36.00 = 14817600 samples = 25200 CDDA sectors
File Size : 13.5M
Bit Rate : 322k
Sample Encoding: MPEG audio (layer I, II or III)
Comments :
Title=Dance of the Witches
Artist=Cult of the Night
Album=Dance of the Witches
Tracknumber=5
Year=2022-04-11
Genre=Metal
Discnumber=1

[/more]

Register
(11) artscald, BlazonStone, boby9052, Bzth, Carcharoth, chipsgott, dermarsoran, kauyumari, older68, Qliphoth, wgs73,
Yesterday, 15:22:27 Sisyphean - Colours Of Faith (2022)
ЦИТАТА(Dmitry1977 @ May 23 2022, 05:47:17) *
Лососось?

FLAC (Tracks) 261 mb
Register


ЦИТАТА(Krosis @ May 27 2022, 13:43:28) *
А дайте зеркала плес? медиафаер не дружный какой-то.

320 94 mb
Register
(3) acerbus, Forest Silence, Krosis,
Yesterday, 15:11:51 Church Of Disgust - Weakest Is The Flesh (2022)


*Artist: Church Of Disgust
*Album: Weakest Is The Flesh
*Year: 2022
*Genre: Old School Death Metal
*Country: United States
*Format: mp3@CBR320kbps
*Size: 84MB

Tracklist:
1. Arrogant Death
2. Horrific Anathema
3. That Which Dwells in the Gloom
4. Seemingly Unnatural Infestations
5. That Great Tomb That Holds No Sound (Interlude)
6. At the Pillar of Souls
7. Humiliated Remains
8. Boiling Seas of Yuggoth
9. Weakest Is the Flesh
10. Throne Bearer's Dirge (Outro)
******************************
Total playing time: 40:44




[more=Extended info]Dustin James Guitars (rhythm), Vocals (2010-present)
See also: ex-Imprecation
Joshua Bokemeyer Guitars (lead) (2012-present)
See also: Malignant Altar, Necrofier, ex-Lamentation, Mangled State, ex-Common Ignorance, ex-Decayed Race, ex-Flick Knife, ex-Hot Cakes, ex-Leather Daddie
Travis Andrews Bass (2013-present)
Dwane Allen Drums (2013-present)
See also: Disevered
[youtube]J2iKLAS9SKM[/youtube]
[youtube]z0Lm8xqeNsc[/youtube][/more]

[more=Technical info]
Input File: CHURCH OF DISGUST - Weakest Is The Flesh - 07 Humiliated Remains.mp3
Channels : 2
Sample Rate : 44100
Precision : 16-bit
Duration : 00:04:23.12 = 11603548 samples = 19733.9 CDDA sectors
File Size : 10.7M
Bit Rate : 324k
Sample Encoding: MPEG audio (layer I, II or III)
Comments :
Title=Humiliated Remains
Artist=CHURCH OF DISGUST
Album=Weakest Is The Flesh
Tracknumber=7
Year=2022

[/more]

Register
(26) alikkon, andreikun, artscald, BlackMirror, Bolitho, cesar, chipsgott, Demon_Heart, infozahist, jollo, judaz, kauyumari, madera, Mist13Signifier, older68, raattent, scorpionmk, smes, suseka, tim47, troll_swamp, VALERY, varg23, vitosdemon, yinchanghanhuang, zhol,
Yesterday, 12:51:16 Remains Of Destruction - New Dawn (2022)


*Artist: Remains Of Destruction
*Album: New Dawn
*Year: 2022
*Genre: Symphonic Heavy/Power Metal
*Country: Finland
*Format: mp3@CBR320kbps
*Size: 89MB

Tracklist:
01. Blood Moon 03:33
02. Final Light 03:23
03. New Dawn 05:30
04. Mastermind 04:04
05. Mankind's Bequest 03:49
06. Gaze Upon the Stars 03:42
07. Northern Stars 05:11
08. Silvery Fields 04:31
09. From Shadows We Rise 03:58
******************************
Total playing time: 37:41




[more=Extended info]Jesse Yrjola - Vocals, Bass, Orchestration
Timo Pelkonen - Guitars, Backing Vocals
Saalas Ruokangas - Guitars, Orchestration, Backing Vocals
Osmo Lassila - Orchestration, Keyboards
Jaakko Saloranta - Bass, Backing Vocals
Janne Ollikainen - Drums
[youtube]pkqR0tkFt94[/youtube][/more]

[more=Technical info]
Input File: 07 - Northern Stars.mp3
Channels : 2
Sample Rate : 44100
Precision : 16-bit
Duration : 00:05:11.00 = 13715100 samples = 23325 CDDA sectors
File Size : 12.7M
Bit Rate : 326k
Sample Encoding: MPEG audio (layer I, II or III)
Comments :
Title=Northern Stars
Artist=Remains Of Destruction
Album=New Dawn
Tracknumber=7
Year=2022-05-28
Discnumber=1

[/more]

Register
(12) after21allD, artscald, Demon_Heart, Herrant, metala, metalwoman, MеtalHead, Rover, sadmannn, smes, varlam4, Сварог Барг,
Yesterday, 12:19:56 Desacato - Trascendencia [ep] (2022)


*Artist: Desacato
*Album: Trascendencia [ep]
*Year: 2022
*Genre: Thrash Metal
*Country: Chile
*Format: mp3@CBR320kbps
*Size: 34MB

Tracklist:
1. Trascendencia 01:41
2. Sugestión del Miedo 04:29
3. Odio 04:08
4. Sicario 04:09
******************************
Total playing time: 14:27



[more=Extended info]Jose Perez – Vocal
Alexis Flores – Lead guitar
Guillermo Castro – Lead guitar
Andres Tapia – Bass guitar
Lucho "Revolucho" Castro – Drums
[youtube]Ef7j6IYtXkI[/youtube][/more]

[more=Technical info]
Input File: 02 - Sugestión del Miedo.mp3
Channels : 2
Sample Rate : 44100
Precision : 16-bit
Duration : 00:04:29.00 = 11862900 samples = 20175 CDDA sectors
File Size : 10.9M
Bit Rate : 325k
Sample Encoding: MPEG audio (layer I, II or III)
Comments :
Title=Sugestión del Miedo
Artist=desacato
Album=Trascendencia
Tracknumber=2
Year=2022-05-16
Discnumber=1

[/more]

Register
(6) after21allD, artscald, boby9052, chipsgott, metaljosue, wgs73,
Yesterday, 11:48:00 Dewok - Armonía Gris (2022)


*Artist: Dewok
*Album: Armonía Gris
*Year: 2022
*Genre: Heavy/Power Metal
*Country: Chile
*Format: mp3@CBR320kbps
*Size: 114MB

Tracklist:
1. Armonía Gris
2. No Esperes Más
3. La Llegada
4. Por Perderme
5. Temblor
6. Lazos Efímeros
7. La Piedra
8. El Futuro
9. Destinos
10. Un Paso de las Sombras
11. Vanesa Lais
******************************
Total playing time: 49:36



[more=Extended info]Rodrigo Piñones Keyboards
Rubén Vega Drums (2000-present)
Tomás Gatica Guitars (2000-present)
Omar Ojeda Guitars (2002-present)
Marcelo Gonzalez Bass (2005-present)
Patricio Carriel Vocals (2017-present)
[youtube]TltgpmPjcBY[/youtube]
[youtube]gfmLrTSWRTg[/youtube][/more]

[more=Technical info]
Input File: 09 - Destinos.mp3
Channels : 2
Sample Rate : 44100
Precision : 16-bit
Duration : 00:06:37.00 = 17507700 samples = 29775 CDDA sectors
File Size : 16.0M
Bit Rate : 322k
Sample Encoding: MPEG audio (layer I, II or III)
Comments :
Title=Destinos
Artist=Dewok
Album=Armonía Gris
Tracknumber=9
Year=2022-05-27
Genre=Rock
Discnumber=1

[/more]

Register
(7) after21allD, artscald, Herrant, metalwoman, Rover, varg23, Сварог Барг,
Yesterday, 11:33:56 Ophidian Memory - The Stag (2022)


*Artist: Ophidian Memory
*Album: The Stag
*Year: 2022
*Genre: Melodic Death Metal
*Country: United States
*Format: mp3@CBR320kbps
*Size: 127MB

Tracklist:
1. Covenant 04:06
2. Spectral Liturgy 05:33
3. Memoirs of the Lost 04:31
4. Fateful Attrition 05:03
5. Exodus and Exile 09:20
6. Those Who Bear Witness 04:51
7. When All Is Desolate 05:35
8. This Is Not Your Grave 04:44
9. Purge 03:28
10. The Stag 08:04
******************************
Total playing time: 55:15



[more=Extended info]Blake Lamoureux Everything
See also: Kobra[/more]

[more=Technical info]
Input File: 07 - When All Is Desolate.mp3
Channels : 2
Sample Rate : 44100
Precision : 16-bit
Duration : 00:05:35.00 = 14773500 samples = 25125 CDDA sectors
File Size : 13.5M
Bit Rate : 323k
Sample Encoding: MPEG audio (layer I, II or III)
Comments :
Title=When All Is Desolate
Artist=Ophidian Memory
Album=The Stag
Tracknumber=7
Year=2022-05-27
Genre=Metal
Discnumber=1

[/more]

Register
(7) artscald, chipsgott, infozahist, Marek, VALERY, varg23, zhol,
Yesterday, 11:05:28 Abythic - Eden Of The Doomed [ep] (2022)
FLAC (Tracks) 213 mb
Register
(3) AndreFrancis, Marek, Mencae77,
Yesterday, 11:04:06 Heaving Earth - Darkness Of God (2022)
FLAC (Tracks) 334 mb
Register
(4) AndreFrancis, Marek, Masteruk, Mencae77,
Yesterday, 04:11:12 Obscene - .​.​.​From Dead Horizon To Dead Horizon (2022)
FLAC (Tracks) 247 mb
Register
(1) AndreFrancis,
Yesterday, 02:50:06 Pomerium - Through The Styx (2022)


*Artist: Pomerium
*Album: Through The Styx
*Year: 2022
*Genre: Thrash Metal
*Country: Italy
*Format: mp3@CBR320kbps
*Size: 81MB

Tracklist:
01. Through the Styx 07:06
02. Herald 05:28
03. Babel Tower 04:58
04. Knight of the Flood 05:05
05. The Fates 02:28
06. Nights of Madness 01:49
07. Demons for Choice 04:21
08. Twisted Smile 03:55
******************************
Total playing time: 35:10




[more=Technical info]
Input File: 07 - Demons for Choice.mp3
Channels : 2
Sample Rate : 44100
Precision : 16-bit
Duration : 00:04:21.00 = 11510100 samples = 19575 CDDA sectors
File Size : 10.5M
Bit Rate : 323k
Sample Encoding: MPEG audio (layer I, II or III)
Comments :
Title=Demons for Choice
Artist=Pomerium
Album=Through the Styx
Tracknumber=7
Year=2022-05-27
Genre=Metal
Discnumber=1

[/more]

Register
(11) after21allD, artscald, boby9052, cesar, gwar, metala, metaljosue, older68, sergsazan, varg23, wgs73,
Yesterday, 02:15:33 Darkened - The Black Winter (2022)
FLAC (Tracks) 280 mb
Register
(1) vyacheslav,
Yesterday, 01:56:29 Abythic - Eden Of The Doomed [ep] (2022)


*Artist: Abythic
*Album: Eden Of The Doomed [ep]
*Year: 2022
*Genre: Old School Death Metal
*Country: Germany
*Format: mp3@CBR320kbps
*Size: 44MB

Tracklist:
1. Revelation from the Great Vastness Thereafter 06:28
2. Conquest of the One True Creed 06:10
3. Victory in Your Eden of the Doomed 05:18
******************************
Total playing time: 17:56




[more=Extended info]MDB Drums (2015-2018), Guitars (2018-present), Bass, Vocals (2020-present)
See also: Abschwörung, Bleeding Ash Knife, Haimad, Lunar Chalice, Mysteria Mystica Aeterna, Omninegation, Ornament of Thorns, Rex Verminorum, ex-Adversum, ex-Soulside, ex-Adversvm, ex-Pestnebel, ex-Erazor, ex-Fiend, ex-Impure, ex-Sacrilegious Rite, ex-Tairach
Thym Drums (2018-present)
See also: Abschwörung, Omninegation, Ornament of Thorns, Suffocate Bastard, ex-Agamendon, ex-Breed of Bacchus, ex-Dead Members, ex-Geräuschkulisse
Killrich Vocals (2020-present)
See also: ex-Amok, ex-Ingurgitating Oblivion, ex-Slaughterday (live)
[youtube]kGm-xFH4WQ4[/youtube][/more]

[more=Technical info]
Input File: 03. Victory in your Eden of the Doomed.mp3
Channels : 2
Sample Rate : 44100
Precision : 16-bit
Duration : 00:05:17.77 = 14013833 samples = 23833 CDDA sectors
File Size : 13.3M
Bit Rate : 334k
Sample Encoding: MPEG audio (layer I, II or III)
Comments :
Title=Victory in your Eden of the Doomed
Artist=Abythic
Album=Eden of the Doomed
Tracknumber=03
Year=2022
Genre=Metal

[/more]

Register
(12) andreikun, artscald, cesar, chipsgott, desekrator, infozahist, Occultas, sergsazan, VALERY, vitosdemon, vyacheslav, zhol,
Yesterday, 01:47:12 Morhana - Eternal War (2022)


*Artist: Morhana
*Album: Eternal War
*Year: 2022
*Genre: Folk Metal
*Country: Poland
*Format: mp3@CBR320kbps
*Size: 101MB

Tracklist:
1. Intro 01:46
2. Eternal War 03:48
3. Legions of Triumph 05:21
4. High Noon 04:17
5. Thundercry 03:46
6. Queen of Torment 04:16
7. Fafnir's Insanity 04:00
8. Horned God 03:14
9. Moonshine 03:09
10. Vampyr 04:32
11. Valhalla 05:29
******************************
Total playing time: 43:38




[more=Extended info]Grzegorz "Zombeck" Lewandowski Bass (2006-present)
Karina "Kari" Duczyńska Flute, Vocals (2006-present)
Maciej "Dzidek" Dzido Guitars, Vocals (2006-present)
See also: ex-Lux Perpetua
Igor Pisarek Drums (2013-2015, 2017-present)
See also: Neshorn, Helroth (live), Padlina, ex-Sacrimonia (live), ex-Invicto
Mariusz "Tarzan" Pisarski Violin (2016-present)[/more]

[more=Technical info]
Input File: 11 - Valhalla.mp3
Channels : 2
Sample Rate : 44100
Precision : 16-bit
Duration : 00:05:29.00 = 14508900 samples = 24675 CDDA sectors
File Size : 13.3M
Bit Rate : 323k
Sample Encoding: MPEG audio (layer I, II or III)
Comments :
Title=Valhalla
Artist=Morhana
Album=Eternal War
Tracknumber=11
Year=2022-05-27
Genre=Metal
Discnumber=1

[/more]

Register
(9) Altkiller, artscald, chipsgott, GorAtheist, gwar, infozahist, VALERY, zhol, Сварог Барг,
May 26 2022, 23:49:51 The Cross - Act II: Walls Of The Forgotten (2022)
FLAC (Tracks) 419 mb
Register
(2) AndreFrancis, Lux,
May 26 2022, 23:36:30 Burning Alien - Crop Field Death Squad (2020)
ЦИТАТА(metaljosue @ May 26 2022, 22:32:01) *
Dead Links

Register
(1) scorpionmk,
May 26 2022, 23:26:23 Heaving Earth - Darkness Of God (2022)


*Artist: Heaving Earth
*Album: Darkness Of God
*Year: 2022
*Genre: Progressive Death Metal
*Country: Czech Republic
*Format: mp3@CBR320kbps
*Size: 116MB

Tracklist:
1. Violent Gospels (Ordination of the Holy Trinity) 04:22
2. Crossing the Great Divide (Prayer to a Crumbling Shrine) 06:48
3. Apologetics (Of Failure and Fall) 06:04
4. Forever Deceiving Dismal Gods 03:17
5. Cardinal Sin 06:13
6. The Lord’s Lamentations 07:21
7. Earthly Kingdom of God in Ruins 03:56
8. Flesh-Ridden Providence 05:25
9. Woeful Redemption 05:54
******************************
Total playing time: 49:20




[more=Extended info]Tomáš Halama Guitars (2008-present)
See also: ex-Brutally Deceased, ex-Feeble Minded
Marty Meyer Guitars (2015-present)
See also: Supreme Conception
Marek Štembera Vocals (2017-present)
See also: Brutally Deceased, Somniate, ex-Octagone, ex-Feeble Minded, ex-Neurotic Machinery, ex-Oblomov
Tomáš Ledvina Bass (2021-present)
See also: Sacrosanctum, ex-Lilith
[youtube]oJrGlwpyET0[/youtube][/more]

[more=Technical info]
Input File: 08. Flesh-Ridden Providence.mp3
Channels : 2
Sample Rate : 44100
Precision : 16-bit
Duration : 00:05:25.85 = 14369809 samples = 24438.5 CDDA sectors
File Size : 13.4M
Bit Rate : 330k
Sample Encoding: MPEG audio (layer I, II or III)
Comments :
Title=Flesh-Ridden Providence
Artist=Heaving Earth
Album=Darkness of God
Tracknumber=08
Year=2022
Genre=Metal

[/more]

Register
(16) andreikun, Balusina, cesar, chipsgott, hate_eternal, infozahist, kimkayoung, madera, metala, Militia, TheVoidReturned, VALERY, vitosdemon, vyacheslav, yinchanghanhuang, yuratroll,
May 26 2022, 23:10:33 Bloodhunter - Knowledge Was The Price (2022)


*Artist: Bloodhunter
*Album: Knowledge Was The Price
*Year: 2022
*Genre: Melodic Death Metal
*Country: Spain
*Format: mp3@CBR320kbps
*Size: 128MB

Tracklist:
1. Sharpened Tongues Spitting Venom Inside 03:34
2. Knowledge Was the Price 03:45
3. A Twist of Fate to Come 02:49
4. Medea’s Guidance 05:23
5. Never Let It Rest 04:39
6. Find Your Inner Fire 03:40
7. The Eye of the Serpent 05:05
8. Spreading Your Disease 05:16
9. Nothing Beyond the Realms of Death 04:47
10. A Relentless Force 04:05
11. The Forsaken Idol 04:03
12. The Hunters 04:30
13. Bodom After Midnight 03:38
******************************
Total playing time: 55:14




[more=Extended info]Dani Arcos Guitars
Diva Satanica Vocals
Daniel Luces Bass
Guillermo Starless Guitars
Adrián Perales Drums
[youtube]UZKQtMeucBc[/youtube]
[youtube]9aEMP9LJYwY[/youtube][/more]

[more=Technical info]
Input File: 07 - The Eye of the Serpent.mp3
Channels : 2
Sample Rate : 44100
Precision : 16-bit
Duration : 00:05:05.00 = 13450500 samples = 22875 CDDA sectors
File Size : 12.3M
Bit Rate : 324k
Sample Encoding: MPEG audio (layer I, II or III)
Comments :
Title=The Eye of the Serpent
Artist=Bloodhunter
Album=Knowledge Was The Price
Tracknumber=7
Year=2022-05-27
Genre=Rock
Discnumber=1

[/more]

Register
(7) cesar, postal67, sergsazan, VALERY, Woosad, zhol, Сварог Барг,
May 26 2022, 22:44:31 Evil - Book Of Evil (2022)


*Artist: Evil
*Album: Book Of Evil
*Year: 2022
*Genre: Heavy Metal
*Country: Denmark
*Format: mp3@CBR320kbps
*Size: 110MB

Tracklist:
1. Intro (A Terrible Thing) 00:50
2. Divine Conspiracy 03:29
3. Evil Never Dies 04:03
4. Future Denied 03:42
5. The Raven Throne 03:47
6. King of the Undead 04:07
7. Beyond Mind Control 03:59
8. Sanctuary 04:21
9. Storm Warning 03:28
10. Evils Message 07:27
11. Book of Evil 07:26
******************************
Total playing time: 46:39



[more=Extended info]Henrik Molin Drums
See also: ex-GSA, ex-Shadowspawn, ex-What Worms Inherit
Martin Steene Vocals
See also: Iron Fire, ex-Force of Evil, ex-Nightlight, Martin Steene Project, ex-Saturnus, ex-Magic, ex-Switchblade
Freddie Wolf Drums (1983-1985, 2007-2015), Bass (2015), Guitars (2015, 2017-present)
See also: ex-Palladion, ex-Hotel Hunger, ex-Winds of War
Nikolaj Ihlemann Guitars (2018-present)
See also: ex-Nightlight
Jakob Haugaard Bass (2019-present)
See also: Iron Fire
[youtube]VHLxa3Q5QeM[/youtube][/more]

[more=Technical info]
Input File: 10 - Evils Message.mp3
Channels : 2
Sample Rate : 44100
Precision : 16-bit
Duration : 00:07:27.00 = 19712700 samples = 33525 CDDA sectors
File Size : 18.1M
Bit Rate : 325k
Sample Encoding: MPEG audio (layer I, II or III)
Comments :
Title=Evils Message
Artist=Evil
Album=Book Of Evil
Tracknumber=10
Year=2022-05-27
Genre=Rock
Discnumber=1

[/more]

Register
(12) after21allD, andreikun, cesar, GorAtheist, gwar, Marek, metala, older68, sadmannn, sergsazan, smes, wgs73,

1062 Pages V   1 2 3 > » 
- Lo-Fi Version Support form
Copyrights and abuse reports form
Time is now: 28th May 2022 - 08:44:44