Welcome Guest ( Log In | Register )

История благодарностей участнику Samaritianin ::: Спасибо сказали: 369489 раз(а)
Дата поста: В теме: За сообщение: Спасибо сказали:
May 7 2021, 23:53:47 Empty Throne - Glossolalia [ep] (2021)


*Artist: Empty Throne
*Album: Glossolalia [ep]
*Year: 2021
*Genre: Melodic/Blackened Death Metal
*Country: United States
*Format: mp3@CBR320kbps
*Size: 54MB

Tracklist:
1. And All Shall Know His Name 07:49
2. That Day Has Come 06:49
3. My Flesh the Temptation 08:14
******************************
Total playing time: 22:52




[more=Extended info]Jason Ellsworth Bass
See also: Angerot, Suffer, ex-Fall, ex-Tennessee Murder Club
Gabe Seeber Drums
See also: The Kennedy Veil, Beneath (live), Decrepit Birth (live), ex-Wretched Dawn, ex-Gary Busey Amber Alert (live), Powerglove (live), ex-Alterbeast, ex-Abbath (live), ex-Abysmal Dawn (live), ex-Continuum (live), ex-The Faceless (live), ex-Vale of Pnath (live)
Mike Pardi Guitars
See also: Innerfury, ex-Draconis, ex-Psionic, Empty Throne, ex-Possessed, ex-Ritual, ex-Xasthur, ex-Casket of Dreams
Chad Petit Vocals
See also: Angerot, Suffer, ex-Fantōme, ex-Tennessee Murder Club, ex-The Blinding Light
[youtube]DBTFmsQV5xY[/youtube][/more]

[more=Technical info]
Input File: 03. My Flesh The Temptation.mp3
Channels : 2
Sample Rate : 44100
Precision : 16-bit
Duration : 00:08:14.74 = 21817902 samples = 37105.3 CDDA sectors
File Size : 20.3M
Bit Rate : 329k
Sample Encoding: MPEG audio (layer I, II or III)
Comments :
Title=My Flesh The Temptation
Artist=Empty Throne
Album=Glossolalia (320)
Tracknumber=03
Year=2021
Genre=Metal

[/more]

Register
(8) AHBAnep, infiltrator, kimkayoung, Marek, Sanctus, satanist666, sergsazan, VALERY,
May 7 2021, 21:40:04 Sodomized Assault - Perpetual Carnage (2020)


*Artist: Sodomized Assault
*Album: Perpetual Carnage
*Year: 2020
*Genre: Death Metal
*Country: Philippines
*Format: mp3@CBR320kbps
*Size: 56MB

Tracklist:
01. Genocidal Vigilance
02. Psychotic Carnivores
03. Barbaric Demise
04. Concealed Chambers Of Death
05. Perished Innocence
06. Vile Wrenching Massacre
07. Perpetual Carnage
08. Grinded
09. Psychotic Carnivores (Demo 2017)
******************************
Total playing time: 25:51




[more=Extended info]FLAC-Rip
Crisandrew Estipona Bass (2017-present)
See also: ex-Vasodilator
Nico Miguel Drums (2017-present)
See also: Vasodilator
Jim San Juan Guitars (2017-present)
See also: Mortalchrist
Marvin Rondilla[/more]

[more=Technical info]
Input File: 07. Perpetual carnage.mp3
Channels : 2
Sample Rate : 44100
Precision : 16-bit
Duration : 00:03:37.08 = 9573096 samples = 16280.8 CDDA sectors
File Size : 8.69M
Bit Rate : 320k
Sample Encoding: MPEG audio (layer I, II or III)
Comments :
Title=Perpetual carnage
Artist=Sodomized Assault
Album=Perpetual Carnage
Tracknumber=7
Year=2020
Genre=22

[/more]

Register
(7) andreikun, atavist, infiltrator, jollo, noel666, suseka, VALERY,
May 7 2021, 08:08:40 Omago - Human Targets [ep] (2020)


*Artist: Omago
*Album: Human Targets [ep]
*Year: 2020
*Genre: Death/Thrash Metal
*Country: International
*Format: mp3@CBR320kbps
*Size: 25MB

Tracklist:
1. Human Targets 03:48
2. Black the Day 03:07
3. Among Thieves 03:31
******************************
Total playing time: 10:26




[more=Extended info]Chile / Brazil
Demetrius Pedrosa Drums (2020-present)
See also: Metacrose, Thyresis, ex-Dissidium, ex-Egregora, ex-Roadies
Victor Hugo Targino Guitars (2020-present)
See also: Thyresis, Wooden Bridge, ex-Forahneo, ex-Dissidium, ex-Metacrose (live), ex-Soturnus (live)
Eduardo Jarry Vocals (2020-present)
See also: ex-Behavior, ex-Carcinoma, ex-Forahneo, ex-Stomachal Corrosion[/more]

[more=Technical info]
Input File: Omago - Human Targets - 03 Among Thieves.mp3
Channels : 2
Sample Rate : 44100
Precision : 16-bit
Duration : 00:03:30.77 = 9294825 samples = 15807.5 CDDA sectors
File Size : 8.61M
Bit Rate : 327k
Sample Encoding: MPEG audio (layer I, II or III)
Comments :
Title=Among Thieves
Artist=Omago
Album=Human Targets
Tracknumber=3
Year=2020

[/more]

Register
(7) after21allD, amiroo, caro, infiltrator, Marek, sergsazan, stumpheavyrock,
May 7 2021, 07:16:53 Åskog - Varþnaþer (2021)


*Artist: Åskog
*Album: Varþnaþer
*Year: 2021
*Genre: Black Metal
*Country: Sweden
*Format: mp3@CBR320kbps
*Size: 99MB

Tracklist:
1. Svält 04:20
2. Vinter 05:39
3. Tid 05:06
4. Måne 07:22
5. Varg 05:43
6. Korp 04:19
7. Eld 04:49
8. Aska 06:07
******************************
Total playing time: 43:25




[more=Extended info]Adam Chapman Guitars (2020-present)
See also: ex-Murdryck, ex-Serenade, ex-Extirpated (live), Hex, ex-Lord Belial (live), ex-Vaginal Stabwound
Lars Hansson Vocals, Bass (2020-present)
See also: ex-Extirpated, ex-Malsum, ex-Murdryck
[youtube]TMoWwpCyE3I[/youtube]
[youtube]8jne0jHR49k[/youtube][/more]

[more=Technical info]
Input File: 05 - Varg.mp3
Channels : 2
Sample Rate : 44100
Precision : 16-bit
Duration : 00:05:43.25 = 15137413 samples = 25743.9 CDDA sectors
File Size : 13.7M
Bit Rate : 320k
Sample Encoding: MPEG audio (layer I, II or III)
Comments :
Title=Varg
Artist=Åskog
Album=Varþnaþer
Tracknumber=5
Year=2021
Genre=Black Metal

[/more]

Register

Register
(11) atavist, Fater_Hu, infiltrator, kim666, older68, Ostinato, robertho777, Rover, satanist666, SilentNidhogg, VALERY,
May 7 2021, 05:37:29 Sindrome K - Aqui Se Paga (2021)


*Artist: Sindrome K
*Album: Aqui Se Paga
*Year: 2021
*Genre: Thrash Metal
*Country: Brazil
*Format: mp3@CBR320kbps
*Size: 114MB

Tracklist:
1. Sulla Strada Per Fatebenefratelli
2. Sindrome K
3. Prataria Sacra
4. So Mais uma Vez
5. Aqui Se Paga
6. Amnesia Assassina
7. Imersao
8. Voce Precisa Morrer
9. Granada
10. For Eternity
11. Sua Bandeira
12. Coragem
******************************
Total playing time: 49:49




[more=Technical info]
Input File: 07 - Imersão.mp3
Channels : 2
Sample Rate : 44100
Precision : 16-bit
Duration : 00:05:02.10 = 13322566 samples = 22657.4 CDDA sectors
File Size : 12.1M
Bit Rate : 320k
Sample Encoding: MPEG audio (layer I, II or III)
Comments :
Title=Imersão
Artist=Síndrome K
Album=Aqui Se Paga
Tracknumber=7
Year=2021

[/more]

Register
(8) after21allD, caro, HMHamster, infiltrator, Rover, sergsazan, stumpheavyrock, thrashiac55,
May 7 2021, 05:21:12 Wretched Incarnate - Wretched Incarnate (2021)
FLAC (Tracks) 189 mb
Register
(7) AHBAnep, infiltrator, Marek, NordlandII, Olethros, ripper33, suseka,
May 7 2021, 05:15:44 Kryptik Mutation - Pulled From The Pit (2021)
FLAC (Tracks) 182 mb
Register
(3) Marek, Olethros, suseka,
May 7 2021, 05:09:16 Necrobastard - Deadly Resurrection [compilation] (2021)


*Artist: Necrobastard
*Album: Deadly Resurrection [compilation]
*Year: 2021
*Genre: Death/Thrash Metal
*Country: Chile
*Format: mp3@CBR320kbps
*Size: 181MB

Tracklist:
1. The Summoning Battle (Intro) / Charge in Paradise 07:27
2. Sacrifice Purification 04:00
3. Madness Ritual 05:07
4. Deadly Mass 07:18
5. The Arrival... The End (Outro) 01:45
6. Baphomet (Intro) / Crushing Christianity 07:19
7. Fornicating in the Temple 05:37
8. Oscuro Final 04:41
9. Suicide Resurrection 05:51
10. Inverting Thy Cross 07:14
11. Ancient Disaster 05:59
12. The Grotesque Roots of Civilization 06:13
13. Crushing Christianity (Rehearsal) 06:02
14. Fornicating in the Temple (Rehearsal) 04:51
******************************
Total playing time: 1:19:24



[more=Extended info]Alexis "Lalo" Jara Bass
See also: Feretro, Temmor
Andrés Vera Drums
See also: Ngen
Rodrigo "Rumba" Salazar Guitars
Orlando "Sulfy" Arévalo Vocals, Guitars
See also: Afasia, Agonizer, Temmor, ex-Soulburner, ex-Fierrazo[/more]

[more=Technical info]
Input File: 09. Suicide Resurrection.mp3
Channels : 2
Sample Rate : 44100
Precision : 16-bit
Duration : 00:05:51.25 = 15490169 samples = 26343.8 CDDA sectors
File Size : 14.1M
Bit Rate : 320k
Sample Encoding: MPEG audio (layer I, II or III)
Comments :
Title=Suicide Resurrection
Artist=Necrobastard
Album=Deadly Resurrection
Tracknumber=09
Year=2021

[/more]

Register
(2) AHBAnep, stumpheavyrock,
May 7 2021, 02:17:41 Wretched Incarnate - Wretched Incarnate (2021)


*Artist: Wretched Incarnate
*Album: Wretched Incarnate
*Year: 2021
*Genre: Old School Death Metal
*Country: United Kingdom
*Format: mp3@CBR320kbps
*Size: 58MB

Tracklist:
01. Silenced
02. Mask of Lies
03. Narcissistic Siren
04. Hypodermic Syringe Theory
05. Psycho Sanity
06. Ravenous
07. Creatures of the Underworld
08. Purgatory
09. Undeathly Conception
10. Treachery
******************************
Total playing time: 24:55




[more=Technical info]
Input File: 08 - Purgatory.mp3
Channels : 2
Sample Rate : 44100
Precision : 16-bit
Duration : 00:03:15.00 = 8599500 samples = 14625 CDDA sectors
File Size : 7.90M
Bit Rate : 324k
Sample Encoding: MPEG audio (layer I, II or III)
Comments :
Title=Purgatory
Artist=Wretched Incarnate
Album=Wretched Incarnate
Tracknumber=8
Year=2021-05-07
Genre=Metal
Discnumber=1

[/more]

Register
(21) andreikun, caro, chipsgott, dcatagua, infiltrator, jollo, judaz, older68, Olethros, Ostinato, pabedit, ripper33, sagratan, SaintVitus, sergsazan, stumpheavyrock, suseka, THROWER666, VALERY, vyacheslav, zhol,
May 7 2021, 01:59:00 Darkfall & Mortal Strike - Thrashing Death Squad [split] (2021)


*Artist: Darkfall & Mortal Strike
*Album: Thrashing Death Squad [split]
*Year: 2021
*Genre: Melodic Death/Thrash Metal | Thrash Metal
*Country: Austria | Austria
*Format: mp3@CBR320kbps
*Size: 90MB

Tracklist:
Darkfall:
1. Tides of War 05:06
2. The Gates Are Open 04:54
3. Here Comes the Tank (Mortal Strike cover) 03:39
4. Hail to the Warriors (Manowar tribute cover) 07:40
Mortal Strike:
5. A Storm Will Overcome 04:55
6. P.T.S.D. 05:29
7. Rise to Dominate (Darkfall cover) 04:01
8. Freibier (Tankard cover) 03:22
******************************
Total playing time: 39:06




[more=Technical info]
Input File: 04 - Hail to the Warriors.mp3
Channels : 2
Sample Rate : 44100
Precision : 16-bit
Duration : 00:07:40.00 = 20286000 samples = 34500 CDDA sectors
File Size : 18.5M
Bit Rate : 322k
Sample Encoding: MPEG audio (layer I, II or III)
Comments :
Title=Hail to the Warriors
Artist=Darkfall/Mortal Strike
Album=Thrashing Death Squad
Tracknumber=4
Year=2021-05-07
Genre=Rock/Metal
Discnumber=1

[/more]

Register
(10) after21allD, AHBAnep, Boozer, caro, chipsgott, infiltrator, Marek, sergsazan, stumpheavyrock, zhol,
May 7 2021, 01:11:00 Kataan - Kataan [ep] (2021)


*Artist: Kataan
*Album: Kataan [ep]
*Year: 2021
*Genre: Atmospheric Black/Epic Death Metal
*Country: United States
*Format: mp3@CBR320kbps
*Size: 49MB

Tracklist:
01. Erase
02. Abyss
03. Processor
04. Vessel
******************************
Total playing time: 21:03



[more=Technical info]
Input File: 04 - Vessel.mp3
Channels : 2
Sample Rate : 44100
Precision : 16-bit
Duration : 00:07:18.00 = 19315800 samples = 32850 CDDA sectors
File Size : 17.7M
Bit Rate : 323k
Sample Encoding: MPEG audio (layer I, II or III)
Comments :
Title=Vessel
Artist=Kataan
Album=Kataan
Tracknumber=4
Year=2021-05-07
Genre=Metal
Discnumber=1

[/more]

Register
(18) aleon, Geralder, HMHamster, infiltrator, kimkayoung, Lukittaz, Marek, Olethros, Olrak, Ostinato, robertho777, Sanctus, sergsazan, Shadechaser, SilentNidhogg, VALERY, vasiljev_sergej, vdolghi,
May 6 2021, 22:12:27 Everlust - Diary Of Existence (2021)


*Artist: Everlust
*Album: Diary Of Existence
*Year: 2021
*Genre: Gothic Metal
*Country: Latvia
*Format: mp3@CBR320kbps
*Size: 109MB

Tracklist:
01. Gemini
02. Land Of Dreams
03. Running
04. Everlust
05. Writings On The Wall (Sam Smith Cover)
06. Despair
07. Alone
08. Entwined (feat. Matias Juselius)
09. I Never Was
10. Destroyer
11. 8
******************************
Total playing time: 47:11




[more=Extended info][youtube]ClLcvW_P8Nw[/youtube][/more]

[more=Technical info]
Input File: 07 - Alone.mp3
Channels : 2
Sample Rate : 44100
Precision : 16-bit
Duration : 00:05:07.00 = 13538700 samples = 23025 CDDA sectors
File Size : 12.5M
Bit Rate : 325k
Sample Encoding: MPEG audio (layer I, II or III)
Comments :
Title=Alone
Artist=Everlust
Album=Diary of Existence
Tracknumber=7
Year=2021-07-05
Genre=Gothic / Doom Metal
Discnumber=1

[/more]

Register
(17) ace73pq, aleon, Alpha_Prime, chipsgott, Darkness, Fater_Hu, gwar, HMHamster, infiltrator, kimkayoung, Olethros, Olrak, Rover, Sanctus, serjred, valera2010, VALERY,
May 6 2021, 21:54:46 Traumatomy - Extirpation Paradigms (2021)


*Artist: Traumatomy
*Album: Extirpation Paradigms
*Year: 2021
*Genre: Slamming Brutal Death Metal
*Country: International
*Format: mp3@CBR320kbps
*Size: 67MB

Tracklist:
1. Intro 01:00
2. Feeding Organism 03:25
3. Inducing Intragenic Deformity 03:41
4. Ruinous Metamorphosis 03:37
5. Extirpation Paradigms 02:57
6. Patterns of Tyranny 03:04
7. Filled with Abhorrence 03:35
8. Instinctive Defilement 03:03
9. Epitome of Depravity 03:48
******************************
Total playing time: 28:10




[more=Extended info]Russia / Japan
Constantine Chevardin Guitars
Haruka Kamiyama Vocals
Boris Kosov Bass
Alexey Belov Drums
[youtube]x4-QA2q4vgU[/youtube][/more]

[more=Technical info]
Input File: 09. Epitome of Depravity (feat. Josh Welshman).mp3
Channels : 2
Sample Rate : 44100
Precision : 16-bit
Duration : 00:03:48.17 = 10062253 samples = 17112.7 CDDA sectors
File Size : 9.96M
Bit Rate : 349k
Sample Encoding: MPEG audio (layer I, II or III)
Comments :
Title=Epitome of Depravity (feat. Josh Welshman)
Artist=Traumatomy
Album=Extirpation Paradigms
Tracknumber=9/9
Year=2021
Discnumber=1/1

[/more]

Register
(13) ALEXSATHANAS, andreikun, atavist, caro, dcatagua, infiltrator, jollo, June, noel666, Occultas, Olethros, respect, vyacheslav,
May 6 2021, 21:34:43 Thronehammer - Incantation Rites (2021)


*Artist: Thronehammer
*Album: Incantation Rites
*Year: 2021
*Genre: Doom Metal
*Country: International
*Format: mp3@CBR320kbps
*Size: 172MB

Tracklist:
1. Incantation Rites 14:09
2. Thy Blood 08:04
3. Eternal Thralldom 05:01
4. A Fading King 10:52
5. Beneath Black Cloudmasses 11:17
6. Devouring Kingdoms 09:55
7. Of Mountaintops and Glacial Tombs 15:58
******************************
Total playing time: 1:15:16




[more=Extended info]UK / Germany
Uwe Void Bass
Stuart West Guitars, Synthesizer
Tim HammerSmith Guitars
Kat Shevil Gillham Vocals
Markus Ströhlein Drums
[youtube]BjP7z4lQtBM[/youtube][/more]

[more=Technical info]
Input File: 06 - Devouring Kingdoms.mp3
Channels : 2
Sample Rate : 44100
Precision : 16-bit
Duration : 00:09:55.34 = 26254494 samples = 44650.5 CDDA sectors
File Size : 23.8M
Bit Rate : 320k
Sample Encoding: MPEG audio (layer I, II or III)
Comments :
Title=Devouring Kingdoms
Artist=Thronehammer
Album=Incantation Rites
Tracknumber=6
Year=2021

[/more]

Register
(19) Boozer, ErikGoth, HMHamster, infiltrator, Lux, Mannard, Olethros, Olrak, poeira, robertho777, russ777, s810ic1, Samogon, sergsazan, stumpheavyrock, suseka, undeadlich, VALERY, ZamanFu,
May 6 2021, 21:17:09 Beastlor - Galaxies Of Death (2021)


*Artist: Beastlor
*Album: Galaxies Of Death
*Year: 2021
*Genre: Black Metal
*Country: United States
*Format: mp3@CBR320kbps
*Size: 97MB

Tracklist:
1. Ignorant Sin 07:15
2. Light Will Disrespect 06:11
3. Canaan 08:28 instrumental
4. Become the Planet 06:00
5. Stone Faces 06:12
6. Galaxies of Death 06:36
******************************
Total playing time: 40:42



[more=Extended info]Beastlor Everything
See also: Encenathrakh, Krallice, ex-Barr-Nevai, Mick Barr, Octis, Orthrelm, Overishins, ex-Angelblood, ex-Mossenek, ex-Oldest, ex-Or Rathol Nok, ex-Or:12r3, ex-The Flying Luttenbachers[/more]

[more=Technical info]
Input File: 06 Galaxies of Death.mp3
Channels : 2
Sample Rate : 44100
Precision : 16-bit
Duration : 00:06:36.33 = 17477933 samples = 29724.4 CDDA sectors
File Size : 16.9M
Bit Rate : 341k
Sample Encoding: MPEG audio (layer I, II or III)
Comments :
Title=Galaxies of Death
Artist=Beastlor
Album=Galaxies of Death
Tracknumber=6
Year=2021

[/more]

Register
(15) atavist, CletusVII, eisigerwind, Fater_Hu, infiltrator, kim666, lestllk, Marek, Olethros, robertho777, Rover, SilentNidhogg, suseka, VALERY, vasiljev_sergej,
May 6 2021, 21:08:29 Luzver - Ode To The Dark (2021)


*Artist: Luzver
*Album: Ode To The Dark
*Year: 2021
*Genre: Symphonic Black Metal
*Country: Spain
*Format: mp3@CBR320kbps
*Size: 109MB

Tracklist:
1. The Cosmos Eternal Law 04:25
2. Damned Souls 03:42
3. From the Waters Leaps the Howling Creature 03:31
4. The Lost Yesterday 04:11
5. Tales No Man May Trace 03:07
6. Ode to the Dark 05:58
7. Great Gardens Where Memories Blow 02:56
8. The Once Born Must Die 03:51
9. Blazing Fires Through the Skies 03:47
10. In the Dark with My Insanity 04:19
11. Master's Glare 03:28
12. A Twilight Gloom in Winter Season Is Born 04:26
******************************
Total playing time: 47:41




[more=Extended info]Francisco Monteiro Vocals, Guitars (2014-present)
See also: ex-Themalefik
[youtube]pqT7AHLqB2s[/youtube][/more]

[more=Technical info]
Input File: 10 - In the Dark with My Insanity.mp3
Channels : 2
Sample Rate : 44100
Precision : 16-bit
Duration : 00:04:19.07 = 11425119 samples = 19430.5 CDDA sectors
File Size : 10.4M
Bit Rate : 320k
Sample Encoding: MPEG audio (layer I, II or III)
Comments :
Title=In the Dark with My Insanity
Artist=LuzVer
Album=Ode to the Dark
Tracknumber=10
Year=2021

[/more]

Register
(16) Fater_Hu, infiltrator, kim666, kimkayoung, Lukittaz, Olethros, robertho777, Rover, Sanctus, sergsazan, Shadechaser, SilentNidhogg, VALERY, vasiljev_sergej, zhol, Сварог Барг,
May 6 2021, 20:51:46 The Kiltros - Broken Soul (2021)


*Artist: The Kiltros
*Album: Broken Soul
*Year: 2021
*Genre: Thrash/Heavy Metal
*Country: Chile
*Format: mp3@CBR320kbps
*Size: 116MB

Tracklist:
1. Red Night
2. Psycho Love Story
3. Joker
4. The One
5. Make It Worth
6. Two Demons
7. Kenos
8. Unleashed
9. Pained
10. Old Soul
******************************
Total playing time: 51:13



[more=Extended info][youtube]i61x7x3Q1SU[/youtube][/more]

[more=Technical info]
Input File: 07 - Kenos.mp3
Channels : 2
Sample Rate : 44100
Precision : 16-bit
Duration : 00:05:35.38 = 14790302 samples = 25153.6 CDDA sectors
File Size : 13.4M
Bit Rate : 320k
Sample Encoding: MPEG audio (layer I, II or III)
Comments :
Title=Kenos
Artist=The Kiltros
Album=Broken Soul
Tracknumber=7
Year=2021

[/more]

Register
(14) after21allD, aviacademy, boby9052, chipsgott, gwar, HMHamster, infiltrator, Lukittaz, metala, Olethros, Rover, sergsazan, stumpheavyrock, thrashiac55,
May 6 2021, 20:40:04 Kryptik Mutation - Pulled From The Pit (2021)


*Artist: Kryptik Mutation
*Album: Pulled From The Pit
*Year: 2021
*Genre: Old School Death Metal
*Country: United States
*Format: mp3@CBR320kbps
*Size: 53MB

Tracklist:
1. Placentapede 02:27
2. Empires of Galactic Misery 02:53
3. Brain Splatter 02:01
4. Demon's Crest 04:14
5. Blistering Blow 03:27
6. Dying to Rot 02:42
7. Tied Under a Buzz Saw 03:20
8. Sacrifice and Pulverize 02:17
******************************
Total playing time: 23:21




[more=Extended info]Efren Trevino Bass
Dan "Blast" Garcia Drums
Fred Gonzalez Guitars
Jon Trevino Guitars
See also: Blast Perversion, Visions of Annihilation, ex-Severance
Christopher "ThrashHeavy" de Leon Vocals[/more]

[more=Technical info]
Input File: 04 - Demons Crest.mp3
Channels : 2
Sample Rate : 44100
Precision : 16-bit
Duration : 00:04:14.29 = 11214321 samples = 19072 CDDA sectors
File Size : 10.2M
Bit Rate : 320k
Sample Encoding: MPEG audio (layer I, II or III)
Comments :
Title=Demons Crest
Artist=Kryptik Mutation
Album=Pulled from the Pit
Tracknumber=4
Year=2021

[/more]

Register
(15) andreikun, caro, dcatagua, infiltrator, jollo, judaz, Olethros, pabedit, sergsazan, stumpheavyrock, suseka, thrashiac55, VALERY, vyacheslav, zhol,
May 6 2021, 11:04:28 Reality Grey - Beneath This Crown (2021)


*Artist: Reality Grey
*Album: Beneath This Crown
*Year: 2021
*Genre: Melodic Death Metal
*Country: Italy
*Format: mp3@CBR320kbps
*Size: 130MB

Tracklist:
1. Legion (Intro) 01:51
2. Fade in Fear 04:44
3. Kings of Nothing 05:18
4. Preachers of Hatred 04:05
5. Daybreakers 05:37
6. Powerblast 04:09
7. Multidimensional Hollow 04:16
8. The Fury 04:01
9. Dreaming 05:13
10. Reascent 04:01
11. Beneath This Crown 05:28
12. Indelible Stains 03:39
13. The Void 04:34
******************************
Total playing time: 56:56




[more=Extended info]Alex Bass
Anto Guitars, Vocals (clean)
Tommy Vocals
Albo Guitars
Francesco Inchingolo Drums
[youtube]PM_1jvaqNSs[/youtube]
[youtube]s3pSFUFZzSI[/youtube][/more]

[more=Technical info]
Input File: 09 - Dreaming.mp3
Channels : 2
Sample Rate : 44100
Precision : 16-bit
Duration : 00:05:10.00 = 13671000 samples = 23250 CDDA sectors
File Size : 12.6M
Bit Rate : 325k
Sample Encoding: MPEG audio (layer I, II or III)
Comments :
Title=Dreaming
Artist=Reality Grey
Album=Beneath This Crown
Tracknumber=9
Year=2021-05-07
Genre=Rock
Discnumber=1

[/more]

Register
(14) chipsgott, infiltrator, kiol1, Lukittaz, Marek, Olethros, sadmannn, satanist666, sergsazan, suseka, VALERY, wanderer73, zhol, Сварог Барг,
May 5 2021, 21:51:11 Seizure - Born In The Dark (2021)


*Artist: Seizure
*Album: Born In The Dark
*Year: 2021
*Genre: Thrash Metal
*Country: United States
*Format: mp3@CBR320kbps
*Size: 91MB

Tracklist:
1. Judgement 01:11
2. Phantasm 05:22
3. Born in the Dark 02:07
4. Crystal Ball 04:16
5. The Message 04:18
6. Dear Boss / From Hell 05:07
7. Holy Relics 03:53
8. Hunting Season 04:42
9. Lowlife 03:56
10. Djinn's Curse 05:30
******************************
Total playing time: 40:22



[more=Extended info]Ezra Behrens Bass
Ira Black IV Guitars
Joey Love Guitars, Vocals
See also: ex-Phantasm
Justin Pittman Drums (2019-present)
See also: Indisposed
[youtube]uQNoiugyLkI[/youtube]
[youtube]2hTgBRxypAM[/youtube][/more]

[more=Technical info]
Input File: 06 - Dear Boss_From Hell.mp3
Channels : 2
Sample Rate : 44100
Precision : 16-bit
Duration : 00:05:07.66 = 13567674 samples = 23074.3 CDDA sectors
File Size : 12.3M
Bit Rate : 320k
Sample Encoding: MPEG audio (layer I, II or III)
Comments :
Title=Dear Boss From Hell
Artist=Seizure
Album=Born in the Dark
Tracknumber=6
Year=2021
Genre=Thrash Metal

[/more]

Register
(22) andreikun, atavist, aviacademy, boby9052, Bzth, caro, chipsgott, DTGB, gwar, HMHamster, infiltrator, Marek, metala, Militia, older68, Olethros, Rover, sergsazan, stumpheavyrock, thrashiac55, wanderer73, wgs73,
May 5 2021, 18:41:06 Sombre - A Common Conflict And The Respite We Deserve [ep] (2021)


*Artist: Sombre
*Album: A Common Conflict And The Respite We Deserve [ep]
*Year: 2021
*Genre: Post-Black Metal
*Country: United Kingdom
*Format: mp3@CBR320kbps
*Size: 50MB

Tracklist:
1. From Womb to an Unsightly Shallow Grave 06:01
2. Endeavour Not to Dream of Death, and His Hand 05:22
3. Dancing Static (Interlude) 02:50
4. Tiresome Be, the Plight of Life 07:30
******************************
Total playing time: 21:43




[more=Technical info]
Input File: 04 - Tiresome Be, The Plight Of Life.mp3
Channels : 2
Sample Rate : 44100
Precision : 16-bit
Duration : 00:07:30.00 = 19845000 samples = 33750 CDDA sectors
File Size : 18.2M
Bit Rate : 323k
Sample Encoding: MPEG audio (layer I, II or III)
Comments :
Title=Tiresome Be, The Plight Of Life
Artist=Sombre
Album=A Common Conflict And The Respite We Deserve
Tracknumber=4
Year=2021-04-19
Genre=Metal
Discnumber=1

[/more]

Register
(14) aleon, caro, gena, HMHamster, infiltrator, kim666, Olethros, Ostinato, robertho777, SilentNidhogg, undeadlich, VALERY, vasiljev_sergej, Witchmaster,
May 5 2021, 18:22:16 Dungeon Serpent - World Of Sorrows [ep] (2021)


*Artist: Dungeon Serpent
*Album: World Of Sorrows [ep]
*Year: 2021
*Genre: Old School Death Metal
*Country: Canada
*Format: mp3@CBR320kbps
*Size: 87MB

Tracklist:
1. Mourners at the Glass Coffin (Intro) 00:50
2. Necroscope 06:24
3. Decay 05:28
4. Immortal Incubation 04:30
5. Cosmic Sorcery 06:31
6. Towards Sanguine Twilights 01:02
7. World of Sorrows 11:25 instrumental
8. The Deadspawn 01:32
******************************
Total playing time: 37:42


Preview 2

[more=Extended info]Arawn Vocals, Guitars, Bass
See also: Revolation, ex-Necrotizing Fasciitis[/more]

[more=Technical info]
Input File: 05 - Cosmic Sorcery.mp3
Channels : 2
Sample Rate : 44100
Precision : 16-bit
Duration : 00:06:31.00 = 17243100 samples = 29325 CDDA sectors
File Size : 15.8M
Bit Rate : 322k
Sample Encoding: MPEG audio (layer I, II or III)
Comments :
Title=Cosmic Sorcery
Artist=Dungeon Serpent
Album=World of Sorrows
Tracknumber=5
Year=2021-05-01
Genre=Metal
Discnumber=1

[/more]

Register
(13) Bzth, desekrator, infiltrator, Marek, older68, Olethros, sergsazan, stumpheavyrock, Thrashold, VALERY, vyacheslav, wanderer73, zhol,
May 5 2021, 18:06:22 Phåge - Lab Nandrokîrr (2021)


*Artist: Phåge
*Album: Lab Nandrokîrr
*Year: 2021
*Genre: Black Metal
*Country: Kazakhstan
*Format: mp3@CBR320kbps
*Size: 165MB

Tracklist:
1. Ânash 00:53 instrumental
2. Ghâshurz Ghashnum 04:34
3. Azul 06:41
4. Âth 04:45
5. Hân Daur 03:44
6. Gâthrak 18:16
7. Amirz 10:37
8. Lat 04:29
9. Danghum 10:45
10. Mug 07:23
******************************
Total playing time: 1:12:07



[more=Extended info]Fuerlee Vocals, Guitars, Bass, Drums
See also: Strappado
Septième Vocals[/more]

[more=Technical info]
Input File: Phåge - Lab Nandrokîrr - 07 Amirz.mp3
Channels : 2
Sample Rate : 44100
Precision : 16-bit
Duration : 00:10:37.37 = 28108017 samples = 47802.8 CDDA sectors
File Size : 25.6M
Bit Rate : 321k
Sample Encoding: MPEG audio (layer I, II or III)
Comments :
Title=Amirz
Artist=Phåge
Album=Lab Nandrokîrr
Tracknumber=7
Year=2021

[/more]

Register
(4) aleon, Fater_Hu, Olethros, vasiljev_sergej,
May 5 2021, 17:27:31 Mrazomor - Kalopsia [ep] (2021)


*Artist: Mrazomor
*Album: Kalopsia [ep]
*Year: 2021
*Genre: Black Metal
*Country: Croatia
*Format: mp3@CBR320kbps
*Size: 75MB

Tracklist:
1. Grains 03:57
2. Soul Frost 06:08
3. Kalopsia I 01:25
4. Hellscapes 04:01
5. Bezdan 02:59
6. Stigmata 06:17
7. Kalopsia II: Memento Mori 07:41
******************************
Total playing time: 32:28



[more=Extended info]Saranjsek All Instruments (2009-present)
Škrilava Vocals (2014-present)
See also: Santagar[/more]

[more=Technical info]
Input File: 07 - Kalopsia II_ Memento Mori.mp3
Channels : 2
Sample Rate : 44100
Precision : 16-bit
Duration : 00:07:41.00 = 20330100 samples = 34575 CDDA sectors
File Size : 18.6M
Bit Rate : 323k
Sample Encoding: MPEG audio (layer I, II or III)
Comments :
Title=Kalopsia II: Memento Mori
Artist=Mrazomor
Album=Kalopsia
Tracknumber=7
Year=2021-04-25
Genre=Metal
Discnumber=1

[/more]

Register
(10) aleon, caro, Fater_Hu, infiltrator, kim666, Olethros, razor7, robertho777, VALERY, vasiljev_sergej,
May 5 2021, 16:47:56 Kiljin - Vampire Hunter (2021)


*Artist: Kiljin
*Album: Vampire Hunter
*Year: 2021
*Genre: Heavy Metal
*Country: United States
*Format: mp3@CBR320kbps
*Size: 149MB

Tracklist:
1. In Other News 01:32
2. Vampire Hunter 08:10
3. Sign of the Witch 07:34
4. Mankind 05:30
5. Eat the Worm 07:25
6. Asylum Take Me Home 06:32
7. Changeling 06:32
8. Defend the Land 07:52
9. Curse of the Mummy 08:12
10. Exorcism 05:20
******************************
Total playing time: 1:04:39




[more=Extended info]Tony Aumaugher Bass, Vocals
See also: Kisster
Bryant Aumaugher Drums, Vocals
See also: Kisster
Scott Spencer Guitars (rhythm), Vocals
Trevor Aumaugher Vocals (lead), Guitars (lead)
See also: Kisster[/more]

[more=Technical info]
Input File: 07 - Changeling.mp3
Channels : 2
Sample Rate : 44100
Precision : 16-bit
Duration : 00:06:32.00 = 17287200 samples = 29400 CDDA sectors
File Size : 15.9M
Bit Rate : 324k
Sample Encoding: MPEG audio (layer I, II or III)
Comments :
Title=Changeling
Artist=Kiljin
Album=Vampire Hunter
Tracknumber=7
Year=2021-05-05
Discnumber=1

[/more]

Register
(14) after21allD, andreikun, caro, fsc97, HMHamster, infiltrator, Marek, metala, Olethros, Olrak, Rover, sergsazan, stumpheavyrock, vir2al,

932 Pages V   1 2 3 > » 
- Lo-Fi Version Support form
Copyrights and abuse reports form
Time is now: 9th May 2021 - 05:54:04