Welcome Guest ( Log In | Register )

История благодарностей участнику Samaritianin ::: Спасибо сказали: 467268 раз(а)
Дата поста: В теме: За сообщение: Спасибо сказали:
Yesterday, 19:41:03 Les Enfants De Dagon - De Profundis (2022)


*Artist: Les Enfants De Dagon
*Album: De Profundis
*Year: 2022
*Genre: Death/Doom/Gothic Metal
*Country: France
*Format: mp3@CBR320kbps
*Size: 113MB

Tracklist:
1. The Shadows Over Innsmouth
2. Haunted Relic
3. A Silent Pier
4. Between The Fog And The Sea
5. Esoteric Order Of Dagon
6. De Profundis Mysteriis
7. Facing Darkness Part I
8. Facing Darkness Part II
9. Beyond
10. Fallen Angel
******************************
Total playing time: 49:07




[more=Technical info]
Input File: 05 - Esoteric Order of Dagon.mp3
Channels : 2
Sample Rate : 44100
Precision : 16-bit
Duration : 00:04:19.20 = 11430896 samples = 19440.3 CDDA sectors
File Size : 10.4M
Bit Rate : 322k
Sample Encoding: MPEG audio (layer I, II or III)
Comments :
Title=Esoteric Order of Dagon
Artist=Les Enfants de DAGON
Album=De Profundis
Tracknumber=5/10
Year=2022

[/more]

Register
(3) artscald, metala, robertho777,
Yesterday, 19:09:38 Nexus Dei - Cantata Nocturna (2022)


*Artist: Nexus Dei
*Album: Cantata Nocturna
*Year: 2022
*Genre: Symphonic Death/Gothic Metal
*Country: Canada
*Format: mp3@CBR320kbps
*Size: 76MB

Tracklist:
1. Dusk and Despair
2. Battle of Creation
3. The Infernal
4. When All is Gone
5. After The Storm (feat. Bianca Gaulin)
6. My Last Breath
7. Witches' Dance
******************************
Total playing time: 33:11



[more=Extended info][youtube]PSaThtoFiQY[/youtube][/more]

[more=Technical info]
Input File: 07 - Witches\' Dance.mp3
Channels : 2
Sample Rate : 44100
Precision : 16-bit
Duration : 00:04:39.89 = 12343193 samples = 20991.8 CDDA sectors
File Size : 11.3M
Bit Rate : 322k
Sample Encoding: MPEG audio (layer I, II or III)
Comments :
Title=Witches' Dance
Artist=Nexus Dei
Album=Cantata Nocturna
Tracknumber=7/7
Year=2022

[/more]

Register
(3) Alpha_Prime, artscald, kimkayoung,
Yesterday, 13:20:40 Wind Of Eternity - After All These Years (2022)


*Artist: Wind Of Eternity
*Album: After All These Years
*Year: 2022
*Genre: Depressive Black/Doom Metal
*Country: Italy
*Format: mp3@CBR320kbps
*Size: 133MB

Tracklist:
1. aNti 12:29
2. aBisSo_79 14:04
3. n.n.n (NebbiaNeraNostalgia) 19:49
4. Trans-grado (Inverno 05-06) 12:04
******************************
Total playing time: 58:26



[more=Technical info]
Input File: 03 - N.N.N Nebbianostaglianera.mp3
Channels : 2
Sample Rate : 44100
Precision : 16-bit
Duration : 00:19:50.08 = 52482396 samples = 89255.8 CDDA sectors
File Size : 47.6M
Bit Rate : 320k
Sample Encoding: MPEG audio (layer I, II or III)
Comments :
Title=N.N.N Nebbianostaglianera
Artist=Wind of Eternity
Album=After All These Years
Tracknumber=3/4
Year=2022

[/more]

Register

Register
(10) aleon, AlexSmith, artscald, dermarsoran, kimkayoung, murian, Reverend, robertho777, suseka, vasiljev_sergej,
Oct 2 2022, 19:51:03 Korrosive - Toxic Apokalypse (2022)


*Artist: Korrosive
*Album: Toxic Apokalypse
*Year: 2022
*Genre: Thrash Metal
*Country: Canada
*Format: mp3@CBR320kbps
*Size: 88MB

Tracklist:
1. Into Nekropolis 05:28
2. Radioaktive Scourge 01:48
3. The Goddamned 04:47
4. Fatal Strike 03:28
5. Libertad y Muerte 05:15
6. Infernal Onslaught 05:10
7. Hail the Hellfire 04:20
8. Karnage Incarnate 07:39
******************************
Total playing time: 37:55



[more=Extended info]Rad Zarei Vocals (2016-present)
See also: ex-Bane
Kaveh Afshar Drums (2019-present)
See also: Into Oblivion, Perilaxe Occlusion, Protokult, ex-Valkyrie's Cry, Shoor, ex-Necrodios
Carlos Rodriguez Bass (2020-present)
See also: ex-Valkyrie's Cry, ex-Necrodios
Jack Neila Guitars (2020-present)
See also: Fascicide, Protokult, Vias, Pterodactyl Problems, ex-I Am the End
Derek Solomos Guitars (2021-present)[/more]

[more=Technical info]
Input File: 07 - Hail the Hellfire.mp3
Channels : 2
Sample Rate : 44100
Precision : 16-bit
Duration : 00:04:20.00 = 11466000 samples = 19500 CDDA sectors
File Size : 10.6M
Bit Rate : 325k
Sample Encoding: MPEG audio (layer I, II or III)
Comments :
Title=Hail the Hellfire
Artist=Korrosive
Album=Toxic Apokalypse
Tracknumber=7
Year=2022-10-02
Genre=Metal
Discnumber=1

[/more]

Register
(10) andreikun, artscald, boby9052, GorAtheist, metala, metaljosue, older68, stumpheavyrock, suseka, TheVoidReturned,
Oct 2 2022, 15:47:03 Rafales - La Tempête Des Morts (2022)


*Artist: Rafales
*Album: La Tempête Des Morts
*Year: 2022
*Genre: Black Metal
*Country: Canada
*Format: mp3@CBR320kbps
*Size: 76MB

Tracklist:
1. Les guerriers vaincus 06:06
2. Le sang des ombres 06:14
3. La tempête des morts 06:34
4. Le tombeau des mers 06:42
5. Les terres oubliées 08:01
******************************
Total playing time: 33:37



[more=Extended info]Rafales All instruments (2020-present)
Volshebnik Vocals (2022-present)
See also: Rage Overload, Tyrmfar, Wizards of Wiznan
[youtube]hnVBB9oe1TQ[/youtube][/more]

[more=Technical info]
Input File: Rafales - La Tempête des Morts - 04 Le Tombeau des Mers.mp3
Channels : 2
Sample Rate : 44100
Precision : 16-bit
Duration : 00:06:42.44 = 17747648 samples = 30183.1 CDDA sectors
File Size : 16.2M
Bit Rate : 322k
Sample Encoding: MPEG audio (layer I, II or III)
Comments :
Title=Le Tombeau des Mers
Artist=Rafales
Album=La Tempête des Morts
Tracknumber=4
Year=2022

[/more]

Register
(8) AlexSmith, kim666, Kodel, Korpse, metaljosue, stormhatt, suseka, vasiljev_sergej,
Oct 2 2022, 14:52:40 Woewarden - In The Art Of My Caged Existence (2022)


*Artist: Woewarden
*Album: In The Art Of My Caged Existence
*Year: 2022
*Genre: Atmospheric/Depressive Black Metal
*Country: Australia
*Format: mp3@CBR320kbps
*Size: 101MB

Tracklist:
1. Ravelled 05:17
2. Prisons Within Prisons 04:14
3. Excised 04:41
4. The Name of Suffering 04:34
5. Wreath of Viscera 04:07
6. Degenerate 05:04
7. Alexithymia 05:02
8. The Blade Draws More 04:41
9. In the Art of My Caged Existence 06:08
******************************
Total playing time: 43:48




[more=Extended info]Thomas Major Bass (2020-present)
See also: Deadspace, Flesh Worship, ex-Cancer
Herb Bennetts Drums (2020-present)
See also: Aviscerus, Deadspace, Doomcave, Wrath of Fenrir, Nucleust
Hrodrik André Segovia Guitars (2020-present)
See also: Pestilential Shadows, Advent Sorrow, ex-Wardaemonic, ex-Avantgard
Dan Jackson Guitars (2020-present)
See also: Deadspace, ex-Cancer, ex-Afraid of Destiny (live)
John Pescod Vocals (2020-present)
See also: Deadspace, Inquinamentum, ex-Cancer
[youtube]WkG9WTQT9K4[/youtube][/more]

[more=Technical info]
Input File: 07 - Alexithymia.mp3
Channels : 2
Sample Rate : 44100
Precision : 16-bit
Duration : 00:05:02.00 = 13318200 samples = 22650 CDDA sectors
File Size : 12.2M
Bit Rate : 323k
Sample Encoding: MPEG audio (layer I, II or III)
Comments :
Title=Alexithymia
Artist=Woewarden
Album=In The Art Of My Caged Existence
Tracknumber=7
Year=2022-09-29
Genre=Metal
Discnumber=1

[/more]

Register
(16) aleon, AlexSmith, Altkiller, artscald, Carcharoth, Dante_D, kim666, kimkayoung, Korpse, Kroth, Olrak, robertho777, stormhatt, suseka, vasiljev_sergej, vlad74,
Oct 2 2022, 14:30:24 Óð - None Shall Escape Death (2022)


*Artist: Óð
*Album: None Shall Escape Death
*Year: 2022
*Genre: Melodic Black/Death Metal
*Country: United States
*Format: mp3@CBR320kbps
*Size: 99MB

Tracklist:
1. AntiDogma 04:00
2. Cruel Follower 04:31
3. Locus of Control 03:56
4. Apoptosis 04:41
5. Pyramidic Alpha Gods 03:52
6. Thy Mountains North 03:53
7. The Realization of a Heinous Truth 03:18
8. Deep Dæð 05:03
9. Galgalim 04:35
10. ...and None Shall Escape Death 04:52
******************************
Total playing time: 42:41



[more=Technical info]
Input File: 08 - Deep Dæð.mp3
Channels : 2
Sample Rate : 44100
Precision : 16-bit
Duration : 00:05:03.00 = 13362300 samples = 22725 CDDA sectors
File Size : 12.3M
Bit Rate : 324k
Sample Encoding: MPEG audio (layer I, II or III)
Comments :
Title=Deep Dæð
Artist=Ohth
Album=None Shall Escape Death
Tracknumber=8
Year=2022-09-29
Genre=Metal
Discnumber=1

[/more]

Register
(13) AlexSmith, Altkiller, artscald, Carcharoth, kim666, kimkayoung, Korpse, Marek, megam, nemx, stormhatt, suseka, zhol,
Oct 1 2022, 14:51:03 Spitfire - Denial To Fall (2022)


*Artist: Spitfire
*Album: Denial To Fall
*Year: 2022
*Genre: Heavy/Power Metal
*Country: Greece
*Format: mp3@CBR320kbps
*Size: 102MB

Tracklist:
1. Stand and Fight 05:55
2. Wasted 04:22
3. Denial to Fall 05:36
4. Unholy 06:21
5. Ready to Attack 04:00
6. On My Own 04:23
7. Many Lies 04:25
8. Naked Fire 04:17
9. Back to Zero 04:46
******************************
Total playing time: 44:05



[more=Extended info]Panos Hatzioannidis Guitars
Tassos Krokodilos Vocals
Elias Loginidis Guitars
Nikos Michalakakos Bass
George Paximadis Drums
[youtube]WHwLp3MGDNQ[/youtube]
[youtube]Eu_ieAxRGbY[/youtube]
[youtube]n0djq0eFs7w[/youtube][/more]

[more=Technical info]
Input File: 07 - Many Lies.mp3
Channels : 2
Sample Rate : 44100
Precision : 16-bit
Duration : 00:04:24.00 = 11642400 samples = 19800 CDDA sectors
File Size : 10.7M
Bit Rate : 325k
Sample Encoding: MPEG audio (layer I, II or III)
Comments :
Title=Many Lies
Artist=Spitfire
Album=Denial To Fall
Tracknumber=7
Year=2022-01-22
Genre=Alternative
Discnumber=1

[/more]

Register
(14) ace73pq, artscald, boby9052, fuoco, gwar, henknegatief, Marek, metala, postal67, Rover, suseka, varlam4, wgs73, Сварог Барг,
Oct 1 2022, 14:36:19 Spitfire - Tectonical Power (2016)


*Artist: Spitfire
*Album: Tectonical Power
*Year: 2016
*Genre: Old School Speed/Thrash Metal
*Country: Germany
*Format: mp3@CBR320kbps
*Size: 99MB

Tracklist:
1. Rader's Will 04:16
2. Fastway Lights 04:45
3. 379 Bombers 03:04
4. New Light of the Universe 04:01
5. Slaves of Evil 06:28
6. Tectonical Power 05:42
7. Lead Me to the Sky 05:01
8. The Flight of the Cerberus (Part 1) 01:34
9. The Flight of the Cerberus (Part 2) 03:17
10. 379 Bombers (Tribute to Lem) 04:34
******************************
Total playing time: 42:42



[more=Extended info]Thunder Manne Drums (2014-2017, 2021-present)
See also: Markgraf, Stealth, ex-Savaasaq, ex-Mystic Circle
Rico S. Guitars (lead), Vocals (2014-2018, 2021-present)
See also: Pestilator, Stealth
S. Moch Bass (2022-present)
D. Bolz Guitars (lead) (2022-present)
[youtube]JjhAOncoeZQ[/youtube][/more]

[more=Technical info]
Input File: 07 - Lead Me To The Sky 2016.mp3
Channels : 2
Sample Rate : 44100
Precision : 16-bit
Duration : 00:05:01.00 = 13274100 samples = 22575 CDDA sectors
File Size : 12.2M
Bit Rate : 324k
Sample Encoding: MPEG audio (layer I, II or III)
Comments :
Title=Lead Me To The Sky 2016
Artist=Spitfire
Album=Tectonical Power
Tracknumber=7
Year=2016-01-01
Genre=Metal
Discnumber=1

[/more]

Register
(16) after21allD, andreikun, artscald, aviacademy, boby9052, BugEyes, gwar, Marek, metala, postal67, sergsazan, stumpheavyrock, suseka, thrashiac55, varlam4, wgs73,
Oct 1 2022, 05:36:54 Below The Graves - Death Is Always Hungry (2022)
FLAC (Tracks) 268 mb
Register
(2) AHBAnep, AndreFrancis,
Oct 1 2022, 04:38:31 Egoist - Н​а​с​л​е​д​и​е (2022)


*Artist: Egoist
*Album: Н​а​с​л​е​д​и​е
*Year: 2022
*Genre: Black/Death Metal
*Country: Germany
*Format: mp3@CBR320kbps
*Size: 81MB

Tracklist:
1. Последний Рассвет (Last Sunrise) 04:51
2. Наследие (Heritage) 04:34
3. Корона Смерти (Deathcrown) 05:37
4. Некромант (Necromancer) 04:14
5. Конец Света (End Of Light) 01:02 instrumental
6. Покинутый Рай (Forsaken Paradise) 05:07
7. Ничтожество (Nothingness) 04:59
8. ...Навсегда (Forever) 04:59
******************************
Total playing time: 35:23




[more=Extended info]Matse Bass (2012-present)
See also: Processor, Sadistic Emergency, ex-Dead Man's Chamber, ex-Enddarm, ex-Godmachine
Sergej Guitars, Vocals (2012-present)
See also: Sadistic Emergency, ex-Godmachine
Danny Guitars, Vocals (2012-present)
See also: ex-Godmachine
Consti Drums (2018-present)
[youtube]IfQp7M2fEdQ[/youtube]
[youtube]JJWCXQjpLnc[/youtube][/more]

[more=Technical info]
Input File: 08 - …Навсегда (Forever).mp3
Channels : 2
Sample Rate : 44100
Precision : 16-bit
Duration : 00:04:59.00 = 13185900 samples = 22425 CDDA sectors
File Size : 12.0M
Bit Rate : 322k
Sample Encoding: MPEG audio (layer I, II or III)
Comments :
Title=…Навсегда (Forever)
Artist=EGOIST
Album=Наследие
Tracknumber=8
Year=2022-10-01
Genre=Metal
Discnumber=1

[/more]

Register
(16) AlexSmith, Altkiller, artscald, Carcharoth, cenzored, metala, Orgasmik, Sanctus, Shadechaser, stormhatt, suseka, varlam4, vasiljev_sergej, yinchanghanhuang, Zer0, Сварог Барг,
Oct 1 2022, 04:22:37 Machinery - Grown To Be Harvested (2022)


*Artist: Machinery
*Album: Grown To Be Harvested
*Year: 2022
*Genre: Death Metal/Grindcore
*Country: Sweden
*Format: mp3@CBR320kbps
*Size: 85MB

Tracklist:
01. Unstoppable Machinery 04:44
02. Distract Dull Deaden 02:10
03. Much More of Everything 02:06
04. Real-Life Coward 02:20
05. Silent Death 02:44
06. Rinse Recycle Repeat 01:54
07. Wake Up 01:35
08. Toxic Dreg 01:26
09. Wireless Indoctrination 01:29
10. Abyss 02:12
11. Age of Slavery 02:03
12. Everlasting 01:54
13. Grown to Be Harvested 03:06
14. Deranged 02:15
15. Decay 03:37
******************************
Total playing time: 35:35



[more=Technical info]
Input File: 01 - Unstoppable Machinery.mp3
Channels : 2
Sample Rate : 44100
Precision : 16-bit
Duration : 00:04:43.00 = 12480300 samples = 21225 CDDA sectors
File Size : 11.6M
Bit Rate : 327k
Sample Encoding: MPEG audio (layer I, II or III)
Comments :
Title=Unstoppable Machinery
Artist=Machinery
Album=Grown to Be Harvested
Tracknumber=1
Year=2022-10-01
Discnumber=1

[/more]

Register
(7) andreikun, artscald, atavist, GorAtheist, jollo, Marek, sludge666,
Oct 1 2022, 03:59:53 Dark Age Of Technology - The Torment Nexus (2022)


*Artist: Dark Age Of Technology
*Album: The Torment Nexus
*Year: 2022
*Genre: Thrash Metal
*Country: United States
*Format: mp3@CBR320kbps
*Size: 93MB

Tracklist:
01. Screaming at Silence 04:50
02. Legion 05:52
03. The Torment Nexus 06:01
04. Ignition Point 04:49
05. Killdozer 04:36
06. Two Graves 04:25
07. Perpetual Hatred Machine 05:33
08. To Serve Man 04:17
******************************
Total playing time: 40:23




[more=Extended info]Ted D. Drums
Ben Randolph Guitars
See also: Emperor Guillotine
Alex Crews Guitars, Vocals, Bass[/more]

[more=Technical info]
Input File: 07 - Perpetual Hatred Machine.mp3
Channels : 2
Sample Rate : 44100
Precision : 16-bit
Duration : 00:05:32.00 = 14641200 samples = 24900 CDDA sectors
File Size : 13.4M
Bit Rate : 324k
Sample Encoding: MPEG audio (layer I, II or III)
Comments :
Title=Perpetual Hatred Machine
Artist=Dark Age of Technology
Album=The Torment Nexus
Tracknumber=7
Year=2022-10-01
Genre=Alternative
Discnumber=1

[/more]

Register
(15) after21allD, akym, andreikun, artscald, boby9052, BugEyes, gwar, john73, Marek, metala, postal67, sergsazan, stumpheavyrock, suseka, wgs73,
Oct 1 2022, 03:10:57 Thrashera - Bastardos Da Noite (2022)


*Artist: Thrashera
*Album: Bastardos Da Noite
*Year: 2022
*Genre: Thrash/Speed Metal
*Country: Brazil
*Format: mp3@CBR320kbps
*Size: 91MB

Tracklist:
1. Distópica Marcha Bastarda (Intro) 03:18
2. Bastardos da Noite 03:29
3. O Filho de Sete Cabeças 03:25
4. Partidário ao Metal 05:45
5. A Dona da Noite de Metal 04:32
6. Desgraça e Terror! 04:25
7. Noite Obscena 04:35
8. A Viúva do Capeta 04:06
9. Bandeira Negra 04:18
******************************
Total playing time: 37:53




[more=Extended info]Surtur Impurus Drums (2010-present)
See also: Enemy Cross, Legalized Murder, Praga, Sürtür, ex-Ritual Negro, ex-Morbid Symphony, ex-Satanic Christ
Madcrusher Guitars (2010-present)
Chakal Vocals (2010-present)
See also: ex-Terrorstorm
Bode de Sade Guitars, Bass (2013-present)
See also: Enemy Cross, Imperador Belial, Legalized Murder, Praga, ex-Short Thrash[/more]

[more=Technical info]
Input File: 07 - Noite Obscena.mp3
Channels : 2
Sample Rate : 44100
Precision : 16-bit
Duration : 00:04:36.00 = 12171600 samples = 20700 CDDA sectors
File Size : 11.8M
Bit Rate : 343k
Sample Encoding: MPEG audio (layer I, II or III)
Comments :
Title=Noite Obscena
Artist=THRASHERA
Album=Bastardos da Noite
Tracknumber=7
Year=2022-09-30
Genre=Metal
Discnumber=1

[/more]

Register
(8) after21allD, Asketto, boby9052, ern1kkk, metala, stumpheavyrock, suseka, wgs73,
Oct 1 2022, 01:47:45 Sceptic - Nailed To Ignorance (2022)


*Artist: Sceptic
*Album: Nailed To Ignorance
*Year: 2022
*Genre: Technical Death Metal
*Country: Poland
*Format: mp3@CBR320kbps
*Size: 105MB

Tracklist:
1. Mind Destroyer
2. Wolf as a Shepherd
3. Fate in My Hand
4. Gaia
5. Wordbow
6. All I Can Devour
7. The Sakkara Bird
8. InHuman
9. Nailed to Ignorance
******************************
Total playing time: 52:59




[more=Extended info]Jacek Hiro Guitars (1995-present)
See also: Voodoo Gods, ex-Dies Irae, ex-Kat & Roman Kostrzewski, ex-Never, Thea, ex-Corruption, ex-Virgin Snatch, ex-Decapitated (live), ex-Saratan (live), ex-Tormentor
Paweł Kolasa Bass (1996-2001, 2008-present)
See also: ex-Atrophia Red Sun, Thea, ex-Stan Snu
Jakub Kogut Drums (1998-2000, 2010-2015, 2019-present)
See also: ex-Atrophia Red Sun, ex-Virgin Snatch
Marcin Urbaś Vocals (1998-2000, 2003-2004, 2005, 2022-present)
See also: Schismatic
[youtube]h0Aefzhj0wQ[/youtube][/more]

[more=Technical info]
Input File: 07. The Sakkara Bird.mp3
Channels : 2
Sample Rate : 44100
Precision : 16-bit
Duration : 00:04:55.92 = 13049984 samples = 22193.9 CDDA sectors
File Size : 11.8M
Bit Rate : 320k
Sample Encoding: MPEG audio (layer I, II or III)
Comments :
Title=The Sakkara Bird
Artist=Sceptic
Album=Nailed to Ignorance
Tracknumber=07
Year=2022
Genre=Technical Death

[/more]

Register
(32) A.L.Rapsod, after21allD, ALEXSATHANAS, alikkon, Altkiller, andreikun, artscald, atavist, cesar, chipsgott, Demon_Heart, Emm Human, ern1kkk, grobator, JPV, kimkayoung, lucifix, maochen, Marek, metala, metaljosue, MMMMM, realexxx75, Rhoads, Sceptic, sextonhardcastle, stumpheavyrock, suseka, troll_swamp, vo140182fav, vov7609, vyacheslav,
Sep 30 2022, 23:16:53 Condra - Aeonic Tempest From The Abyss (2022)


*Artist: Condra
*Album: Aeonic Tempest From The Abyss
*Year: 2022
*Genre: Melodic Black/Death Metal
*Country: Chile
*Format: mp3@CBR320kbps
*Size: 93MB

Tracklist:
1. Dance of the Fallen 01:09
2. Aeonic Tempest from the Abyss 06:24
3. Obelisk of Oblivion 05:55
4. Grave Digger 05:42
5. Specters of a Dying Soul 02:07
6. Shining Lord 04:23
7. Icy Horizon 04:32
8. Ain Symphony 02:37
9. The Omen 06:09
10. Thy Depths 00:59
******************************
Total playing time: 39:57



[more=Extended info]FLAC-Rip
Alak Everything (2022-present)
See also: ex-Fergon, Darxifer, ex-Jan Stones, ex-Wolframe, ex-Xel'naga[/more]

[more=Technical info]
Input File: 09 - The Omen.mp3
Channels : 2
Sample Rate : 44100
Precision : 16-bit
Duration : 00:06:09.00 = 16272900 samples = 27675 CDDA sectors
File Size : 14.9M
Bit Rate : 324k
Sample Encoding: MPEG audio (layer I, II or III)
Comments :
Title=The Omen
Artist=Condra
Album=Aeonic Tempest from the Abyss
Tracknumber=9
Year=2022-10-01
Genre=Metal
Discnumber=1

[/more]

Register
(10) AlexSmith, artscald, BugEyes, grimoir, kimkayoung, rickzammuto, sergsazan, stormhatt, VALERY, Сварог Барг,
Sep 30 2022, 22:57:23 Voak - Verdrängung (2022)


*Artist: Voak
*Album: Verdrängung
*Year: 2022
*Genre: Black Metal
*Country: Greece
*Format: mp3@CBR320kbps
*Size: 77MB

Tracklist:
1. Verdrängen 02:46
2. Für jede Wunde ein Pfeil 03:58
3. Öffnungen 04:10
4. Sprechende Köpfe 05:44
5. Die Verwandlung 03:36
6. Röte Vogel 01:41
7. Affektintoleranz 04:49
8. Atemzüge der Wölfe 03:19
9. Sabbat 03:03
10. Kreuz 00:26
******************************
Total playing time: 33:32




[more=Extended info]K All instruments (2020-present)
V Vocals (2020-present)[/more]

[more=Technical info]
Input File: 07 - Affektintoleranz.mp3
Channels : 2
Sample Rate : 44100
Precision : 16-bit
Duration : 00:04:49.00 = 12744900 samples = 21675 CDDA sectors
File Size : 11.6M
Bit Rate : 322k
Sample Encoding: MPEG audio (layer I, II or III)
Comments :
Title=Affektintoleranz
Artist=Voak
Album=Verdrängung
Tracknumber=7
Year=2022-09-30
Genre=Metal
Discnumber=1

[/more]

Register
(14) AlexSmith, Altkiller, artscald, Carcharoth, kim666, komhs, Narasimha, nemx, rammmirez, robertho777, stormhatt, VALERY, varlam4, vasiljev_sergej,
Sep 30 2022, 22:39:13 Foreseen - Untamed Force (2022)


*Artist: Foreseen
*Album: Untamed Force
*Year: 2022
*Genre: Thrash Metal/Crossover
*Country: Finland
*Format: mp3@CBR320kbps
*Size: 75MB

Tracklist:
1. Soldier's Grave 03:48
2. Birthright 03:23
3. Tolerance of Abuse 03:25
4. Suffocating Routine 04:09
5. Oppression Fetish 03:56
6. Cold Comfort 04:29
7. Serve Your Purpose 01:40
8. Desensitized 03:34
9. Untamed Force 03:40
******************************
Total playing time: 32:04




[more=Extended info]Jaakko Hietakangas Guitars, Bass
Ville Valavuo Guitars
Mirko Nummelin Vocals
Mårten Gustafsson Drums[/more]

[more=Technical info]
Input File: 05 - Oppression Fetish.mp3
Channels : 2
Sample Rate : 44100
Precision : 16-bit
Duration : 00:03:56.00 = 10407600 samples = 17700 CDDA sectors
File Size : 9.64M
Bit Rate : 327k
Sample Encoding: MPEG audio (layer I, II or III)
Comments :
Title=Oppression Fetish
Artist=Foreseen
Album=Untamed Force
Tracknumber=5
Year=2022-09-30
Genre=Alternative
Discnumber=1

[/more]

Register
(12) after21allD, andreikun, artscald, boby9052, gwar, Marek, metala, metaljosue, Militia, stumpheavyrock, thrashiac55, Zer0,
Sep 30 2022, 17:58:22 In Pain - The Thing From The Grave (2022)
FLAC (Tracks) 490 mb
Register
(4) AHBAnep, AndreFrancis, Marek, suseka,
Sep 30 2022, 17:50:48 Hussar - All-Consuming Hunger (2022)
FLAC (Tracks) 266 mb
Register
(4) AndreFrancis, Marek, quarantine, suseka,
Sep 30 2022, 17:00:36 Hussar - All-Consuming Hunger (2022)


*Artist: Hussar
*Album: All-Consuming Hunger
*Year: 2022
*Genre: Death/Doom Metal
*Country: Canada
*Format: mp3@CBR320kbps
*Size: 86MB

Tracklist:
1. Ritualistic Castration of the Feeble-Minded Cowards 05:23
2. Blind Charge Into Gunfire 05:03
3. All-Consuming Hunger 08:43
4. Citadel 02:57
5. Dissonant Weeping of a Thousand Widows 08:31
6. A Vile and Hollow Shell 06:01
******************************
Total playing time: 36:38



[more=Extended info]N.R.W. Drums
V.B. Guitars, Vocals
J.T. Bass[/more]

[more=Technical info]
Input File: HUSSAR - All-Consuming Hunger - 05 Dissonant Weeping Of A Thousand Widows.mp3
Channels : 2
Sample Rate : 44100
Precision : 16-bit
Duration : 00:08:31.82 = 22571218 samples = 38386.4 CDDA sectors
File Size : 20.8M
Bit Rate : 324k
Sample Encoding: MPEG audio (layer I, II or III)
Comments :
Title=Dissonant Weeping Of A Thousand Widows
Artist=HUSSAR
Album=All-Consuming Hunger
Tracknumber=5
Year=2022

[/more]

Register
(15) andreikun, artscald, BandR75, chipsgott, DMIYUR, metala, metaljosue, postal67, quarantine, sergsazan, Shadechaser, stumpheavyrock, suseka, VALERY, vyacheslav,
Sep 30 2022, 16:49:54 Kranium - Slaves To Our Demise (2022)


*Artist: Kranium
*Album: Slaves To Our Demise
*Year: 2022
*Genre: Thrash Metal
*Country: Sweden
*Format: mp3@CBR320kbps
*Size: 116MB

Tracklist:
01. Give in to Your Desire 04:47
02. Revenge 04:35
03. Induce Suicide 06:07
04. Live or Die 05:06
05. Slaves to our Demise 08:00
06. Men Who March Away 04:02
07. Seconds to Death 04:13
08. Alone with Misery 05:00
09. Chambers of Death 05:12
10. Fatal Contract 03:50
******************************
Total playing time: 50:52



[more=Extended info][youtube]t1efXIiB2Kg[/youtube][/more]

[more=Technical info]
Input File: 07 - Seconds to Death.mp3
Channels : 2
Sample Rate : 44100
Precision : 16-bit
Duration : 00:04:12.00 = 11113200 samples = 18900 CDDA sectors
File Size : 10.2M
Bit Rate : 323k
Sample Encoding: MPEG audio (layer I, II or III)
Comments :
Title=Seconds to Death
Artist=Kranium
Album=Slaves to our Demise
Tracknumber=7
Year=2022-10-01
Genre=Metal
Discnumber=1

[/more]

Register
(16) after21allD, artscald, boby9052, chipsgott, Golfzilla, gwar, Marek, metala, metaljosue, postal67, sergsazan, stumpheavyrock, suseka, thrashiac55, VALERY, wgs73,
Sep 30 2022, 16:40:55 In Pain - The Thing From The Grave (2022)


*Artist: In Pain
*Album: The Thing From The Grave
*Year: 2022
*Genre: Old School Death Metal
*Country: Sweden
*Format: mp3@CBR320kbps
*Size: 93MB

Tracklist:
01. Predators Of Death
02. Mistress Of The Dark
03. Witchcraft
04. Midnight Rituals
05. Kill!
06. Decapitated By Lighting
07. Cannibal Feast
08. The Beast Within
09. Blood Frenzy
******************************
Total playing time: 39:37





[more=Extended info]Magnus Wegren Guitars
Michael Andersson Guitars (1992-1994), Vocals (1992-1994, 1998-2010), Bass (1998-present)
See also: Act 3, ex-Nightflower
Mattias Larsson Drums (1998-2010), Vocals (2010-present)
See also: ex-Nightflower, ex-Tears of Melancholy, ex-Act 3
Mattias Johansson Drums (2013-present)
See also: Goat Skull, Karnivore, ex-Fear the Future, ex-Karneywar, ex-El Camino, ex-Nidhöggr, ex-Under Attack[/more]

[more=Technical info]
Input File: In Pain - In Pain - The Thing From The Grave - 07 Cannibal Feast.mp3
Channels : 2
Sample Rate : 44100
Precision : 16-bit
Duration : 00:04:25.97 = 11729145 samples = 19947.5 CDDA sectors
File Size : 10.8M
Bit Rate : 325k
Sample Encoding: MPEG audio (layer I, II or III)
Comments :
Title=Cannibal Feast
Artist=In Pain
Album=In Pain - The Thing From The Grave
Tracknumber=7
Year=2022

[/more]

Register
(20) akym, Altkiller, andreikun, artscald, cesar, chipsgott, jollo, older68, realexxx75, Sabbathian, Sarin, sergsazan, Shadechaser, stumpheavyrock, suseka, Unscarted, VALERY, vyacheslav, wn129aa, zhol,
Sep 30 2022, 15:58:03 Enforces - Metempsychosis (2022)


*Artist: Enforces
*Album: Metempsychosis
*Year: 2022
*Genre: Thrash/Death Metal
*Country: Italy
*Format: mp3@CBR320kbps
*Size: 108MB

Tracklist:
1. Psychosis
2. And Hell Will Be For Us
3. Extinction
4. Point Of Not Return
5. Disaster is Certain
6. Devil In Diaguise
7. Leap In The Dark
8. Global Insecticides
9. New World
10. Midway To Decay
******************************
Total playing time: 46:53



[more=Extended info]Paolo "Flame" Nevi Guitars (2008-present)
See also: Tractors
Daniele Lai Bass, Vocals (backing) (2016-present)
See also: Oblyvion
Emanuele Terazzi Drums (2016-present)
Lorenzo Agostini Guitars (2016-present)
Jacopo Venci Vocals (lead) (2016-present)
See also: Human Death
[youtube]iFoVJX4vkWY[/youtube][/more]

[more=Technical info]
Input File: 09 - New World.mp3
Channels : 2
Sample Rate : 44100
Precision : 16-bit
Duration : 00:06:39.00 = 17595900 samples = 29925 CDDA sectors
File Size : 16.1M
Bit Rate : 323k
Sample Encoding: MPEG audio (layer I, II or III)
Comments :
Title=New World
Artist=Enforces
Album=Metempsychosis
Tracknumber=9
Year=2022-09-30
Genre=Metal
Discnumber=1

[/more]

Register
(15) after21allD, artscald, boby9052, BugEyes, chipsgott, CORPSEMIXA, GorAtheist, Marek, metala, older68, sergsazan, stumpheavyrock, suseka, thrashiac55, wgs73,
Sep 30 2022, 15:33:28 Tassack - Ogień W Szopie (2022)


*Artist: Tassack
*Album: Ogień W Szopie
*Year: 2022
*Genre: Crossover/Thrash Metal
*Country: Poland
*Format: mp3@CBR320kbps
*Size: 71MB

Tracklist:
01. Cobra Kai
02. Ogień w Szopie
03. S.M.R.
04. Czołówka
05. Oko Menela
06. Broń-X
07. Ruski Szampon
08. NITRO
09. Latający Holender
10. Impreza
11. Atak Skorpiona
******************************
Total playing time: 30:10




[more=Extended info]Lucy - Vocals, Bass
Miki - Guitar
Dawid - Guitar
Sharec - Drums
[youtube]5zWj6g9lmng[/youtube][/more]

[more=Technical info]
Input File: 09 - Latający Holender.mp3
Channels : 2
Sample Rate : 44100
Precision : 16-bit
Duration : 00:03:35.00 = 9481500 samples = 16125 CDDA sectors
File Size : 8.80M
Bit Rate : 328k
Sample Encoding: MPEG audio (layer I, II or III)
Comments :
Title=Latający Holender
Artist=Tassack
Album=Ogień w Szopie
Tracknumber=9
Year=2022-09-30
Genre=Rock
Discnumber=1

[/more]

Register
(10) artscald, boby9052, chipsgott, gwar, metala, metaljosue, stumpheavyrock, suseka, thrashiac55, wgs73,

1102 Pages V   1 2 3 > » 
- Lo-Fi Version Support form
Copyrights and abuse reports form
Time is now: 4th October 2022 - 08:11:55