Welcome Guest ( Log In | Register )

История благодарностей участнику Samaritianin ::: Спасибо сказали: 300010 раз(а)
Дата поста: В теме: За сообщение: Спасибо сказали:
Yesterday, 23:23:54 Rupskallex - Resistance (2020)


*Artist: Rupskallex
*Album: Resistance
*Year: 2020
*Genre: Heavy/Melodic Death Metal
*Country: United Kingdom
*Format: mp3@CBR320kbps
*Size: 79MB

Tracklist:
1. Escape 01:10
2. Planetfall 02:25
3. Beacon 03:25
4. SOS 03:09
5. ISS Norcutt 04:28
6. Dogfight 02:19
7. Warpspeed 02:52
8. Nebula 02:23
9. The Sud'Ran Armada 04:27
10. Wars Trumpets 06:07
******************************
Total playing time: 32:45




[more=Extended info]Dan Clarke All instruments, Vocals (2018-present)[/more]

[more=Technical info]
Input File: 05 ISS Norcutt.mp3
Channels : 2
Sample Rate : 44100
Precision : 16-bit
Duration : 00:04:28.53 = 11842041 samples = 20139.5 CDDA sectors
File Size : 11.1M
Bit Rate : 332k
Sample Encoding: MPEG audio (layer I, II or III)
Comments :
Title=ISS Norcutt
Artist=Rupskallex
Album=Resistance
Tracknumber=5/10
Year=2020-20-20
Discnumber=1/1

[/more]

Register
(2) Morgoth, TeamatSE,
Yesterday, 22:47:28 Offset - Bent Benevolence [ep] (2020)


*Artist: Offset
*Album: Bent Benevolence [ep]
*Year: 2020
*Genre: Death Metal/Crust
*Country: Singapore
*Format: mp3@CBR320kbps
*Size: 25MB

Tracklist:
1. Plunged Into 02:03
2. Plugged Illusion 02:19
3. Playhell 01:29
4. Plagueatory 03:40
******************************
Total playing time: 9:31




[more=Extended info]Shamtos Bass
See also: Onset, Septikaemia
Fadzlly Drums
See also: Raspatul, ex-$uicide $olution
Calvin Guitars
See also: Onset, Punebre, Raspatul, Obliterhate
Azri Vocals
See also: Abolition A.D., Marijannah[/more]

[more=Technical info]
Input File: 04 Plagueatory.mp3
Channels : 2
Sample Rate : 44100
Precision : 16-bit
Duration : 00:03:40.67 = 9731459 samples = 16550.1 CDDA sectors
File Size : 9.49M
Bit Rate : 344k
Sample Encoding: MPEG audio (layer I, II or III)
Comments :
Title=Plagueatory
Artist=Offset
Album=Bent Benevolence
Tracknumber=4/4
Year=2020-20-20
Genre=Metal
Discnumber=1/1

[/more]

Register
(2) chipsgott, Wail,
Yesterday, 21:55:04 The Last Reign - Evolution (2020)


*Artist: The Last Reign
*Album: Evolution
*Year: 2020
*Genre: Melodic Death Metal
*Country: United States
*Format: mp3@CBR320kbps
*Size: 131MB

Tracklist:
1. Genesis 03:21
2. Evolution of A Decaying Race 04:45
3. Annihilation of the Ancients 05:35
4. Ironclad Torment 05:01
5. The Hourglass 06:07
6. Fallen Dark 01:12
7. No Horizon 05:19
8. Terminal Threshold 04:38
9. The Storm 04:27
10. Devoid 03:58
11. Luminosity 01:46
12. Architest of Genocide 08:22
******************************
Total playing time: 54:31




[more=Extended info]Brian Platter Guitars
Vince Mayer Drums
Adam Svensson Vocals
Joe Maggio Bass
[youtube]zYD-1W6vaJA[/youtube]
[youtube]RsmVGZj21oQ[/youtube][/more]

[more=Technical info]
Input File: 05 The Hourglass.mp3
Channels : 2
Sample Rate : 44100
Precision : 16-bit
Duration : 00:06:07.33 = 16199165 samples = 27549.6 CDDA sectors
File Size : 15.3M
Bit Rate : 333k
Sample Encoding: MPEG audio (layer I, II or III)
Comments :
Title=The Hourglass
Artist=The Last Reign
Album=Evolution
Tracknumber=5/12
Year=2020-20-20
Genre=Metal
Discnumber=1/1

[/more]

Register
(5) DarkHorde, Morgoth, Ostinato, stumpheavyrock, TeamatSE,
Yesterday, 20:33:19 Emyn Muil - Afar Angathfark (2020)


*Artist: Emyn Muil
*Album: Afar Angathfark
*Year: 2020
*Genre: Epic Black Metal
*Country: Italy
*Format: mp3@CBR320kbps
*Size: 158MB

Tracklist:
01. Afar Angathfark
02. Halls of the Fallen
03. Noldomire
04. Heading Eastward
05. Udun
06. Where the Light Drowns
07. Black Shining Crown
08. In Cold Domain
09. Arise in Gondolin
******************************
Total playing time: 1:08:53




[more=Extended info]Featuring Hildr Valkyrie (guest vocals/yodel choir)
Special thanks to:
David Seys (guest spoken words, track 3 and 8)
David "Stargazer" Rubini (guest male choir)
Laura Màrr (guest cellist, track 4)
[youtube]nIWLnMfXjk4[/youtube][/more]

[more=Technical info]
Input File: 07 - Black Shining Crown.mp3
Channels : 2
Sample Rate : 44100
Precision : 16-bit
Duration : 00:08:38.33 = 22858221 samples = 38874.5 CDDA sectors
File Size : 20.9M
Bit Rate : 322k
Sample Encoding: MPEG audio (layer I, II or III)
Comments :
Title=Black Shining Crown
Artist=Emyn Muil
Album=Afar Angathfark
Tracknumber=7
Year=2020

[/more]

Register
(14) 1968_janeart, Aresson, Dark_Viking, Geralder, kim666, Lucju, metala, Morgoth, older68, Ostinato, Qliphoth, SadistikSlayer, suseka, TeamatSE,
Yesterday, 19:32:17 Blastheory - Anomalous Revelation (2020)
ЦИТАТА(Hellraiser @ 18th September 2020 - 19:13:12) *
Я не спец по бруталу.

Ну так зачем срач устраиваешь раньше времени?На арее редактировать можно только после того как альбом пройдет
модерацию.Или я сам не разберусь с тегами без твоей помощи?)))
(2) defamer666, kranger,
Yesterday, 19:18:36 Putrescence - Prophecies To The Unknown [ep] (2020)


*Artist: Putrescence
*Album: Prophecies To The Unknown [ep]
*Year: 2020
*Genre: Old School Death Metal
*Country: United States
*Format: mp3@CBR320kbps
*Size: 45MB

Tracklist:
01. Prophecies to the Unknown
02. In the Depths of Mutilation
03. Four Inches Deep
04. Scarred Wounds
05. Corruption from Within
******************************
Total playing time: 19:48



[more=Extended info]Rae Bass
Dino Drums
Joe Guitars (lead)
Lenny Guitars (rhythm)
Georgie Vocals[/more]

[more=Technical info]
Input File: 01. Prophecies to the Unknown.mp3
Channels : 2
Sample Rate : 44100
Precision : 16-bit
Duration : 00:05:19.58 = 14093302 samples = 23968.2 CDDA sectors
File Size : 12.8M
Bit Rate : 320k
Sample Encoding: MPEG audio (layer I, II or III)
Comments :
Title=Prophecies to the Unknown
Artist=Putrescence
Album=Prophecies to the Unknown
Tracknumber=01
Genre=2020

[/more]

Register
(9) andreikun, ITNOR, Morgoth, older68, Olethros, stumpheavyrock, TeamatSE, THROWER666, Tino,
Yesterday, 14:07:49 The Agony Column - ...Away From Luciferian Claws [ep] (2020)


*Artist: The Agony Column
*Album: ...Away From Luciferian Claws [ep]
*Year: 2020
*Genre: Gothic/Doom/Melodic Death Metal
*Country: Belarus
*Format: mp3@CBR320kbps
*Size: 69MB

Tracklist:
1. Intro
2. Rainfall
3. The last Invocation
4. ...away from Luciferian claws (feat. Sigmund of Inner Missing)
5. Delirium
6. Interlude
7. Revelation of Death (orchestral)
8. Symphony of Delirium (bonus)
******************************
Total playing time: 29:43





[more=Technical info]
Input File: 05 - Delirium.mp3
Channels : 2
Sample Rate : 44100
Precision : 16-bit
Duration : 00:07:44.38 = 20479070 samples = 34828.4 CDDA sectors
File Size : 18.8M
Bit Rate : 323k
Sample Encoding: MPEG audio (layer I, II or III)
Comments :
Title=Delirium
Artist=The Agony Column
Album=Away from Luciferian Claws
Tracknumber=5
Year=2020

[/more]

Register
(6) chefo, chipsgott, krotovich, lacrimoza, Morgoth, Olethros,
Yesterday, 13:53:20 Rageful - Ineptitude (2020)


*Artist: Rageful
*Album: Ineptitude
*Year: 2020
*Genre: Brutal Death Metal
*Country: Portugal
*Format: mp3@CBR320kbps
*Size: 78MB

Tracklist:
01. Inhuman Greed
02. Feed the Pigs
03. Slavery Ways
04. Whispering Rage
05. Unsocial Network
06. Clouds of Fear
07. The Rage is Coming
08. L.C.T.S.
09. Membership to Self-Existence
10. Portugal the Torch
******************************
Total playing time: 33:49



[more=Technical info]
Input File: 05. Unsocial Network.mp3
Channels : 2
Sample Rate : 44100
Precision : 16-bit
Duration : 00:03:40.10 = 9706278 samples = 16507.3 CDDA sectors
File Size : 8.81M
Bit Rate : 320k
Sample Encoding: MPEG audio (layer I, II or III)
Comments :
Title=Unsocial Network
Artist=Rageful
Album=Ineptitude
Tracknumber=05
Year=2020

[/more]

Register
(9) andreikun, Bloodn Lord, metala, MikkeFFF, older68, Olethros, SaintVitus, Thrashold, THROWER666,
Yesterday, 13:14:39 The Devil's Heir - Rex Mortuus (2020)


*Artist: The Devil's Heir
*Album: Rex Mortuus
*Year: 2020
*Genre: Thrash Metal/Hardcore
*Country: United States
*Format: mp3@CBR320kbps
*Size: 115MB

Tracklist:
1. Sonic Poison 03:16
2. Exsanguinate 06:57
3. Devastator 03:49
4. #1 Fan/Brainless Coward 03:32
5. Sitting in This Room 03:33
6. Hateborn 04:25
7. Otis 04:41
8. Blackout 04:23
9. Demon Inside 05:17
10. Psychotic Ramblings of a Middle Class Working Man (feat. Fahim Pasha) 05:34
11. Bitten by a Beast 04:33
******************************
Total playing time: 50:00



[more=Extended info]Thad Stark Bass (2009-present)
Mike Gregersen Drums (2009-present)
Brendon Martinez Guitars (lead) (2009-present)
Harold Robertson Vocals (2009-present)
Jerod Jacob Guitars (rhythm) (2013-present)
[youtube]i-Ot8i1YB3k[/youtube][/more]

[more=Technical info]
Input File: 06 - Hateborn.mp3
Channels : 2
Sample Rate : 44100
Precision : 16-bit
Duration : 00:04:26.02 = 11731438 samples = 19951.4 CDDA sectors
File Size : 10.8M
Bit Rate : 326k
Sample Encoding: MPEG audio (layer I, II or III)
Comments :
Title=Hateborn
Artist=The Devil's Heir
Album=Rex Mortuus
Tracknumber=6
Year=2020

[/more]

Register
(8) boby9052, Mares, metala, older68, Olethros, stumpheavyrock, thrashiac55, Thrashold,
Yesterday, 13:07:42 ThrasherWolf - We Are Revolution (2020)


*Artist: ThrasherWolf
*Album: We Are Revolution
*Year: 2020
*Genre: Thrash Metal
*Country: United Kingdom
*Format: mp3@CBR320kbps
*Size: 120MB

Tracklist:
1. Words of Revolution 01:15
2. War 11:32
3. Vortex 06:19
4. The Pack 02:28
5. Good Old Fashioned Violence 05:13
6. Vermillion Steel 03:59
7. Vanity 06:16
8. Ruin 06:11
9. Blood Moon 08:55
******************************
Total playing time: 52:08




[more=Extended info]Daniel Lucas Vocals, Guitars
Billy Lucas Drums (2016-present)
Jack Saunders Guitars (2017-present)
Alex Mitsis Bass (2019-present)
[youtube]6_uykj2ubLc[/youtube]
[youtube]xVYriY8scsA[/youtube][/more]

[more=Technical info]
Input File: 05 - Blood Moon.mp3
Channels : 2
Sample Rate : 44100
Precision : 16-bit
Duration : 00:08:55.17 = 23601173 samples = 40138 CDDA sectors
File Size : 21.6M
Bit Rate : 323k
Sample Encoding: MPEG audio (layer I, II or III)
Comments :
Title=Blood Moon
Artist=Thrasherwolf
Album=We Are Revolution
Tracknumber=5
Year=2020

[/more]

Register
(11) andreikun, boby9052, gwar, Mares, metala, older68, Olethros, postal67, stumpheavyrock, thrashiac55, Thrashold,
Yesterday, 11:56:08 Carnal Ruin - The Damned Lie Rotting [ep] (2020)


*Artist: Carnal Ruin
*Album: The Damned Lie Rotting [ep]
*Year: 2020
*Genre: Old School Death Metal
*Country: United States
*Format: mp3@CBR320kbps
*Size: 38MB

Tracklist:
1. Elder Spell 03:06
2. Scholomance 04:28
3. Ode to the Conquered (As the Damned Lie Rotting) 03:47
4. Iniquitous, Devout 05:05
******************************
Total playing time: 16:26




[more=Extended info]Jared Bass
Zach Drums
Tony Guitars, Vocals
Vince Guitars (lead)[/more]

[more=Technical info]
Input File: 02. Scholomance.mp3
Channels : 2
Sample Rate : 44100
Precision : 16-bit
Duration : 00:04:28.26 = 11830090 samples = 20119.2 CDDA sectors
File Size : 10.9M
Bit Rate : 326k
Sample Encoding: MPEG audio (layer I, II or III)
Comments :
Title=Scholomance
Artist=Carnal Ruin
Album=The Damned Lie Rotting
Tracknumber=2
Year=2020

[/more]

Register
(8) andreikun, desekrator, grimoir, Mares, Morgoth, Olethros, stumpheavyrock, Tino,
Yesterday, 10:10:34 Blastheory - Anomalous Revelation (2020)


*Artist: Blastheory
*Album: Anomalous Revelation
*Year: 2020
*Genre: Death Metal
*Country: United States
*Format: mp3@CBR320kbps
*Size: 71MB

Tracklist:
1. Depths in Absurdity
2. De-Genesis
3. Diminished Divinity
4. Anomalous Revelation
5. Vanish Into Dust
6. Valley of the Lilith
7. Nihilism Seduction
******************************
Total playing time: 30:44



[more=Extended info]
Jonathan Erwin
Adrian Socaciu
Krzysztof Klingbein
[youtube]HkkveBu3Q94[/youtube]
[youtube]NEZZJCbP0so[/youtube][/more]

[more=Technical info]
Input File: 04 - Anomalous Revelation.mp3
Channels : 2
Sample Rate : 44100
Precision : 16-bit
Duration : 00:04:53.50 = 12943394 samples = 22012.6 CDDA sectors
File Size : 11.9M
Bit Rate : 324k
Sample Encoding: MPEG audio (layer I, II or III)
Comments :
Title=Anomalous Revelation
Artist=Blastheory
Album=Anomalous Revelation
Tracknumber=4
Year=2020

[/more]

Register
(5) andreikun, Mares, metala, Olethros, SadistikSlayer,
Yesterday, 08:34:55 Ragehammer - Into Certain Death (2020)


*Artist: Ragehammer
*Album: Into Certain Death
*Year: 2020
*Genre: Black/Thrash Metal
*Country: Poland
*Format: mp3@CBR320kbps
*Size: 105MB

Tracklist:
1. Beneath the Red Suns 01:45 instrumental
2. We Are the Hammer 03:58
3. Jesus Goat 03:29
4. Peace 04:25
5. Na pewną śmierć 04:28
6. 616. TerrorKorps 04:00
7. Fear Toxin 04:38
8. Omega Red 05:46
9. Dragon City 04:47
10. Prophet of Genocide Part II (Mother Winter Eternal) 08:54
******************************
Total playing time: 46:10




[more=Extended info]Corpsebutcher Bass
Mortar Drums
Bestial Avenger Guitars
Heretik Hellstörm Vocals
[youtube]e8gZ4vVQ0Ak[/youtube][/more]

[more=Technical info]
Input File: 08 - Omega Red.mp3
Channels : 2
Sample Rate : 44100
Precision : 16-bit
Duration : 00:05:46.19 = 15266847 samples = 25964 CDDA sectors
File Size : 13.9M
Bit Rate : 320k
Sample Encoding: MPEG audio (layer I, II or III)
Comments :
Title=Omega Red
Artist=Ragehammer
Album=Into Certain Death
Tracknumber=8
Year=2020
Genre=Metal

[/more]

Register
(12) boby9052, Bzth, DarkHorde, grimoir, Mares, metala, Morgoth, Olethros, stumpheavyrock, suseka, thrashiac55, wolverine,
Yesterday, 07:09:19 Misertus - Earthlight (2020)


*Artist: Misertus
*Album: Earthlight
*Year: 2020
*Genre: Atmospheric/Post-Black Metal
*Country: United Kingdom
*Format: mp3@CBR320kbps
*Size: 92MB

Tracklist:
1. Fallen, Risen 05:34
2. Awe 05:22
3. Tian Shan 05:27
4. Dawn 04:59
5. Vision & Sight 05:25
6. Forgiveness 05:04
7. Finale 08:15
******************************
Total playing time: 40:06




[more=Extended info]Tomas All instruments, Vocals
See also: Divinivm, Misterus[/more]

[more=Technical info]
Input File: Misertus - Earthlight - 05 Vision & Sight.mp3
Channels : 2
Sample Rate : 44100
Precision : 16-bit
Duration : 00:05:25.40 = 14350096 samples = 24404.9 CDDA sectors
File Size : 13.1M
Bit Rate : 322k
Sample Encoding: MPEG audio (layer I, II or III)
Comments :
Title=Vision & Sight
Artist=Misertus
Album=Earthlight
Tracknumber=5
Year=2020

[/more]

Register
(9) 1968_janeart, AlexSmith, grimoir, kim666, kranger, Morgoth, Olethros, robertho777, suseka,
Yesterday, 06:03:47 Vlterior - The Iv Argvments: Quaestio Per Tormenta [ep] (2019)


*Artist: Vlterior
*Album: The Iv Argvments: Quaestio Per Tormenta [ep]
*Year: 2019
*Genre: Death Metal
*Country: Italy
*Format: mp3@CBR320kbps
*Size: 48MB

Tracklist:
1. Chains of Causality 05:07
2. The Sin of Weakness 04:44
3. Great War 05:00
4. The Deathborne Reborn 05:01
******************************
Total playing time: 19:52




[more=Extended info]Lazarus Bass (2017-present)
See also: Cryptic Theory
Ema Drums (2017-present)
See also: Hemp, Demolition Saint, Ulterior, ex-National Suicide
Petrus Guitars (lead) (2017-present)
See also: A Place for Murder, ex-Hellsteps, ex-Wicked Dream
Tommy Red Panda Guitars (lead) (2017-present)
See also: Human, Saturno, ex-Darisam
OxeDeathborne Vocals (2017-present)
See also: Discordance[/more]

[more=Technical info]
Input File: 03. Great War.mp3
Channels : 2
Sample Rate : 44100
Precision : 16-bit
Duration : 00:05:00.92 = 13270748 samples = 22569.3 CDDA sectors
File Size : 12.6M
Bit Rate : 334k
Sample Encoding: MPEG audio (layer I, II or III)
Comments :
Title=Great War
Artist=Vlterior
Album=The IV Argvments: Quaestio Per Tormenta (320)
Tracknumber=03
Year=2019
Genre=Metal

[/more]

Register
(3) chipsgott, older68, Olethros,
Yesterday, 05:43:59 Raven Throne - Viartannie (Chroniki Źmiainaj Ciemry) (2020)


*Artist: Raven Throne
*Album: Viartannie (Chroniki Źmiainaj Ciemry)
*Year: 2020
*Genre: Atmospheric Black/Pagan Metal
*Country: Belarus
*Format: mp3@CBR320kbps
*Size: 94MB

Tracklist:
1. Zaklaćcie 05:36
2. Viartańnie 05:38
3. Uładar Ściužy 03:25
4. Niabačnyja Nici Zimy 05:33
5. Miortvaja Spadčyna 07:14
6. Spyni serca Vosieni 06:09
7. U dałoniach zimy 05:39
******************************
Total playing time: 39:14




[more=Extended info]Chernotur Guitars (2004-present)
War Head Bass, Vocals, Programming (2005-present)
[youtube]k90cK2kaZ7A[/youtube][/more]

[more=Technical info]
Input File: 04 Niabacnyja Nici Zimy.mp3
Channels : 2
Sample Rate : 44100
Precision : 16-bit
Duration : 00:05:30.15 = 14559747 samples = 24761.5 CDDA sectors
File Size : 13.9M
Bit Rate : 336k
Sample Encoding: MPEG audio (layer I, II or III)
Comments :
Title=Niabacnyja Nici Zimy
Artist=Raven Throne
Album=Viartannie
Tracknumber=4/7
Year=2020-20-20
Genre=Metal
Discnumber=1/1

[/more]

Register
(12) 1968_janeart, AlexSmith, gena, kim666, krotovich, Lucju, Mares, nadin85, Olethros, robertho777, suseka, yuratroll,
Yesterday, 05:15:39 Unrelenting Torment - Unrelenting Torment (2020)


*Artist: Unrelenting Torment
*Album: Unrelenting Torment
*Year: 2020
*Genre: Black Metal
*Country: United States
*Format: mp3@CBR320kbps
*Size: 90MB

Tracklist:
1. Death Magick 04:01
2. The End Is Nigh 05:47
3. Rise of the Morningstar 05:38
4. For All Eternity 04:46
5. The Werewolf 05:27
6. Patient Zero 06:24
7. Till Death Do Us Part 06:49
******************************
Total playing time: 38:52




[more=Technical info]
Input File: 03 - Rise of the Morningstar.mp3
Channels : 2
Sample Rate : 44100
Precision : 16-bit
Duration : 00:05:38.10 = 14909990 samples = 25357.1 CDDA sectors
File Size : 13.7M
Bit Rate : 325k
Sample Encoding: MPEG audio (layer I, II or III)
Comments :
Title=Rise of the Morningstar
Artist=Unrelenting Torment
Album=Unrelenting Torment
Tracknumber=3
Year=2020

[/more]

Register
(8) 1968_janeart, grimoir, kim666, Mares, Morgoth, Olethros, robertho777, suseka,
Yesterday, 05:01:49 Cathedrals Fall - Harmonic Dissedence (2020)


*Artist: Cathedrals Fall
*Album: Harmonic Dissedence
*Year: 2020
*Genre: Heavy/Thrash/Speed Metal
*Country: United States
*Format: mp3@CBR320kbps
*Size: 118MB

Tracklist:
1. Harmonic Dissidence
2. Brick by Brick
3. Unnatural Selection
4. How Far We Fall
5. Welcome to Reality
6. Crown of Thorns
7. Saying Goodbye to a Good Friend
8. The Marquis
9. We the People
10. We Are Blood
11. Revelation
12. The Graceful Destruction
13. Split
******************************
Total playing time: 51:15



[more=Technical info]
Input File: 05 - Welcome to Reality.mp3
Channels : 2
Sample Rate : 44100
Precision : 16-bit
Duration : 00:04:04.75 = 10793651 samples = 18356.5 CDDA sectors
File Size : 9.84M
Bit Rate : 322k
Sample Encoding: MPEG audio (layer I, II or III)
Comments :
Title=Welcome to Reality
Artist=Cathedrals Fall
Album=Harmonic Dissedence
Tracknumber=5
Year=2020

[/more]

Register
(10) boby9052, gwar, Mares, metala, Morgoth, Olethros, stumpheavyrock, suseka, thrashiac55, vir2al,
Yesterday, 03:47:10 Mørkt Tre - Земля Забута Богом І Людьми (2020)


*Artist: Mørkt Tre
*Album: Земля Забута Богом І Людьми
*Year: 2020
*Genre: Atmospheric Black Metal
*Country: Ukraine
*Format: mp3@CBR320kbps
*Size: 77MB

Tracklist:
1. Забуті предки 00:38
2. Жертовна кров 07:42
3. Папороті Цвіт 06:52
4. Брама Ночі 05:29
5. Прокляття 04:25
6. Той, що Прародитель 07:15
7. Предковічні Гори 05:46
******************************
Total playing time: 38:07




[more=Extended info]Clin Unknown
See also: Kroda, Reusmarkt, Emptynest
Emperor Unknown
Sttng Unknown
See also: Colotyphus, Torqverem, Ezkaton (live), ex-1914, ex-Atra Mors, ex-Kroda, ex-Zgard, ex-Буревій, ex-Kaosophia (live), ex-До Скону (live), ex-Говерла (live), ex-Vermis Mysteriis (live), ex-Disbalance, ex-Kruk
Ercld Guitars (2018-present)
[youtube]0ZlS956kKOs[/youtube][/more]

[more=Technical info]
Input File: 06 - Той, що Прародитель.mp3
Channels : 2
Sample Rate : 44100
Precision : 16-bit
Duration : 00:07:15.49 = 19205109 samples = 32661.8 CDDA sectors
File Size : 17.8M
Bit Rate : 328k
Sample Encoding: MPEG audio (layer I, II or III)
Comments :
Title=Òîé, ùî Ïðàðîäèòåëü
Artist=Mørkt Tre
Album=Çåìëÿ çàáóòà áîãîì ³ ëþäüìè
Tracknumber=6
Year=2020

[/more]

Register
(11) 1968_janeart, Black Cat, dan22, maxxxy, metala, Morgoth, Olethros, robertho777, squall8fr, yuratroll, Сварог Барг,
Yesterday, 03:21:30 Mynskh - Chapter 01: Obliterating Perfection (2020)


*Artist: Mynskh
*Album: Chapter 01: Obliterating Perfection
*Year: 2020
*Genre: Black/Death Metal
*Country: Austria
*Format: mp3@CBR320kbps
*Size: 94MB

Tracklist:
1. I. The Amendment of a Cosmic Fault 07:23
2. II. Entering the Age of Ascension 07:22
3. III. Atmaah 06:42
4. IV. The Black City, the Seduction and the Judgement of the Great Harlot 07:46
5. V. A Screaming God 11:01
******************************
Total playing time: 40:14




[more=Extended info]S.A. Bass, Guitars, Samples, Vocals (2013-present)
See also: Artas
G.C. Drums (2013-present)
See also: Artas, ex-Harakiri for the Sky (live)
[youtube]HjAQueIWMfI[/youtube]
[youtube]6BZurcCqiOI[/youtube][/more]

[more=Technical info]
Input File: 03 Atmaah.mp3
Channels : 2
Sample Rate : 44100
Precision : 16-bit
Duration : 00:06:38.96 = 17594312 samples = 29922.3 CDDA sectors
File Size : 16.3M
Bit Rate : 327k
Sample Encoding: MPEG audio (layer I, II or III)
Comments :
Title=Atmaah
Artist=Mynskh
Album=Chapter I: Obliterating Perfection
Tracknumber=3/5
Year=2020-20-20
Genre=Rock
Discnumber=1/1

[/more]

Register
(16) AlexSmith, caro, Glioma, Guns, infiltrator, Mares, Morgoth, multizwilling, older68, Olethros, Rosen, satanist666, suseka, VALERY, vov7609, Сварог Барг,
Sep 17 2020, 16:47:29 Sacramentia - Prophecies Of Plague (2020)


*Artist: Sacramentia
*Album: Prophecies Of Plague
*Year: 2020
*Genre: Black/Death Metal
*Country: Brazil
*Format: mp3@CBR320kbps
*Size: 92MB

Tracklist:
1. Scorn Fate 03:00
2. Scum 03:42
3. In Integrum Pandemonium 02:37
4. Black Psalm 06:05
5. Silent Sinner 03:45
6. Necrolust 03:11
7. Crucifiction 04:04
8. Falling State ov Mind 04:08
9. Ancient 03:08
10. Unknown Gods 05:40
******************************
Total playing time: 39:20



[more=Extended info]Garça Bass (2019-present)
Leonardo Michellazo Amorim Drums (2019-present)
Andre Guimarães Vieira Guitars (lead) (2019-present)
Guilherme Mendes Guitars (rhythm) (2019-present)
Renan Bezan Vocals (2019-present
[youtube]M6sqXA6UCvc[/youtube][/more]

[more=Technical info]
Input File: 04 - Black Psalm.mp3
Channels : 2
Sample Rate : 44100
Precision : 16-bit
Duration : 00:06:05.29 = 16109289 samples = 27396.8 CDDA sectors
File Size : 14.9M
Bit Rate : 326k
Sample Encoding: MPEG audio (layer I, II or III)
Comments :
Title=Black Psalm
Artist=Sacramentia
Album=Prophecies of Plague
Tracknumber=4
Year=2020

[/more]

Register
(15) AlexSmith, caro, frituz3, infiltrator, LUCASDEATH, Mares, Morgoth, multizwilling, older68, Olethros, Rosen, satanist666, VALERY, vasiljev_sergej, wanderer73,
Sep 17 2020, 16:35:02 Carnation - Cemetery Of The Insane [ep] (2015)
ЦИТАТА(--AK-- @ 17th September 2020 - 16:22:30) *
Прошу сделать перезалив...

320 48 mb
Register
(1) --AK--,
Sep 17 2020, 16:01:40 Evil Corpse - Apocalyptic Future (2020)
FLAC (Tracks) 269 mb
Register
(5) Diflock, infiltrator, Mares, Olethros, victorinox,
Sep 17 2020, 15:38:55 Liquid Flesh - Chair Liquide (2020)
FLAC (Tracks) 277 mb
Register
(3) infiltrator, Mares, Olethros,
Sep 17 2020, 15:18:28 Sadistic Embodiment - Blood Spell (2020)
FLAC (Tracks) 327 mb
Register
(7) Amsterdam, infiltrator, isvili, Mares, Olethros, Rudolfo_Metal, vader69,

821 Pages V   1 2 3 > » 
- Lo-Fi Version Support form
Copyrights and abuse reports form
Time is now: 19th September 2020 - 07:03:39