Welcome Guest ( Log In | Register )

История благодарностей участнику Samaritianin ::: Спасибо сказали: 281053 раз(а)
Дата поста: В теме: За сообщение: Спасибо сказали:
Jun 30 2020, 20:49:35 Autopse - Insanity (2020)


*Artist: Autopse
*Album: Insanity
*Year: 2020
*Genre: Thrash/Death Metal
*Country: Brazil
*Format: mp3@CBR320kbps
*Size: 65MB

Tracklist:
01. Insanity 01:19
02. Better off Dead 04:06
03. Fear and Death 03:40
04. Against Yourself 02:53
05. Conspiracy of Chaos 03:32
06. Raise the Head 02:22
07. Before the End 04:57
08. Rejecting the Manipulation 03:57
09. No Way Out 03:35
******************************
Total playing time: 30:21



[more=Extended info]Daniela Serafim - Voz
Janaína Melo - Bateria
Raphael Felipe - Guitarra
Christian David - Baixo
[youtube]VdeuWGHdmds[/youtube]
[youtube]_JhrgKKC_YU[/youtube][/more]

[more=Technical info]
Input File: 07. Before the End.mp3
Channels : 2
Sample Rate : 44100
Precision : 16-bit
Duration : 00:04:57.03 = 13099067 samples = 22277.3 CDDA sectors
File Size : 12.0M
Bit Rate : 325k
Sample Encoding: MPEG audio (layer I, II or III)
Comments :
Title=Before the End
Artist=AutopseBr
Album=Insanity
Tracknumber=7/9
Year=2020
Genre=9
Discnumber=1/1

[/more]

Register
(13) alikkon, boby9052, DarkHorde, infiltrator, Lukittaz, Mares, metala, Olethros, sepultura39, sergsazan, thrashiac55, varlam4, wgs73,
Jun 30 2020, 18:07:43 Hellthrasher - En Tinieblas (2020)


*Artist: Hellthrasher
*Album: En Tinieblas
*Year: 2020
*Genre: Old School Blackened Thrash/Speed Metal
*Country: Peru
*Format: mp3@CBR320kbps
*Size: 74MB

Tracklist:
1. Intro 01:17 instrumental
2. Miserable 04:05
3. Himno Sepulcral 02:38 instrumental
4. Venganza y Muerte 03:03
5. Eterna Agonía 05:03
6. En Tinieblas 03:36
7. No Pares Este Rock 'n' Roll 03:20
8. Puños de Metal 03:49
9. Excusa Para Morir (Elektrash cover) 04:00
******************************
Total playing time: 30:51




[more=Extended info]Ivan Anikiller Vocals, Guitars (2014-present)
See also: Anikiller
Renzo Demon Bass (2018-present)
See also: Anikiller
Miguel Skull Guitars (2018-present)
See also: Anikiller
Cris Thrashkill Vocals (2018-present)
Ricardo Hellhound Drums (2020-present)
[youtube]hqwqQONC4J4[/youtube][/more]

[more=Technical info]
Input File: 05 Eterna Agonía.mp3
Channels : 2
Sample Rate : 44100
Precision : 16-bit
Duration : 00:05:04.08 = 13410016 samples = 22806.1 CDDA sectors
File Size : 12.7M
Bit Rate : 334k
Sample Encoding: MPEG audio (layer I, II or III)
Comments :
Title=Eterna Agonía
Artist=Hellthrasher Perú
Album=En Tinieblas
Tracknumber=5/9
Year=2020-20-20
Genre=Rock
Discnumber=1/1

[/more]

Register
(14) AHBAnep, Asketto, boby9052, DarkHorde, infiltrator, metala, Olethros, scorn33, sergsazan, stumpheavyrock, Styx, vasiljev_sergej, Wail, wgs73,
Jun 30 2020, 15:07:56 Castigator - Impressions From The Abyss (2020)


*Artist: Castigator
*Album: Impressions From The Abyss
*Year: 2020
*Genre: Death/Thrash Metal
*Country: Germany
*Format: mp3@CBR320kbps
*Size: 110MB

Tracklist:
1. Last Thoughts
2. Baltic Tomb
3. Collective Carnage
4. Global Holocaust
5. Storm of Steel
6. Hand for a Bullet
7. Waco's Shame
8. Stench of Corpses
9. Hallowed Be Thy Name
******************************
Total playing time: 44:06




[more=Extended info]Christian Bass, Vocals (2008-present)
See also: Dissecdead, Morbid Exhumation, ex-Remnant
Matze Drums (2008-present)
Simon Guitars (2012-present)
Sebastian Guitars (2014-present)
Tim Vocals (2016-present)
See also: Carnivore Crusher, Forward to Eden, Guthmensch, Through Chaos & Solitude
[youtube]LZ-T23_77aY[/youtube]
[youtube]5kOE2lNwYpY[/youtube][/more]

[more=Technical info]
Input File: 03 Collective Carnage.mp3
Channels : 2
Sample Rate : 44100
Precision : 16-bit
Duration : 00:04:02.27 = 10684195 samples = 18170.4 CDDA sectors
File Size : 10.7M
Bit Rate : 354k
Sample Encoding: MPEG audio (layer I, II or III)
Comments :
Title=Collective Carnage
Artist=Castigator
Album=Impressions from the Abyss
Tracknumber=3/9
Year=2020-20-20
Genre=Rock
Discnumber=1/1

[/more]

Register
(14) alikkon, boby9052, BugEyes, chipsgott, infiltrator, killingod, Lukittaz, Mares, metala, multizwilling, Olethros, sergsazan, thrashiac55, wgs73,
Jun 30 2020, 14:59:56 Bulletbelt - Warlords (2020)


*Artist: Bulletbelt
*Album: Warlords
*Year: 2020
*Genre: Black/Thrash Metal
*Country: New Zealand
*Format: mp3@CBR320kbps
*Size: 99MB

Tracklist:
1. Destroyer of All 00:54 instrumental
2. Impaler 04:46
3. Punishment of God 03:16
4. Herodian Kingdom 07:10
5. Blade on the Fire 04:57
6. Flames of Hell 04:37
7. Boudicia 05:45
8. Mutilate and Destroy 03:57
9. Warlord 04:30
******************************
Total playing time: 39:52




[more=Extended info]Paul Roberts Vocals
Steve "Cleaver" Francis Drums
Tim Mekalick Bass
Josh OBrien Guitars
[youtube]ZY4ag9TkFBA[/youtube][/more]

[more=Technical info]
Input File: 04 Herodian Kingdom.mp3
Channels : 2
Sample Rate : 44100
Precision : 16-bit
Duration : 00:07:10.16 = 18969880 samples = 32261.7 CDDA sectors
File Size : 18.0M
Bit Rate : 335k
Sample Encoding: MPEG audio (layer I, II or III)
Comments :
Title=Herodian Kingdom
Artist=Bulletbelt
Album=Warlords
Tracknumber=4/9
Year=2020-20-20
Genre=Rock
Discnumber=1/1

[/more]

Register
(20) Asketto, boby9052, canadaspaceman, EvilSpirit, HMHamster, infiltrator, isvili, kostja, Lukittaz, metala, multizwilling, Olethros, sergsazan, Styx, suseka, thrashiac55, varlam4, vasiljev_sergej, wgs73, yuratroll,
Jun 30 2020, 14:16:47 Torrefy - Life Is Bad (2020)


*Artist: Torrefy
*Album: Life Is Bad
*Year: 2020
*Genre: Thrash Metal
*Country: Canada
*Format: mp3@CBR320kbps
*Size: 145MB

Tracklist:
1. Sarcophony 09:17
2. Eye of the Swarm 06:07
3. Outrun by Wolves 06:54
4. GFYD 04:54
5. Arborequiem 09:19
6. The Thin Line 06:30
7. Cells 07:30
8. Torn Apart by Machinery 07:44
9. Plague of Empires 05:55
******************************
Total playing time: 1:04:10




[more=Extended info]Simon Smith Bass
Daniel Laughy Drums
Adam Henry Guitars (lead)
Ben Gerencser Guitars (rhythm)
John Ferguson Vocals
[youtube]qO3jP4KoLwo[/youtube]
[youtube]cEG7SYEjdnQ[/youtube][/more]

[more=Technical info]
Input File: 03 Outrun by Wolves.mp3
Channels : 2
Sample Rate : 44100
Precision : 16-bit
Duration : 00:06:54.17 = 18265029 samples = 31063 CDDA sectors
File Size : 16.6M
Bit Rate : 320k
Sample Encoding: MPEG audio (layer I, II or III)
Comments :
Title=Outrun by Wolves
Artist=Torrefy
Album=Life Is Bad
Tracknumber=3
Year=2020
Genre=Metal

[/more]

Register
(14) andreikun, boby9052, BugEyes, Cannibal1974, HMHamster, infiltrator, infozahist, Lukittaz, Mares, metala, Olethros, sergsazan, thrashiac55, zaqxsw,
Jun 30 2020, 13:38:05 Shemhamforash - Entropy (2020)
Cloud Mail 320
Register
(3) infiltrator, Lukittaz, Shadechaser,
Jun 30 2020, 12:04:01 Death Feast - The Feast Of Death (2018)


*Artist: Death Feast
*Album: The Feast Of Death
*Year: 2018
*Genre: Black/Thrash Metal
*Country: Portugal
*Format: mp3@CBR320kbps
*Size: 109MB

Tracklist:
1. The Beginning of the End 02:01
2. Dealing with the Beast 04:18
3. My Inferno 04:13
4. Death Thrash Sinners 05:05
5. Children From Hell 04:26
6. The Feast of Death 02:43
7. Blood on the Ice 06:55
8. Call for the Wizard 04:02
9. Cold Winds Of Hate 04:09
10. War And Death 06:38
11. Time To Depart 01:02
******************************
Total playing time: 45:32




[more=Extended info]Ângelo Bass
See also: Lost Kingdom, Nethermancy, Corpus Christii (live), Amphion, ex-PanzerFrost, ex-Velório, ex-Flagellum Dei (live), ex-Irae (live), ex-Morte Incandescente (live), ex-Onirik (live)
J.A. Guitars, Drums
See also: Alastor, Cunnilingus, Decayed, Hoth, Lost Kingdom, Nethermancy, Thugnor, Necrogore, ex-Hellfuck, ex-Mantiis, ex-Halrack
Nuno Lead Guitar
See also: ex-L.S.D., ex-Sacred Sin, ex-Thugnor
Jorge Divino Vocals
See also: Cunnilingus, Lost Kingdom, ex-Decayed
[youtube]dnBZQ3wUkmc[/youtube][/more]

[more=Technical info]
Input File: 05 Children from Hell.mp3
Channels : 2
Sample Rate : 44100
Precision : 16-bit
Duration : 00:04:26.41 = 11748725 samples = 19980.8 CDDA sectors
File Size : 11.2M
Bit Rate : 335k
Sample Encoding: MPEG audio (layer I, II or III)
Comments :
Title=Children from Hell
Artist=Death Feast
Album=The Feast of Death
Tracknumber=5/11
Year=2018-18-20
Genre=Rock
Discnumber=1/1

[/more]

Register
(17) Asketto, atavist, boby9052, CORPSEMIXA, infiltrator, Lukittaz, Occultas, Olethros, sergsazan, stumpheavyrock, supremo, suseka, thrashiac55, varlam4, vasiljev_sergej, Wail, wgs73,
Jun 30 2020, 11:40:46 Shemhamforash - Entropy (2020)


*Artist: Shemhamforash
*Album: Entropy
*Year: 2020
*Genre: Blackened Death Metal
*Country: Mexico
*Format: mp3@CBR320kbps
*Size: 107MB

Tracklist:
01. Scepter of Demise (Intro)
02. Proclaiming the Throne of Enlil
03. The Chaos Ladder
04. Saturn's Might
05. Lord of Carnage
06. Desolation Rains
07. Heir of Emptiness
08. Light Abstinence
09. Gemini
******************************
Total playing time: 45:50




[more=Extended info]Humberto López Drums (2012-present)
See also: Ambrotos, Greedy Capitalist, Heretic, Iatrogenia, ex-Extinción Cerebral, ex-Encounter, ex-Sunset of Winter
Alan Rodriguez Guitars (2012-present), Vocals (2015-present)
David Fajardo Guitars (2016-present)
See also: Greedy Capitalist
Neto Bass (2019-present)
See also: ex-Legión Kadath, ex-Ignis Atrum, ex-Discordia
[youtube]ZatEWryBbfE[/youtube][/more]

[more=Technical info]
Input File: 04. Saturn's Might.mp3
Channels : 2
Sample Rate : 44100
Precision : 16-bit
Duration : 00:05:23.16 = 14251136 samples = 24236.6 CDDA sectors
File Size : 13.2M
Bit Rate : 328k
Sample Encoding: MPEG audio (layer I, II or III)
Comments :
Title=Saturn's Might
Artist=Shemhamforash
Album=Entropy
Tracknumber=4/9
Year=2020-20-20
Discnumber=1/1

[/more]

Register
(17) alikkon, atavist, cesar, grimoir, infiltrator, killingod, Korpse, Lukittaz, morve, Olethros, SadistikSlayer, SatanMy_Master, suseka, VALERY, varlam4, vasiljev_sergej, Сварог Барг,
Jun 30 2020, 09:49:46 Fleshdriver - Leech [demo] (2020)


*Artist: Fleshdriver
*Album: Leech [demo]
*Year: 2020
*Genre: Old School Death Metal
*Country: United States
*Format: mp3@CBR320kbps
*Size: 35MB

Tracklist:
1. Leech 02:11
2. Soul Thirst 03:40
3. Kingdom of Rats 03:19
4. Morte Agitur 03:10
5. The Golden Calf 02:15
******************************
Total playing time: 14:35




[more=Extended info]Quinn Riley Drums
See also: Gripper
Tyler Denslow Vocals, Guitars
See also: Saul, Age of Misery[/more]

[more=Technical info]
Input File: Fleshdriver - Leech - 02 Soul Thirst.mp3
Channels : 2
Sample Rate : 44100
Precision : 16-bit
Duration : 00:03:40.12 = 9707248 samples = 16508.9 CDDA sectors
File Size : 8.99M
Bit Rate : 327k
Sample Encoding: MPEG audio (layer I, II or III)
Comments :
Title=Soul Thirst
Artist=Fleshdriver
Album=Leech
Tracknumber=2
Year=2020

[/more]

Register
(11) 555, infiltrator, killingod, Konungr, Olethros, Ostinato, stumpheavyrock, uk82grind, VALERY, wgs73, zhol,
Jun 30 2020, 09:28:24 Athanatheos - Prophetic Era (Or How Yahveh Became The One) (2020)


*Artist: Athanatheos
*Album: Prophetic Era (Or How Yahveh Became The One)
*Year: 2020
*Genre: Blackened Death Metal
*Country: France
*Format: mp3@CBR320kbps
*Size: 111MB

Tracklist:
1. Samaria 10:42
2. One Against All 04:14
3. Jerusalem (The Exile to Babylon) 06:33
4. Paradigms 03:40
5. (R)evolution, Revelation 05:25
6. You Shall Not Be 04:15
7. There Was No Soul, There Is Death, There Shall Never Be a Life Beyond (Soul Injected Part III) 13:44
******************************
Total playing time: 48:33




[more=Extended info]Aurélien Guerriau Guitars
Samuel Girard Vocals, Keyboards, FX
Nicolas Lebreton Bass
Grégory Pein Drums[/more]

[more=Technical info]
Input File: 03. Jerusalem (The Exile to Babylon).mp3
Channels : 2
Sample Rate : 44100
Precision : 16-bit
Duration : 00:06:33.83 = 17367947 samples = 29537.3 CDDA sectors
File Size : 15.8M
Bit Rate : 320k
Sample Encoding: MPEG audio (layer I, II or III)
Comments :
Title=Jerusalem (The Exile to Babylon)
Artist=AthanaTheos
Album=Prophetic Era (or How Yahveh Became the One)
Tracknumber=3
Year=2020

[/more]

Register
(18) atavist, cesar, grimoir, Gylve, infiltrator, killingod, lekram, Lukittaz, Mares, metala, Narasimha, Olethros, robertho777, suseka, VALERY, varlam4, vasiljev_sergej, Сварог Барг,
Jun 29 2020, 22:07:49 Grace Disgraced - Immortech (2020)


*Artist: Grace Disgraced
*Album: Immortech
*Year: 2020
*Genre: Progressive/Melodic Death Metal
*Country: Russian Federation
*Format: mp3@CBR320kbps
*Size: 107MB

Tracklist:
1. To Live Forever 07:06
2. The Neon Megapolis 06:34
3. Achieving 07:02
4. No Love in Immortality 06:33
5. Mainframe Lullaby 08:06
6. Cyberghosts 06:11
7. Natural Death 04:57
******************************
Total playing time: 46:29



Preview 3

[more=Extended info]Polina Berezko Vocals
Alexander Klaptsov Guitars
Andrey Ischenko Drums
Serg MP Bass
[youtube]o_a3Pm7mxlA[/youtube][/more]

[more=Technical info]
Input File: 04. No Love in Immortality.mp3
Channels : 2
Sample Rate : 44100
Precision : 16-bit
Duration : 00:06:33.23 = 17341487 samples = 29492.3 CDDA sectors
File Size : 15.7M
Bit Rate : 320k
Sample Encoding: MPEG audio (layer I, II or III)
Comments :
Title=No Love in Immortality
Artist=Grace Disgraced
Album=Immortech
Tracknumber=4
Year=2020

[/more]

Register
(17) AHBAnep, alikkon, cesar, chipsgott, csgmnk, DenisKov, hate_eternal, infiltrator, Lukittaz, metala, Militia, Olethros, samokot, SatanicPanzer, serjred, VALERY, Сварог Барг,
Jun 29 2020, 18:13:27 Valravne - Some Kind Of Vampire [ep] (2020)


*Artist: Valravne
*Album: Some Kind Of Vampire [ep]
*Year: 2020
*Genre: Black Metal
*Country: United States
*Format: mp3@CBR320kbps
*Size: 33MB

Tracklist:
1. Contempt for All Humankind 03:59
2. Some Kind of Vampire 03:18
3. Vada in My Ecafe 04:01
4. Taylor Mountain 03:06
******************************
Total playing time: 14:24




[more=Extended info]Valravne Everything
[youtube]ipwCDENCDTw[/youtube][/more]

[more=Technical info]
Input File: Valravne - Some Kind of Vampire - 03 Vada in my Ecafe.mp3
Channels : 2
Sample Rate : 44100
Precision : 16-bit
Duration : 00:04:01.52 = 10650812 samples = 18113.6 CDDA sectors
File Size : 9.76M
Bit Rate : 323k
Sample Encoding: MPEG audio (layer I, II or III)
Comments :
Title=Vada in my Ecafe
Artist=Valravne
Album=Some Kind of Vampire
Tracknumber=3
Year=2020

[/more]

Register
(11) 1968_janeart, El_Chibo, infiltrator, kim666, legion01, Olethros, robertho777, stub888, VALERY, varlam4, vasiljev_sergej,
Jun 29 2020, 17:56:36 Valravne - Valravne (2020)


*Artist: Valravne
*Album: Valravne
*Year: 2020
*Genre: Black Metal
*Country: United States
*Format: mp3@CBR320kbps
*Size: 70MB

Tracklist:
1. Satanas Est Caritas 03:36
2. I Must Die 05:00
3. Aokigahara 07:20
4. Taken on the Sun 07:40
5. Nero 03:50
6. Extinction pt. 1 03:18
******************************
Total playing time: 30:44




[more=Extended info]Valravne Everything[/more]

[more=Technical info]
Input File: Valravne - Valravne - 03 Aokigahara.mp3
Channels : 2
Sample Rate : 44100
Precision : 16-bit
Duration : 00:07:20.14 = 19409954 samples = 33010.1 CDDA sectors
File Size : 17.7M
Bit Rate : 321k
Sample Encoding: MPEG audio (layer I, II or III)
Comments :
Title=Aokigahara
Artist=Valravne
Album=Valravne
Tracknumber=3
Year=2020

[/more]

Register
(14) 1968_janeart, atavist, El_Chibo, grimoir, infiltrator, kim666, legion01, Olethros, robertho777, stub888, suseka, VALERY, varlam4, vasiljev_sergej,
Jun 29 2020, 15:25:09 Bofo Kwo - Space/Time Carnivorium (2020)


*Artist: Bofo Kwo
*Album: Space/Time Carnivorium
*Year: 2020
*Genre: Symphonic Black Metal
*Country: Finland
*Format: mp3@CBR320kbps
*Size: 101MB

Tracklist:
1. Plate of Hate 06:47
2. Second Sun 05:19
3. Epic 08:30
4. New Destination 04:48
5. Green Leviathan 05:36
6. Bullets of Despair 06:08
7. The Massacre 07:28
******************************
Total playing time: 44:36




[more=Extended info]Wamufo Guitars (lead) (2014-present)
Bomari Vocals (2014-present)
Bofo Kwo Vocals (2014-present)
[youtube]QdQUVTCqBM8[/youtube][/more]

[more=Technical info]
Input File: 02 - Second Sun.mp3
Channels : 2
Sample Rate : 44100
Precision : 16-bit
Duration : 00:05:19.01 = 14068253 samples = 23925.6 CDDA sectors
File Size : 12.8M
Bit Rate : 320k
Sample Encoding: MPEG audio (layer I, II or III)
Comments :
Title=Second Sun
Artist=Bofo Kwo
Album=Space/Time Carnivorium
Tracknumber=2
Year=2020
Genre=Metal

[/more]

Register
(18) 1968_janeart, alikkon, atavist, csgmnk, infiltrator, legion01, Lukittaz, metala, Olethros, robertho777, sergsazan, suseka, VALERY, varlam4, vasiljev_sergej, vov7609, zhol, Сварог Барг,
Jun 29 2020, 13:13:32 Inhaling Cold - Фаталист (2020)


*Artist: Inhaling Cold
*Album: Фаталист
*Year: 2020
*Genre: Industrial/Melodic Black/Death Metal
*Country: Russian Federation
*Format: mp3@CBR320kbps
*Size: 80MB

Tracklist:
1. Бесконечность сводящая с ума 05:23
2. Ключ от последней двери 05:41
3. Антарктос 03:44
4. Полярис 03:14
5. Фаталист 04:44
6. Звездный ужас 03:49
7. Среди звезд 06:26
******************************
Total playing time: 33:01

Preview 1

[more=Extended info]Бурдин Денис
Прокопьев Фёдор
Овчинников Артём
[youtube]vMt27H-taWM[/youtube]
[youtube]Z3SKIFRiUe4[/youtube][/more]

[more=Technical info]
Input File: 02 Ключ от последней двери.mp3
Channels : 2
Sample Rate : 44100
Precision : 16-bit
Duration : 00:05:41.13 = 15043613 samples = 25584.4 CDDA sectors
File Size : 14.2M
Bit Rate : 333k
Sample Encoding: MPEG audio (layer I, II or III)
Comments :
Title=Ключ от последней двери
Artist=Inhaling Cold
Album=Фаталист
Tracknumber=2/7
Year=2020-20-20
Genre=Metal
Discnumber=1/1

[/more]

Register
(15) atavist, BugEyes, chipsgott, DenisKov, infiltrator, legion01, Lukittaz, metala, Olethros, Shadechaser, soulflesh, VALERY, varlam4, vasiljev_sergej, Сварог Барг,
Jun 29 2020, 12:14:03 Chugun - Rogue Planet (2020)


*Artist: Chugun
*Album: Rogue Planet
*Year: 2020
*Genre: Thrash/Death Metal
*Country: Israel
*Format: mp3@CBR320kbps
*Size: 72MB

Tracklist:
1. Simulacra
2. Predatory Prey
3. Happiness
4. Idiot's Guide
5. Rogue Planet
6. Extinction Cycle
7. Andromeda
8. Gravitational Collapse
******************************
Total playing time: 31:15




[more=Extended info]Alexey Hobbit Saprikin Bass
Timur Sizov Guitars
Denise Jani Vocals
Nir Baruch Drums (2016-present)
See also: Sensorium, Sintax, ex-The Knell
[youtube]Qc1Kney1ro0[/youtube][/more]

[more=Technical info]
Input File: 02 - Predatory Prey.mp3
Channels : 2
Sample Rate : 44100
Precision : 16-bit
Duration : 00:04:12.07 = 11116375 samples = 18905.4 CDDA sectors
File Size : 10.2M
Bit Rate : 322k
Sample Encoding: MPEG audio (layer I, II or III)
Comments :
Title=Predatory Prey
Artist=Chugun
Album=Rogue Planet
Tracknumber=02
Year=2020
Genre=Death / Thrash Metal
Discnumber=1

[/more]

Register
(13) AHBAnep, alikkon, andreikun, atavist, boby9052, cesar, infiltrator, Lukittaz, metala, Olethros, sergsazan, thrashiac55, wgs73,
Jun 28 2020, 19:10:52 Demólatra - Mayo 54 (2018)


*Artist: Demólatra
*Album: Mayo 54
*Year: 2018
*Genre: Thrash Metal
*Country: Honduras
*Format: mp3@CBR320kbps
*Size: 76MB

Tracklist:
1. Corporaciòn muerte
2. Condenados al olvido
3. Bastardos
4. Ojos vendados
5. Defendiendo democracias
6. La bestia
7. Mayo 54
******************************
Total playing time: 31:40



[more=Extended info]Willians Merino Bass
Kevin Sánchez Guitars (2012-present)
See also: All for Blood (live), Exequias
Carlos Silva Vocals (lead) (2012-present)
Josué Mancía Drums (2014-present)
[youtube]jY8scegb67k[/youtube][/more]

[more=Technical info]
Input File: 04 Ojos Vendados.mp3
Channels : 2
Sample Rate : 44100
Precision : 16-bit
Duration : 00:04:36.91 = 12211863 samples = 20768.5 CDDA sectors
File Size : 11.6M
Bit Rate : 334k
Sample Encoding: MPEG audio (layer I, II or III)
Comments :
Title=Ojos Vendados
Artist=Demólatra
Album=Mayo 54
Tracknumber=4/7
Year=2018-20-20
Genre=Metal
Discnumber=1/1

[/more]

Register
(15) ahp, andreikun, chipsgott, DarkHorde, HMHamster, infiltrator, Lukittaz, Olethros, Predatorux, sergsazan, stumpheavyrock, Styx, thrashiac55, varlam4, wgs73,
Jun 28 2020, 16:58:02 Extreme Attack - Assassin [ep] (2011)


*Artist: Extreme Attack
*Album: Assassin [ep]
*Year: 2011
*Genre: Old School Thrash Metal
*Country: Ecuador
*Format: mp3@CBR320kbps
*Size: 30MB

Tracklist:
1. Assassin 04:06
2. Hell's Priests 04:42
3. Hell Is Your Destiny 04:06
******************************
Total playing time: 12:54




[more=Extended info]Patricio Viveros Bass, Vocals (2011-present)
See also: ex-Metal Slave
Renata Pacheco Guitars (lead) (2011-present)
See also: ex-Metal Slave
Edwin Floyd Drums (2018-present)
See also: Cadaverous Smell, Narcosis, ex-Lynx Lyd
[youtube]iS_hqsht2sI[/youtube][/more]

[more=Technical info]
Input File: 02 Hell\'s Priests.mp3
Channels : 2
Sample Rate : 44100
Precision : 16-bit
Duration : 00:04:42.71 = 12467599 samples = 21203.4 CDDA sectors
File Size : 11.5M
Bit Rate : 325k
Sample Encoding: MPEG audio (layer I, II or III)
Comments :
Title=Hell's Priests
Artist=Extreme Attack
Album=Assassin
Tracknumber=2/3
Year=2011-18-20
Genre=Metal
Discnumber=1/1

[/more]

Register
(10) 555, boby9052, HMHamster, infiltrator, Lukittaz, Olethros, sergsazan, stumpheavyrock, varlam4, wgs73,
Jun 28 2020, 16:35:06 Extreme Attack - Hellbangers [ep] (2018)


*Artist: Extreme Attack
*Album: Hellbangers [ep]
*Year: 2018
*Genre: Old School Thrash Metal
*Country: Ecuador
*Format: mp3@CBR320kbps
*Size: 33MB

Tracklist:
1. Intro 01:14 instrumental
2. Hellbangers 03:46
3. Extreme Attack 03:49
4. Slaughter 03:10
******************************
Total playing time: 11:59




[more=Extended info]Patricio Viveros Bass, Vocals (2011-present)
See also: ex-Metal Slave
Renata Pacheco Guitars (lead) (2011-present)
See also: ex-Metal Slave
Edwin Floyd Drums (2018-present)
See also: Cadaverous Smell, Narcosis, ex-Lynx Lyd
[youtube]td_Tn45m1d4[/youtube][/more]

[more=Technical info]
Input File: 02 Hellbangers.mp3
Channels : 2
Sample Rate : 44100
Precision : 16-bit
Duration : 00:03:46.13 = 9972245 samples = 16959.6 CDDA sectors
File Size : 10.1M
Bit Rate : 358k
Sample Encoding: MPEG audio (layer I, II or III)
Comments :
Title=Hellbangers
Artist=Extreme Attack
Album=Hellbangers
Tracknumber=2/4
Year=2018-20-20
Genre=Metal
Discnumber=1/1

[/more]

Register
(12) 555, andreikun, HMHamster, infiltrator, Lukittaz, Olethros, sergsazan, stumpheavyrock, Styx, thrashiac55, varlam4, wgs73,
Jun 28 2020, 15:42:40 Les Mémoires Fall - The Tree: Yarns Of Life (2020)


*Artist: Les Mémoires Fall
*Album: The Tree: Yarns Of Life
*Year: 2020
*Genre: Gothic/Doom Metal
*Country: Brazil
*Format: mp3@CBR320kbps
*Size: 130MB

Tracklist:
01. Vacuum 11:19
02. Creation 10:13
03. Spring 07:53
04. Summer 09:39
05. Autumn 07:21
06. Winter 10:23
******************************
Total playing time: 56:48





[more=Extended info]Emerson Mördien Vocals, Bass
See also: Die Sammy, Die, Mellinne, ex-Vermenoise
Alessandro "Grou" Guitars (2013-present)
[youtube]i8erydbOtJA[/youtube][/more]

[more=Technical info]
Input File: 3 - Spring.mp3
Channels : 2
Sample Rate : 44100
Precision : 16-bit
Duration : 00:07:53.39 = 20876675 samples = 35504.5 CDDA sectors
File Size : 19.0M
Bit Rate : 321k
Sample Encoding: MPEG audio (layer I, II or III)
Comments :
Title=Spring
Artist=Les Memoires Fall
Album=The Tree: Yarns Of Life
Tracknumber=3
Year=2020
Genre=Rock / Hard Rock / Metal
Discnumber=1

[/more]

Register
(11) chipsgott, csgmnk, HMHamster, infiltrator, lekram, Olethros, robertho777, sergsazan, Shadechaser, skidnik, VALERY,
Jun 28 2020, 13:13:27 Измена - Измена (2020)


*Artist: Измена
*Album: Измена
*Year: 2020
*Genre: Thrash Metal/Punk
*Country: Ukraine
*Format: mp3@CBR320kbps
*Size: 90MB

Tracklist:
1. Королева 05:01
2. Охрана 03:09
3. Zombie 02:28
4. Колыбельная 04:36
5. Наливайка 03:41
6. Лтп 04:50
7. Заз 04:56
8. Живее всех живых 04:38
9. Мертвый мир 04:00
******************************
Total playing time: 37:19

Preview 1

[more=Extended info]Гараж - Вокал
Дрот - Ударные
Клоп -бас,бек-вокал
Обитури - гитара
Металлика-гитара
[youtube]Vc762ItH4F0[/youtube]
[youtube]8k9A2xxYssw[/youtube]
[youtube]KjKuAa-AQvI[/youtube][/more]

[more=Technical info]
Input File: 04 Колыбельная.mp3
Channels : 2
Sample Rate : 44100
Precision : 16-bit
Duration : 00:04:36.86 = 12209570 samples = 20764.6 CDDA sectors
File Size : 11.6M
Bit Rate : 335k
Sample Encoding: MPEG audio (layer I, II or III)
Comments :
Title=Колыбельная
Artist=Измена
Album=Измена
Tracknumber=4/9
Year=2020-20-20
Genre=Metal
Discnumber=1/1

[/more]

Register
(9) Aresson, boby9052, cast_iron, infiltrator, Olethros, satexterm, sergsazan, stumpheavyrock, varlam4,
Jun 28 2020, 11:40:26 Myrkridia - Termination Entity (2020)


*Artist: Myrkridia
*Album: Termination Entity
*Year: 2020
*Genre: Black/Death Metal
*Country: United States
*Format: mp3@CBR320kbps
*Size: 49MB

Tracklist:
01. Armageddon Gutsfuck
02. Vomit Suicide
03. Desecration Slaughter
04. Lust for Rotting Angels
05. Maligned Poisoned Womb
06. Subjugation of Flames
07. Nuclear Tomb
******************************
Total playing time: 21:23




[more=Extended info]Jared Moran All instruments, Vocals (2012-present)
See also: 54R, Ange de la Mort, Bloodsick, Cave, Conjuration Trance, Corpse Arise, Dragón Blanco, Draug, Eats Aids, Er Murazor, Filtheater, Flesh Configuration, Flittering, Forestfather, Inner Sphere, Ishimura, Kamikaze Pilots, Louching, Maggot Crown, Morgue Walker, Mountain of Beard, Occulsed, Oshiego, Putrefying Cadaverment, Raum, Shokushu Goukan, Spawning Vats, Subterranean Birthright, The Breaking Wheel, The Plague Doctor, Uzumaki, Vomitwolves, Xvart, Yzordderrex, Zombie Raiders, Ithaqua, Scowl, ex-Hollowed Idols, ex-Immaculate Molestation, ex-Your End, Boiled Tongue, Confined Space, Dragunov, Homie Kisses, Old Woman with No Teeth, Popiel, ex-Cosmic Atrophy, ex-Gurthang, ex-Vixenta, ex-Bunker Buster, ex-Driven by Suffering, ex-Recovery Period, ex-S & M Party, ex-Seppuku, ex-The Men Behind the Sun, ex-The Nautilus[/more]

[more=Technical info]
Input File: 07. Nuclear Tomb.mp3
Channels : 2
Sample Rate : 44100
Precision : 16-bit
Duration : 00:03:52.56 = 10255808 samples = 17441.9 CDDA sectors
File Size : 9.30M
Bit Rate : 320k
Sample Encoding: MPEG audio (layer I, II or III)
Comments :
Title=Nuclear Tomb
Artist=Myrkridia
Album=Termination Entity
Tracknumber=7
Year=2020

[/more]

Register
(8) atavist, Doooomed, infiltrator, killingod, Olethros, VALERY, varlam4, vasiljev_sergej,
Jun 27 2020, 14:17:32 Entartung - Maleficae Artes (2020)


*Artist: Entartung
*Album: Maleficae Artes
*Year: 2020
*Genre: Black Metal
*Country: Germany
*Format: mp3@CBR320kbps
*Size: 85MB

Tracklist:
1. Tower of Silence 09:31
2. Bortförd 09:37
3. Un Ciel Bourbeux et Noir 01:36
4. Circle of Suffering 07:57
5. Aufruhr MDXXV 12:02
******************************
Total playing time: 40:43




[more=Extended info]Lykormas Guitars
Vulfolaic Vocals, Bass, Keyboards
Haistulf Drums
[youtube]blX3E8qt4cg[/youtube][/more]

[more=Technical info]
Input File: 04. Circle Of Suffering.mp3
Channels : 2
Sample Rate : 44100
Precision : 16-bit
Duration : 00:07:56.53 = 21014929 samples = 35739.7 CDDA sectors
File Size : 19.2M
Bit Rate : 322k
Sample Encoding: MPEG audio (layer I, II or III)
Comments :
Title=Circle Of Suffering
Artist=Entartung
Album=Maleficae Artes
Tracknumber=4/5
Year=2020
Discnumber=1/1

[/more]

Register
(28) 1968_janeart, ahp, atavist, craP_cillA, El_Chibo, grimoir, infernallord, infiltrator, kim666, Lamby90, Mares, mart2203, multizwilling, nadin85, Olethros, rimfrost, robertho777, sacrut, smes, squall8fr, supremo, suseka, tim47, VALERY, varlam4, vasiljev_sergej, Velmi, V_H_H_V,
Jun 27 2020, 02:33:44 Savage Blood - Downfall (2020)


*Artist: Savage Blood
*Album: Downfall
*Year: 2020
*Genre: Heavy Metal
*Country: Germany
*Format: mp3@CBR320kbps
*Size: 101MB

Tracklist:
1. Downfall 06:13
2. Release the Beast 03:38
3. Savage Blood 06:07
4. Violent Attack 04:25
5. Queen on the Run 05:48
6. We Sweat Blood 04:27
7. Die in Spirit 05:43
8. Guardian Angel 04:33
******************************
Total playing time: 40:54




[more=Extended info]Markus "Wecker" Weckermann Bass, Vocals (2016-present)
See also: ex-Brett Pit, ex-Deterrent, ex-Sudden Death, Weckörhead, ex-Dormitory (live)
Marc Könnecke Drums (2016-present)
See also: ex-Enola Gay
Jörg Steinhake Guitars (2016-present)
See also: ex-Dormitory
Peter Diersmann Vocals (2016-present)
See also: ex-Enola Gay
Timios Guitars (2019-present)
See also: Cortex Dei, ex-Forsaken Tomb[/more]

[more=Technical info]
Input File: 03 Savage Blood.mp3
Channels : 2
Sample Rate : 44100
Precision : 16-bit
Duration : 00:06:07.82 = 16221038 samples = 27586.8 CDDA sectors
File Size : 15.2M
Bit Rate : 331k
Sample Encoding: MPEG audio (layer I, II or III)
Comments :
Title=Savage Blood
Artist=Savage Blood
Album=Downfall
Tracknumber=3
Year=2020-20-20
Genre=Rock
Discnumber=1/1

[/more]

Register
(13) ace73pq, andreikun, BugEyes, fsc97, HMHamster, infiltrator, Lukittaz, Mares, metala, Olethros, Phlebotomized, vir2al, wgs73,
Jun 27 2020, 01:47:51 Thrasherhell - Agente Del Caos (2019)


*Artist: Thrasherhell
*Album: Agente Del Caos
*Year: 2019
*Genre: Old School Thrash Metal
*Country: Venezuela
*Format: mp3@CBR320kbps
*Size: 94MB

Tracklist:
1. Político 03:23
2. Falsos profetas 03:27
3. Policía 06:11
4. Violencia 05:04
5. Ley de vida 04:08
6. Ratas callejeras 03:39
7. Agentes del caos 04:33
8. ThrasherHell 03:48
9. Resistencia 04:19
******************************
Total playing time: 38:32




[more=Extended info]José Rico Bass
See also: Overground, ex-Survival Horror
Christian Pimentel Drums
See also: HellBroken, Collateral Detriment
Francisco Ramones Guitars
See also: Heavenwar, ID Hardcore
Miguel Ramirez Guitars
See also: Predator T
Emilio Fernández Vocals (2012-present)
[youtube]dC_rklyM1Us[/youtube]
[youtube]h-qAEWoFRUE[/youtube]
[youtube]jg3eJuxx1Sc[/youtube][/more]

[more=Technical info]
Input File: 04 Violencia.mp3
Channels : 2
Sample Rate : 44100
Precision : 16-bit
Duration : 00:05:05.07 = 13453763 samples = 22880.5 CDDA sectors
File Size : 12.7M
Bit Rate : 334k
Sample Encoding: MPEG audio (layer I, II or III)
Comments :
Title=Violencia
Artist=Thrasherhell
Album=AGENTE DEL CAOS
Tracknumber=4/9
Year=2019-20-20
Genre=Thrash Metal
Discnumber=1/1

[/more]

Register
(14) andreikun, atavist, cesar, craP_cillA, DarkHorde, Diflock, HMHamster, infiltrator, Lukittaz, Olethros, sergsazan, stumpheavyrock, thrashiac55, wgs73,

785 Pages V   1 2 3 > » 
- Lo-Fi Version Support form
Copyrights and abuse reports form
Time is now: 3rd July 2020 - 11:39:59