Welcome Guest ( Log In | Register )

История благодарностей участнику Samaritianin ::: Спасибо сказали: 257315 раз(а)
Дата поста: В теме: За сообщение: Спасибо сказали:
Mar 26 2020, 12:29:32 Kill Ritual - The Opaque And The Divine (2020)


*Artist: Kill Ritual
*Album: The Opaque And The Divine
*Year: 2020
*Genre: Heavy/Thrash Metal
*Country: United States
*Format: mp3@CBR320kbps
*Size: 108MB

Tracklist:
1. Rest in Pain
2. Dead God
3. King of Fools
4. World Gone Mad
5. Praise the Dead
6. The Veil of the Betrayer
7. Touch the Dark
8. A Child to Die for Again
******************************
Total playing time: 47:02



[more=Extended info]Steve Rice Guitars (lead) (2010-present)
See also: Imagika, ex-Gotham
Seamus Gleason Drums (2017-present)
See also: Knight of Tears, Imagika (live)
Chris Lotesto Guitars (2017-2018), Bass (2018-present)
Chalice Vocals (2019-present)
See also: Enchanter, ex-Image Beyond, ex-Moltens Lore
[youtube]3bEdsKF4-sU[/youtube][/more]

[more=Technical info]
Input File: 4 - World Gone Mad.mp3
Channels : 2
Sample Rate : 44100
Precision : 16-bit
Duration : 00:05:36.06 = 14820246 samples = 25204.5 CDDA sectors
File Size : 13.5M
Bit Rate : 322k
Sample Encoding: MPEG audio (layer I, II or III)
Comments :
Title=World Gone Mad
Artist=Kill Ritual
Album=The Opaque and the Divine
Tracknumber=4
Year=2020
Genre=Alternative / Indie Rock / Metal
Discnumber=1

[/more]

Register
(13) boby9052, Corpuscul, infiltrator, Mannard, metala, multizwilling, Olethros, Rover, stumpheavyrock, thrashiac55, Tino, varlam4, vir2al,
Mar 26 2020, 12:11:56 Disbelief - The Ground Collapses (2020)


*Artist: Disbelief
*Album: The Ground Collapses
*Year: 2020
*Genre: Death Metal/Sludge
*Country: Germany
*Format: mp3@CBR320kbps
*Size: 102MB

Tracklist:
1. The Ground Collapses
2. Scaring Threat
3. The Awakening
4. Killing to the Last
5. The Waiting
6. Colder Than Ice
7. Soul Destructor
8. Insane
9. Hologram for the Scum
10. Kill's Ending
******************************
Total playing time: 44:30



[more=Extended info]Karsten "Jagger" Jäger Vocals (1990-present)
See also: Morgoth
Jochen "Joe" Trunk Bass (1995-present)
See also: ex-No Silence
David "Dave" Renner Guitars (2013-present)
See also: ex-Painful
Fabian "Fab" Regmann Drums (2014-present)
See also: ex-Hadron Collyder, ex-Never Comes Silence, ex-Wytchcraft, The Whispering, Antimatter (live), ex-Landbierband
Marius Pack Guitars (2018-present)
See also: Defective Reality, ex-Verdict
[youtube]sMFWw4rd8CQ[/youtube][/more]

[more=Technical info]
Input File: 04 - Killing to the Last.mp3
Channels : 2
Sample Rate : 44100
Precision : 16-bit
Duration : 00:03:50.18 = 10150938 samples = 17263.5 CDDA sectors
File Size : 9.26M
Bit Rate : 322k
Sample Encoding: MPEG audio (layer I, II or III)
Comments :
Title=Killing to the Last
Artist=Disbelief
Album=The Ground Collapses
Tracknumber=4
Year=2020
Genre=Rock
Discnumber=1

[/more]

Register
(41) AHBAnep, ALEXSATHANAS, andgrek28, andreikun, Aresson, as71, BaKu, Bzth, chipsgott, daemonarch, Dmitry1977, garmonbozia, gwar, hellbibber, infiltrator, jollo, masterpain666, metala, Mist13Signifier, Morgoth, multizwilling, Olethros, Ostinato, quicksand, realexxx75, recber, ripper33, Rover, SaintVitus, SAPOGi, SatanicPanzer, stumpheavyrock, terron, Tino, tOmV, VALERY, varlam4, vir2al, vov7609, yuratroll, Герб,
Mar 26 2020, 11:57:42 Darker Half - If You Only Knew (2020)


*Artist: Darker Half
*Album: If You Only Knew
*Year: 2020
*Genre: Heavy/Power Metal
*Country: Australia
*Format: mp3@CBR320kbps
*Size: 117MB

Tracklist:
01. Glass Coloured Rose
02. Falling
03. Into the Shadows
04. If You Only Knew
05. Sedentary Pain
06. The Bittersweet Caress
07. Thousand Mile Stare
08. Poseidon
09. This Ain't Over
******************************
Total playing time: 51:23



[more=Extended info]Simon Hamilton Bass
See also: Transfix (Aus)
Dom Simpson Drums, Guitars (early)
See also: Transcending Mortality, ex-Flaming Wrekage, ex-Blaze Bayley (live), ex-Paul Di'Anno (live)
Steven "Vo" Simpson Guitars (lead), Vocals
See also: Night Legion
Daniel Packovski Guitars (2018-present)
See also: Pänik
[youtube]Bs5IKLVp6Vs[/youtube][/more]

[more=Technical info]
Input File: 4 - If You Only Knew.mp3
Channels : 2
Sample Rate : 44100
Precision : 16-bit
Duration : 00:06:08.19 = 16237311 samples = 27614.5 CDDA sectors
File Size : 14.8M
Bit Rate : 321k
Sample Encoding: MPEG audio (layer I, II or III)
Comments :
Title=If You Only Knew
Artist=Darker Half
Album=If You Only Knew
Tracknumber=4
Year=2020
Genre=Rock
Discnumber=1

[/more]

Register
(21) ace73pq, AHBAnep, avather, boby9052, Dark Sage, DTGB, Herrant, infiltrator, lary_veel, metala, Militia, Olethros, Rover, satanist666, senecazm, signoff, stumpheavyrock, terron, vir2al, zhol, Сварог Барг,
Mar 26 2020, 11:45:23 Deranged - Deeds Of Ruthless Violence (2020)


*Artist: Deranged
*Album: Deeds Of Ruthless Violence
*Year: 2020
*Genre: Brutal Death Metal
*Country: Sweden
*Format: mp3@CBR320kbps
*Size: 77MB

Tracklist:
1. Necro-Bulimia Interfering Afterlife 03:17
2. Engulfed by Hate I Stab to Kill 04:13
3. Level of Lividity 03:25
4. Carnal Provision for the Rotten Masses 05:13
5. Through Stages of Putrefaction 03:33
6. Carried in Pain, Released by Torture 04:22
7. Quarantine Required for Living Entities 05:06
8. I Send You Half the Kidney I Took 04:03
******************************
Total playing time: 33:12




[more=Extended info]Rikard Wermén Drums (1991-2007, 2009-present)
See also: ex-Enuresis, ex-Killaman, ex-Murder Corporation, ex-El Camino
Thomas Ahlgren Bass (2007-2008), Guitars (2009-present), Vocals (2011)
See also: Pandemonium, ex-Arsonist, ex-End, ex-Monolith
Andreas Johansson Bass (2009-present)
See also: Bergraven, Resonance Cascade, Stilla, ex-Havok
Johan Bergström Vocals (2017-present)
See also: Pandemonium, Resonance Cascade, The Gardnerz, Visceral Bleeding, ex-Splattered Mermaids, ex-Havok, ex-RazorRape (live)
[youtube]GQUcPpKBFvk[/youtube][/more]

[more=Technical info]
Input File: 04 - Carnal Provision for the Rotten Masses.mp3
Channels : 2
Sample Rate : 44100
Precision : 16-bit
Duration : 00:05:13.23 = 13813355 samples = 23492.1 CDDA sectors
File Size : 12.6M
Bit Rate : 322k
Sample Encoding: MPEG audio (layer I, II or III)
Comments :
Title=Carnal Provision for the Rotten Masses
Artist=Deranged
Album=Deeds of Ruthless Violence
Tracknumber=4
Year=2020
Genre=Rock
Discnumber=1

[/more]

Register
(34) AHBAnep, ALEXSATHANAS, andreikun, atavist, Brann, Bzth, carla667, DiegoMassakre, infiltrator, jollo, legion01, Leshiy666, maochen, metala, metalboll, multizwilling, murayne, nadin85, obscenity, okarodb, Olethros, Paradayz, quicksand, rebornflms95, ripper33, RotAnus, SadistikSlayer, satanist666, Satyr, supremo, Tino, Vladimir, vyacheslav, wtk.412,
Mar 26 2020, 02:00:01 Vegard - Bewitched By Moonlight Rituals (2020)


*Artist: Vegard
*Album: Bewitched By Moonlight Rituals
*Year: 2020
*Genre: Atmospheric Black Metal
*Country: United Kingdom
*Format: mp3@CBR320kbps
*Size: 115MB

Tracklist:
1. Arcane Winter Forest Mysteries 07:40
2. Ageless Autumnal Lairs 06:03
3. Summoned to Dusk 06:30
4. Rituals in Midnight Majesty 02:04
5. Ancient Woodland Tyrants 07:03
6. Dungeons Forgotten and Deep 02:58
7. Transcendent Sorrow 06:42
8. Thy Immutable Nightfall 06:26
9. A Tomb, Shrouded in Mists 05:15
******************************
Total playing time: 50:41



[more=Technical info]
Input File: 03 - Summoned to Dusk.mp3
Channels : 2
Sample Rate : 44100
Precision : 16-bit
Duration : 00:06:30.73 = 17231237 samples = 29304.8 CDDA sectors
File Size : 15.6M
Bit Rate : 320k
Sample Encoding: MPEG audio (layer I, II or III)
Comments :
Title=Summoned to Dusk
Artist=Vegard
Album=Bewitched by Moonlight Rituals
Tracknumber=3
Year=2020
Genre=Black Metal

[/more]

Register
(21) 1968_janeart, atavist, Bzth, DevilSign, djsema4, infiltrator, kim666, Morgoth, multizwilling, Olethros, rammmirez, robertho777, satanist666, senecazm, sergsazan, stub888, VALERY, varlam4, vasiljev_sergej, vovenom, Сварог Барг,
Mar 26 2020, 00:39:31 Martial Law - Blatant Disregard For Human Life (2015)


*Artist: Martial Law
*Album: Blatant Disregard For Human Life
*Year: 2015
*Genre: Thrash Metal
*Country: Canada
*Format: mp3@CBR320kbps
*Size: 57MB

Tracklist:
1. Thick Skull 04:03
2. The Agenda 04:09
3. Subservient 02:47
4. Data Master 03:55
5. Corrosive Decisions 03:04
6. Nothing Changes 03:15
7. Transparency 03:20
******************************
Total playing time: 24:33




[more=Extended info]Без третьего трека (кавера)
Kiefer Murphy Drums
See also: Hive
Blaine French Guitars
Blaise Elchuk Vocals, Bass
[youtube]Z380wizT7ow[/youtube][/more]

[more=Technical info]
Input File: 04 - Data Master.mp3
Channels : 2
Sample Rate : 44100
Precision : 16-bit
Duration : 00:03:55.33 = 10377921 samples = 17649.5 CDDA sectors
File Size : 9.57M
Bit Rate : 325k
Sample Encoding: MPEG audio (layer I, II or III)
Comments :
Title=Data Master
Artist=Martial Law
Album=Blatant Disregard for Human Life
Tracknumber=4
Year=2015-07-13
Genre=Metal
Discnumber=1

[/more]

Register
(16) andreikun, atavist, boby9052, BugEyes, Corpuscul, gwar, infiltrator, kessler, multizwilling, Olethros, postal67, sergsazan, stumpheavyrock, thrashiac55, Vladimir, wgs73,
Mar 25 2020, 23:28:33 Molested Divinity - Unearthing The Void (2020)


*Artist: Molested Divinity
*Album: Unearthing The Void
*Year: 2020
*Genre: Brutal Death Metal
*Country: Turkey
*Format: mp3@CBR320kbps
*Size: 65MB

Tracklist:
1. Dogmatic Imprecation 03:13
2. Unearthing the Void 03:27
3. Antediluvian Anguish 03:29
4. Molesting the Divine 04:55
5. Preaching Above the Impenetrable 03:19
6. Abnegating the Deities 03:34
7. Chasmic Absorption Through Portals of Dissaray 02:58
8. Aversive Perpetuity 02:56
******************************
Total playing time: 27:51




[more=Extended info]Berk Köktürk Drums (2016-present)
See also: Cidesphere, Decimation, Raven Woods
Emre Üren Guitars, Bass (2016-present)
See also: Decimation, ex-Raven Woods
Batu Çetin Vocals (2016-present)
See also: Cenotaph, Coprobaptized Cunthunter, Drain of Impurity, Grotesque Ceremonium, Phosgendöd, Womb of Decay, Decimation (live), ex-Bereavement, ex-Strappado, ex-Blutmond (live), ex-Carnophage (live)
Cihan Akün Bass (2018-present)
See also: Burial Invocation, Cenotaph, ex-Raven Woods, ex-Carnophage (live), ex-Nettlethrone (live)[/more]

[more=Technical info]
Input File: New Standard Elite - Molested Divinity - Unearthing the Void - 04 Molesting the Divine.mp3
Channels : 2
Sample Rate : 44100
Precision : 16-bit
Duration : 00:04:55.46 = 13029830 samples = 22159.6 CDDA sectors
File Size : 12.0M
Bit Rate : 324k
Sample Encoding: MPEG audio (layer I, II or III)
Comments :
Title=Molesting the Divine
Artist=New Standard Elite
Album=Molested Divinity | Unearthing the Void
Tracknumber=4
Year=2020

[/more]

Register
(10) andreikun, atavist, infiltrator, jollo, metala, older68, Olethros, satanist666, Vladimir, vyacheslav,
Mar 25 2020, 20:33:06 Ormagoden - The Den Of Sin [ep] (2020)


*Artist: Ormagoden
*Album: The Den Of Sin [ep]
*Year: 2020
*Genre: Heavy/Thrash Metal
*Country: France
*Format: mp3@CBR320kbps
*Size: 53MB

Tracklist:
1. The Den of Sin 04:32
2. Panem Et Circenses 03:23
3. Liar States of Freedom 04:28
4. Faith Bathed in Blood 03:18
5. Kill the Weak 03:46
6. Nuclear Strike 03:32
******************************
Total playing time: 22:59




[more=Extended info]Alex Muscara Bass, Vocals (backing)
Leo Mouchonay Drums
Lucas Rocher Guitars, Vocals (backing)
Victor Lachat Vocals, Guitars
See also: ex-Eyezery
[youtube]gEG1rxNbhNw[/youtube][/more]

[more=Technical info]
Input File: 03 - Liar States of Freedom.mp3
Channels : 2
Sample Rate : 44100
Precision : 16-bit
Duration : 00:04:28.14 = 11824886 samples = 20110.4 CDDA sectors
File Size : 10.8M
Bit Rate : 323k
Sample Encoding: MPEG audio (layer I, II or III)
Comments :
Title=Liar States of Freedom
Artist=Ormagoden
Album=THE DEN of SIN
Tracknumber=3
Year=2020-03-17
Genre=Metal
Discnumber=1

[/more]

Register
(8) boby9052, Corpuscul, Olethros, Rover, sergsazan, stumpheavyrock, thrashiac55, vir2al,
Mar 25 2020, 19:13:45 Astral Chaos - It All Comes Crashing Down [ep] (2020)


*Artist: Astral Chaos
*Album: It All Comes Crashing Down [ep]
*Year: 2020
*Genre: Melodic Death Metal
*Country: United States
*Format: mp3@CBR320kbps
*Size: 39MB

Tracklist:
1. The World Burns 04:25
2. It All Comes Crashing Down 04:11
3. Darkness Within 04:41
4. Villains of Our Mindset 03:18
******************************
Total playing time: 16:35




[more=Extended info]Jonathan Coombs Bass
HP Lovethrash Drums
Rich Staats Guitars
Jesse Morgan Guitars
David Rolnick Vocals
[youtube]024yDuleaTU[/youtube][/more]

[more=Technical info]
Input File: 03 - Darkness Within.mp3
Channels : 2
Sample Rate : 44100
Precision : 16-bit
Duration : 00:04:41.88 = 12430908 samples = 21141 CDDA sectors
File Size : 11.4M
Bit Rate : 324k
Sample Encoding: MPEG audio (layer I, II or III)
Comments :
Title=Darkness Within
Artist=Astral Chaos
Album=It All Comes Crashing Down
Tracknumber=3
Year=2020-03-24
Genre=Metal
Discnumber=1

[/more]

Register
(13) BugEyes, chipsgott, djsema4, infiltrator, metalwoman, Olethros, satanist666, sergsazan, terron, VALERY, varlam4, zhol, Сварог Барг,
Mar 25 2020, 18:41:54 Intoxxxicated - Rage (2020)


*Artist: Intoxxxicated
*Album: Rage
*Year: 2020
*Genre: Thrash Metal
*Country: Mexico
*Format: mp3@CBR320kbps
*Size: 63MB

Tracklist:
1. Fallen Angels
2. Get Insane
3. Need to Be Broken
4. ...from the Corpse
5. 66-6 Miles
6. Neurosis
7. Did I Kill Your Angel?
******************************
Total playing time: 29:06




[more=Extended info]Enrique Parker Drums, Vocals (backing) (?-2017), Vocals
See also: Mourtoria (live), ex-Acrimonia, ex-Lust
Ramon "Demian" Espejo Guitars
See also: ex-Crossover, Rhuckuss
Marcel Sauza Guitars (2014-present)
See also: Arkhe
Raining Blood Drums (2017-present)
See also: Infection Attack, ex-Cöuntess
Mike Pineda Bass (2018-present)
[youtube]JZQz3K7XY8Q[/youtube][/more]

[more=Technical info]
Input File: 03. Need to Be Broken.mp3
Channels : 2
Sample Rate : 44100
Precision : 16-bit
Duration : 00:05:01.63 = 13301839 samples = 22622.2 CDDA sectors
File Size : 12.2M
Bit Rate : 324k
Sample Encoding: MPEG audio (layer I, II or III)
Comments :
Title=Need to Be Broken
Artist=IntoxXxicated
Album=Rage
Tracknumber=3/7
Year=2020
Genre=9
Discnumber=1/1

[/more]

Register
(8) AHBAnep, boby9052, gwar, kessler, Militia, Olethros, thrashiac55, Vladimir,
Mar 25 2020, 17:41:53 Advent - Blue Pale Dot (2020)


*Artist: Advent
*Album: Blue Pale Dot
*Year: 2020
*Genre: Doom/Death Metal
*Country: Russian Federation
*Format: mp3@CBR320kbps
*Size: 123MB

Tracklist:
1. Wrath of the Sun 08:41
2. Melting of Mountains 06:17
3. Desert of Ages 05:38
4. Breaker of Winds 07:06
5. Radiant Termination 05:30
6. Remembrance of the Dreaded 06:13
7. Distant Land 05:09
8. Blue Pale Dot 08:40
******************************
Total playing time: 53:14



[more=Extended info]Gweld Anobaith All instruments (2012-present)
See also: Асфодел, ex-Prison of Mirrors
Lifestealer Vocals (2012-present)[/more]

[more=Technical info]
Input File: Advent - Blue Pale Dot - 03 Desert of Ages.mp3
Channels : 2
Sample Rate : 44100
Precision : 16-bit
Duration : 00:05:38.10 = 14909990 samples = 25357.1 CDDA sectors
File Size : 13.6M
Bit Rate : 323k
Sample Encoding: MPEG audio (layer I, II or III)
Comments :
Title=Desert of Ages
Artist=Advent
Album=Blue Pale Dot
Tracknumber=3
Year=2020

[/more]

Register
(5) Olethros, Ostinato, robertho777, VALERY, varlam4,
Mar 25 2020, 17:05:07 Dorblack - Deep Waters Still Run (2020)


*Artist: Dorblack
*Album: Deep Waters Still Run
*Year: 2020
*Genre: Black Metal
*Country: Belarus
*Format: mp3@CBR320kbps
*Size: 77MB

Tracklist:
01. Entrance 01:53
02. The Chasing Chasm 05:22
03. In The Maze Of Transparency 04:05
04. The Shell 03:38
05. Deep Waters 02:55
06. He 04:04
07. Tebja (Dolphin Cover) 05:17
08. Anquish I Feed 06:01
******************************
Total playing time: 33:15


Preview 2

[more=Extended info][youtube]YmTuRSSO8qs[/youtube][/more]

[more=Technical info]
Input File: 03 - In The Maze Of Transparency.mp3
Channels : 2
Sample Rate : 44100
Precision : 16-bit
Duration : 00:04:05.31 = 10817995 samples = 18398 CDDA sectors
File Size : 9.93M
Bit Rate : 324k
Sample Encoding: MPEG audio (layer I, II or III)
Comments :
Title=In The Maze Of Transparency
Artist=Dorblack
Album=Deep Waters Still Run
Tracknumber=3
Year=2020
Genre=Rock

[/more]

Register
(11) 1968_janeart, atavist, Doooomed, infiltrator, kim666, multizwilling, Olethros, robertho777, satanist666, VALERY, vasiljev_sergej,
Mar 25 2020, 06:24:08 Aspired Infliction - Artfully Imprisoned (2020)


*Artist: Aspired Infliction
*Album: Artfully Imprisoned
*Year: 2020
*Genre: Melodic Death/Thrash Metal
*Country: United States
*Format: mp3@CBR320kbps
*Size: 112MB

Tracklist:
1. The Cage 02:17
2. Artfully Imprisoned 04:23
3. Like Lambs to the Slaughter 03:19
4. Uprising 03:28
5. Hauntingly Beautiful 04:02
6. Sojourn 03:57
7. Convolution 03:40
8. Fates Intertwined 03:36
9. The Burning 03:57
10. The Dark Exile 04:41
11. Prison Break 04:40
12. Odyssey 05:54
******************************
Total playing time: 47:54




[more=Extended info]Mike Marlinski Guitars
Tony Vocals
Timothy P. Drums
Jay Guitars
Ryan Bass
[youtube]GxPHuAhd2f0[/youtube][/more]

[more=Technical info]
Input File: 05 - Hauntingly Beautiful.mp3
Channels : 2
Sample Rate : 44100
Precision : 16-bit
Duration : 00:04:02.28 = 10684372 samples = 18170.7 CDDA sectors
File Size : 9.86M
Bit Rate : 326k
Sample Encoding: MPEG audio (layer I, II or III)
Comments :
Title=Hauntingly Beautiful
Artist=Aspired Infliction
Album=Artfully Imprisoned
Tracknumber=5
Year=2020

[/more]

Register
(13) atavist, boby9052, infiltrator, metala, multizwilling, Olethros, sergsazan, stumpheavyrock, VALERY, varlam4, Vladimir, zhol, Сварог Барг,
Mar 25 2020, 04:31:43 The Porridgeface - Life Is Dead (2020)


*Artist: The Porridgeface
*Album: Life Is Dead
*Year: 2020
*Genre: Thrash/Speed Metal
*Country: Sweden
*Format: mp3@CBR320kbps
*Size: 86MB

Tracklist:
1. Heavenblast 05:51
2. Chaos Unleashed 05:32
3. Anarchy 04:02
4. Last Caress 04:34
5. The Throne of God Abandoned 06:13
6. In Blackness You Dwell 05:51
7. Life Is Dead 04:38
******************************
Total playing time: 36:41




[more=Extended info]Anders Lindberg All instruments, Vocals (1991-?)
See also: ex-Age of Nefarious, ex-Excöriator, ex-Gaslarm, ex-HeadQuaker, ex-Psychotrone, ex-Secret Attack
Michael "MettleAngel" Francisco Lyrics (2012-?)
[youtube]-xnPMIYHZXY[/youtube][/more]

[more=Technical info]
Input File: 04 - Last Caress.mp3
Channels : 2
Sample Rate : 44100
Precision : 16-bit
Duration : 00:04:34.36 = 12099100 samples = 20576.7 CDDA sectors
File Size : 11.2M
Bit Rate : 327k
Sample Encoding: MPEG audio (layer I, II or III)
Comments :
Title=Last Caress
Artist=The Porridgeface
Album=Life Is Dead
Tracknumber=4
Year=2020

[/more]

Register
(4) boby9052, gwar, HMHamster, stumpheavyrock,
Mar 25 2020, 04:05:23 Nomad - Transmogrification (Partus) (2020)
Cloud Mail 320 + Bonus Disk EP 2015
Register
(8) atavist, Doooomed, infiltrator, Mist13Signifier, Sanctus, supremo, wolverine, wtk.412,
Mar 25 2020, 03:37:12 Grimirg - From The Barren Womb Of Night (2020)
Cloud Mail 320
Register
(3) AlexSmith, infiltrator, RUDACHUR,
Mar 25 2020, 03:34:14 Molder - Vanished Cadavers (2020)
Cloud Mail 320
Register
(8) 666kolobok666, AHBAnep, atavist, boby9052, infiltrator, multizwilling, serjred, zhol,
Mar 24 2020, 22:34:05 Lamentari - Missa Pro Defunctis [ep] (2020)


*Artist: Lamentari
*Album: Missa Pro Defunctis [ep]
*Year: 2020
*Genre: Symphonic Black Metal
*Country: Denmark
*Format: mp3@CBR320kbps
*Size: 60MB

Tracklist:
01. Introitus
02. Dies Irae
03. Lacrimosa
04. Confutatis
******************************
Total playing time: 26:46



[more=Extended info]Max Uldahl Pedersen – Keys
Emil Holst Partsch – Guitar
Francisco “FURAN” Fuentes – Vocals
Jon Elmquist Schmidt – Drums
Thomas Fischer – Bass
Daniel Lønberg – Vocals (Live)
Ingolf Sebastian Schjødt – Guitar (Live)
Eskil Rask – Bass (Live)
Thomas Mascagni – Drums (Live)
[youtube]jYC55wxS4TI[/youtube][/more]

[more=Technical info]
Input File: 03 - Lacrimosa.mp3
Channels : 2
Sample Rate : 44100
Precision : 16-bit
Duration : 00:06:30.64 = 17227048 samples = 29297.7 CDDA sectors
File Size : 15.6M
Bit Rate : 320k
Sample Encoding: MPEG audio (layer I, II or III)
Comments :
Title=Lacrimosa
Artist=Lamentari
Album=Missa Pro Defunctis
Tracknumber=3
Year=2020
Genre=Black Metal

[/more]

Register
(21) Bregon, infiltrator, kim666, metalwoman, morbidangelo, moscva70, Olethros, Ostinato, rauhnacht, robertho777, Sanctus, satanist666, senecazm, sergsazan, thenecromancer, VALERY, vasiljev_sergej, vov7609, yuratroll, zhol, Сварог Барг,
Mar 24 2020, 20:03:02 Automb - Chaosophy (2020)


*Artist: Automb
*Album: Chaosophy
*Year: 2020
*Genre: Black Metal
*Country: United States
*Format: mp3@CBR320kbps
*Size: 88MB

Tracklist:
1. Path of Return 01:08
2. Transmigration Omega 05:15
3. Chaosophy 04:59
4. Serpent of the Night 05:05
5. Selbstgott 05:25
6. Hel 04:19
7. Trishula 04:12
8. Cosmig Tyranny 04:20
9. Ragnarok 06:34
******************************
Total playing time: 41:17




[more=Extended info]Scott Fuller Drums
See also: Annihilated, Errorgeist, Morbid Angel, Steelsong, Incinerated Divinity, Plaguereaper, ex-Abysmal Dawn, ex-Havok, ex-Sentinel Beast, ex-Skitzo, ex-Jungle Rot (live), ex-Acridious
Serge Streltsov Guitars
See also: Dreadeth, Haxxan, ex-Grisly Amputation, ex-Incinerate Creation, ex-Necrophagia, ex-Bloodwraith
Danielle Evans Vocals, Bass, Keyboards[/more]

[more=Technical info]
Input File: 04. Serpent of the Night.mp3
Channels : 2
Sample Rate : 44100
Precision : 16-bit
Duration : 00:05:05.63 = 13478107 samples = 22922 CDDA sectors
File Size : 12.3M
Bit Rate : 322k
Sample Encoding: MPEG audio (layer I, II or III)
Comments :
Title=Serpent of the Night
Artist=Automb
Album=Chaosophy
Tracknumber=4/9
Year=2020
Genre=9
Discnumber=1/1

[/more]

Register
(20) Bzth, Doooomed, Firefrost, GorAtheist, infiltrator, kaldun_85, kim666, morbidangelo, Morgoth, multizwilling, nikolay81, Occultas, Olethros, satanist666, stub888, suseka, tim47, Tino, vasiljev_sergej, vovenom,
Mar 24 2020, 19:51:44 Shampoon Killer - Mankind Depravity (2020)


*Artist: Shampoon Killer
*Album: Mankind Depravity
*Year: 2020
*Genre: Brutal Death Metal
*Country: Czech Republic
*Format: mp3@CBR320kbps
*Size: 78MB

Tracklist:
1. Theater for Brainless People 03:10
2. Slaves of Unnecessary Things 03:36
3. ...End Justin for All 02:45
4. Dead Trendy Leader 03:26
5. Perpetual Decimation 03:52
6. Antitrendy Generation 03:47
7. Youtuber 02:42
8. Return of the Commercial Bastards 04:01
9. Trapped and Cursed 04:54
******************************
Total playing time: 32:13

Preview 1



[more=Extended info]Láďa Laloušek Bass
Martin Laloušek Drums
Petr "Prewith" Adamec Guitars
Petr Myšák Guitars
Petr "Cifron" Cína Vocals
Michal "Žlababa" Štěpánek Vocals[/more]

[more=Technical info]
Input File: 05. Perpetual Decimation.mp3
Channels : 2
Sample Rate : 44100
Precision : 16-bit
Duration : 00:03:52.66 = 10260394 samples = 17449.6 CDDA sectors
File Size : 9.77M
Bit Rate : 336k
Sample Encoding: MPEG audio (layer I, II or III)
Comments :
Title=Perpetual Decimation
Artist=Shampoon Killer
Album=Mankind Depravity
Tracknumber=5
Year=2020
Genre=Death

[/more]

Register
(16) alikkon, andreikun, atavist, cesar, Corpuscul, infiltrator, jollo, logunarm, maochen, metala, morbidangelo, multizwilling, Olethros, satanist666, Vladimir, vyacheslav,
Mar 24 2020, 19:38:12 Nomad - Transmogrification (Partus) (2020)


*Artist: Nomad
*Album: Transmogrification (Partus)
*Year: 2020
*Genre: Black/Death Metal
*Country: Poland
*Format: mp3@CBR320kbps
*Size: 70MB

Tracklist:
1. A Wanderer Without a Shadow 04:16
2. In the Hands of Progression 04:25
3. Clouds of Hills 03:36
4. Nomadeus 03:35
5. Pantocrator 06:38
6. The Graceful Abyss 05:16
7. Inconsolable Longing 05:03
******************************
Total playing time: 32:49





[more=Extended info]Patrick "Seth" Bilmorgh Guitars (1994-present)
See also: Behemoth (live)
Bleyzabel Balberith Vocals (1994-present)
See also: ex-Putrefaction, ex-Egoizm
Nameless Immenus Guitars (1998-present)
See also: Kira, ex-Ethelyn
Groszek Drums (2014-present)
See also: Kira, Peacemaker, ex-Subterfuge
Piotr Ślęzak Bass (2015-present)
See also: Kira
[youtube]E9R3fxjywo8[/youtube][/more]

[more=Technical info]
Input File: 05. Pantocrator.mp3
Channels : 2
Sample Rate : 44100
Precision : 16-bit
Duration : 00:06:38.29 = 17564501 samples = 29871.6 CDDA sectors
File Size : 16.1M
Bit Rate : 323k
Sample Encoding: MPEG audio (layer I, II or III)
Comments :
Title=Pantocrator
Artist=Nomad
Album=Transmogrification (Partus)
Tracknumber=5/7
Year=2020
Genre=9
Discnumber=1

[/more]

Register
(23) AHBAnep, ALEXSATHANAS, andreikun, atavist, cesar, infiltrator, metala, morbidangelo, Morgoth, multizwilling, older68, Olethros, ripper33, Sanctus, satanist666, SilentNidhogg, supremo, Tino, tOmV, VALERY, vasiljev_sergej, vov7609, vyacheslav,
Mar 24 2020, 18:19:34 Inprobus - Retribution [demo] (2020)


*Artist: Inprobus
*Album: Retribution [demo]
*Year: 2020
*Genre: Thrash/Death Metal
*Country: Slovakia
*Format: mp3@CBR320kbps
*Size: 71MB

Tracklist:
1. Retribution 05:19
2. Sucker 05:17
3. Torment & Sorrow 05:34
4. Just Push Me More 04:39
5. History Replay 05:44
6. Possessed 04:08
******************************
Total playing time: 30:41



Preview 3

[more=Extended info]Roman Macalák - bass, vocal
Richard Német - rhytm guitar
Vojtech Német - lead guitar
Szilárd Kurdi - drums[/more]

[more=Technical info]
Input File: 03 - Torment & Sorrow.mp3
Channels : 2
Sample Rate : 44100
Precision : 16-bit
Duration : 00:05:34.36 = 14745364 samples = 25077.1 CDDA sectors
File Size : 13.5M
Bit Rate : 323k
Sample Encoding: MPEG audio (layer I, II or III)
Comments :
Title=Torment & Sorrow
Artist=Inprobus
Album=Retribution
Tracknumber=3
Year=2020-03-23
Genre=Rock
Discnumber=1

[/more]

Register
(9) alikkon, Corpuscul, infiltrator, morbidangelo, Olethros, satanist666, stumpheavyrock, thrashiac55, wgs73,
Mar 24 2020, 16:21:08 Absolva - Side By Side (2020)


*Artist: Absolva
*Album: Side By Side
*Year: 2020
*Genre: Heavy Metal
*Country: United Kingdom
*Format: mp3@CBR320kbps
*Size: 139MB

Tracklist:
1. Advocate Your Fate
2. Burning Star
3. The Sky's Your Limit
4. Side by Side
5. Living a Lie
6. Legion
7. Eternal Soul
8. End of Days
9. Heart Let's Go
10. From This World
11. 2 Minutes to Midnight (Iron Maiden cover)
12. Heaven and Hell (Black Sabbath cover)
******************************
Total playing time: 1:00:23



[more=Extended info]Karl Schramm - Bass (Blaze Bayley)
Martin McNee - Drums (Blaze Bayley, Fury UK)
Luke Appleton - Guitars, Vocals (Iced Earth, Blaze Bayley, Fury UK)
Chris Appleton - Lead Vocals, Guitars (Chris Appleton, Blaze Bayley, Fury UK)
[youtube]0AVM7xd9-XI[/youtube][/more]

[more=Technical info]
Input File: 04 Side by Side.mp3
Channels : 2
Sample Rate : 44100
Precision : 16-bit
Duration : 00:04:39.53 = 12327053 samples = 20964.4 CDDA sectors
File Size : 11.2M
Bit Rate : 320k
Sample Encoding: MPEG audio (layer I, II or III)
Comments :
Title=Side By Side
Artist=Absolva
Album=Side By Side
Tracknumber=4/12/12
Year=2020
Genre=Metal
Discnumber=1/1

[/more]

Register
(10) AHBAnep, infiltrator, lary_veel, Mannard, metala, morbidangelo, Olethros, Rover, senecazm, varlam4,
Mar 24 2020, 16:07:17 The Malice - Legions Of The Dawn (2020)


*Artist: The Malice
*Album: Legions Of The Dawn
*Year: 2020
*Genre: Technical Death Metal
*Country: International
*Format: mp3@CBR320kbps
*Size: 77MB

Tracklist:
01. The Heirs ov Sekhmet
02. Witchery
03. Purson
04. Aeon ov Horus
05. Paimon
06. The Ophidian
07. The Son ov Midian
08. Possessed
09. Bebal
******************************
Total playing time: 32:59




[more=Extended info]Sweden / Germany
Nur-Adad Guitars, Bass, Drums (2014-present)
See also: ex-Sanctifica, ex-Crimson Moonlight, ex-Oblivion, ex-Pantokrator
Samsu-Iluna Vocals (2014-present)
See also: Goblins Blade, My Darkest Hate, Sacrificium, The Buried, Thy Bleeding Skies, ex-Mighty D., ex-Disinfect

[youtube]z_rZDGsysrA[/youtube]
[youtube]ZzP9AXZKtTo[/youtube]
[youtube]mtnNrJ9W-L4[/youtube]
[youtube]4RBn1P2bFiM[/youtube][/more]

[more=Technical info]
Input File: 04. Aeon ov Horus.mp3
Channels : 2
Sample Rate : 44100
Precision : 16-bit
Duration : 00:04:08.60 = 10963172 samples = 18644.9 CDDA sectors
File Size : 10.0M
Bit Rate : 323k
Sample Encoding: MPEG audio (layer I, II or III)
Comments :
Title=Aeon ov Horus
Artist=The Malice
Album=Legions of the Dawn
Tracknumber=4
Year=2020

[/more]

Register
(19) AHBAnep, alikkon, andreikun, atavist, cesar, chipsgott, infiltrator, metala, morbidangelo, multizwilling, older68, Olethros, SatanicPanzer, satanist666, stumpheavyrock, VALERY, Vladimir, vyacheslav, wanderer73,
Mar 24 2020, 11:41:44 Furia - Furia [ep] (2019)


*Artist: Furia
*Album: Furia [ep]
*Year: 2019
*Genre: Death/Thrash Metal
*Country: Belgium
*Format: mp3@CBR320kbps
*Size: 30MB

Tracklist:
1. Reborn from Fire 03:51
2. Freedom of the Slave 02:42
3. Digging My Grave 02:57
4. Pray for Nothing 03:18
******************************
Total playing time: 12:48



[more=Extended info]Jan Rammeloo Bass, Vocals (backing)
See also: ex-Bliksem, ex-Diablo Blvd
Toon Huet Guitars, Vocals (backing)
See also: ex-Bliksem
Martin Furia Guitars, Vocals
See also: Bark, ex-Martyr, Marginal, ex-JesusMartyr, ex-Manso Jeremías, ex-The Killing
Jozef de Ridder Drums (2020-present)
See also: Mästürbätör, ex-Objector
[youtube]ihG3x6ip4C0[/youtube][/more]

[more=Technical info]
Input File: 01 - Reborn from Fire.mp3
Channels : 2
Sample Rate : 44100
Precision : 16-bit
Duration : 00:03:51.70 = 10217794 samples = 17377.2 CDDA sectors
File Size : 9.43M
Bit Rate : 325k
Sample Encoding: MPEG audio (layer I, II or III)
Comments :
Title=Reborn from Fire
Artist=Furia
Album=Furia
Tracknumber=1
Year=2019-05-20
Genre=Metal
Discnumber=1

[/more]

Register
(14) boby9052, cesar, infiltrator, morbidangelo, multizwilling, Olethros, Ostinato, sergsazan, soulflesh, stumpheavyrock, thrashiac55, vyacheslav, wanderer73, wgs73,

744 Pages V  < 1 2 3 4 5 > » 
- Lo-Fi Version Support form
Copyrights and abuse reports form
Time is now: 28th March 2020 - 09:36:29