Welcome Guest ( Log In | Register )

История благодарностей участнику Samaritianin ::: Спасибо сказали: 227237 раз(а)
Дата поста: В теме: За сообщение: Спасибо сказали:
Nov 10 2019, 22:58:26 Loathing - Dawn Of Mourning [ep] (2019)


*Artist: Loathing
*Album: Dawn Of Mourning [ep]
*Year: 2019
*Genre: Doom/Death Metal
*Country: Greece
*Format: mp3@CBR320kbps
*Size: 41MB

Tracklist:
1. Bereavement 05:17
2. God Lay Dead In Heaven 05:22
******************************
Total playing time: 10:39




[more=Extended info]CD-Rip+Covers
Marios Batalias Everything
See also: ex-Flesh Martyr
[youtube]O8JyyTzmSlE[/youtube][/more]

[more=Technical info]
Input File: 02 - God Lay Dead In Heaven.mp3
Channels : 2
Sample Rate : 44100
Precision : 16-bit
Duration : 00:05:24.02 = 14289150 samples = 24301.3 CDDA sectors
File Size : 13.2M
Bit Rate : 327k
Sample Encoding: MPEG audio (layer I, II or III)
Comments :
Title=God Lay Dead In Heaven
Artist=Loathing
Album=Dawn Of Mourning
Tracknumber=2
Year=2019
Genre=Doom Metal

[/more]

Register
(15) kluval, LightWizard, Olethros, Ostinato, pothead, raattent, robertho777, Rosen, russ777, Sanctus, sergsazan, Shadechaser, stumpheavyrock, VALERY, vyacheslav,
Nov 10 2019, 22:14:43 Witchspëll - Demons [ep] (2019)


*Artist: Witchspëll
*Album: Demons [ep]
*Year: 2019
*Genre: Heavy/Speed Metal
*Country: Mexico
*Format: mp3@CBR320kbps
*Size: 54MB

Tracklist:
1. Demons
2. Downtown Warriors
3. Mistress Lilith
4. Métal Hurlant
5. King Ghidorah
******************************
Total playing time: 23:32




[more=Extended info]Adrián Carbajal – Vocals, Guitars
Kevin Chavez - Guitars
Harold Rentería - Bass
Daniel Luna – Drums
[youtube]qd8O2zCHysM[/youtube][/more]

[more=Technical info]
Input File: 03 - Mistress Lilith.mp3
Channels : 2
Sample Rate : 44100
Precision : 16-bit
Duration : 00:06:10.36 = 16332788 samples = 27776.9 CDDA sectors
File Size : 14.9M
Bit Rate : 323k
Sample Encoding: MPEG audio (layer I, II or III)
Comments :
Title=Mistress Lilith
Artist=Witchspëll
Album=Demons
Tracknumber=3
Year=2019-10-31
Genre=Metal
Discnumber=1

[/more]

Register
(15) Asketto, aviacademy, Foneg, LightWizard, metala, metalwoman, Olethros, Rosen, Rover, sergsazan, stumpheavyrock, thrashiac, Wail, wgs73, Сварог Барг,
Nov 10 2019, 21:15:32 Hideous Monarch - The God's Extinction [ep] (2019)


*Artist: Hideous Monarch
*Album: The God's Extinction [ep]
*Year: 2019
*Genre: Death Metal
*Country: Brazil
*Format: mp3@CBR320kbps
*Size: 50MB

Tracklist:
1. Cult of Self Flagellation 05:36
2. Heretic 04:39
3. Hatred Embryo 04:36
4. Divine Execution 03:42
5. ...and Immortals Shall Rise (Rebaelliun cover) 02:46
******************************
Total playing time: 21:19




[more=Extended info]Julian Acosta Bass
Iuri Ravel Drums
Ivan Lopes Guitars
Stefan Santos Guitars
Claudio Cardoso Vocals
[youtube]mXrRd0UArMY[/youtube][/more]

[more=Technical info]
Input File: 03 - Hatred Embryo.mp3
Channels : 2
Sample Rate : 44100
Precision : 16-bit
Duration : 00:04:36.47 = 12192283 samples = 20735.2 CDDA sectors
File Size : 11.2M
Bit Rate : 324k
Sample Encoding: MPEG audio (layer I, II or III)
Comments :
Title=Hatred Embryo
Artist=Hideous Monarch
Album=The God's Extinction
Tracknumber=3
Year=2019-11-08
Discnumber=1

[/more]

Register
(5) Olethros, Ostinato, Rosen, VALERY, vyacheslav,
Nov 10 2019, 20:54:35 Sinister Threat - Self (2019)


*Artist: Sinister Threat
*Album: Self
*Year: 2019
*Genre: Melodic Death Metal
*Country: United States
*Format: mp3@CBR320kbps
*Size: 82MB

Tracklist:
1. Of Rage and Hate 05:30
2. Moon 03:18
3. Under the Devil's Wing 04:01
4. Self 06:27
5. Lucid Madness 04:25
6. Hell's Legend 03:14
7. Otherside 03:31
8. To Know What Cannot Be Known 04:47
******************************
Total playing time: 35:13




[more=Extended info]Альбом записан в 2017 году
John Hollandsworth Guitars, Keyboards
David Brandt Guitars, Vocals, Keyboards
[youtube]Tgun4Vbkzaw[/youtube]
[youtube]1d8ARA5mji0[/youtube][/more]

[more=Technical info]
Input File: 03 Under The Devil\'s Wing.mp3
Channels : 2
Sample Rate : 44100
Precision : 16-bit
Duration : 00:04:01.31 = 10641595 samples = 18098 CDDA sectors
File Size : 9.79M
Bit Rate : 325k
Sample Encoding: MPEG audio (layer I, II or III)
Comments :
Title=Under The Devil's Wing
Artist=Sinister Threat
Album=Self
Tracknumber=3
Year=2019

[/more]

Register
(7) kiol1, Olethros, Rosen, sergsazan, VALERY, zhol, Сварог Барг,
Nov 10 2019, 20:18:56 Lord Mantis - Universal Death Church (2019)


*Artist: Lord Mantis
*Album: Universal Death Church
*Year: 2019
*Genre: Blackened Sludge
*Country: United States
*Format: mp3@CBR320kbps
*Size: 104MB

Tracklist:
1. Santa Muerte 02:35
2. God's Animal 05:49
3. Qliphotic Alpha 07:10
4. Consciousness.exe 03:37
5. Low Entropy Narcosis 03:20
6. Damocles Falls 04:53
7. Fleshworld 08:12
8. Hole 08:46
******************************
Total playing time: 44:22





[more=Extended info]Charlie Fell Vocals, Bass
Andrew Markuszewski Guitars, Vocals
Ken Sorceron Guitars, Vocals
Bryce Butler Drums
[youtube]R1_6wqErCIo[/youtube][/more]

[more=Technical info]
Input File: 2 - God's Animal - Lord Mantis.mp3
Channels : 2
Sample Rate : 44100
Precision : 16-bit
Duration : 00:05:49.54 = 15414714 samples = 26215.5 CDDA sectors
File Size : 14.3M
Bit Rate : 326k
Sample Encoding: MPEG audio (layer I, II or III)
Comments :
Title=God's Animal
Artist=Lord Mantis
Album=Universal Death Church
Tracknumber=2/8
Year=2019
Genre=Metal
Discnumber=1/1

[/more]

Register
(22) cist, dalek, ErikGoth, gena, infozahist, metala, multizwilling, nemx, Occultas, Ostinato, plagueofflies, Rosen, Strygaldwir, stub888, sunkilmoon, svartrest, tim47, Tyrone, VALERY, Vidder242, vov7609, yuratroll,
Nov 10 2019, 19:52:34 Darktower - Obedientia (2019)


*Artist: Darktower
*Album: Obedientia
*Year: 2019
*Genre: Black/Death Metal
*Country: Brazil
*Format: mp3@CBR320kbps
*Size: 90MB

Tracklist:
1. Punishment
2. Downfall
3. God Above Nothing
4. Highland Ceremony
5. Winged Snake Communion
6. Praxis Against Ignorance
7. Obedientia
8. Rites of Conscience
9. The Carnal Esplendour
10. ...as the Obedient Marches to the Abyss...
******************************
Total playing time: 41:42



[more=Extended info]R. Ferreira Drums (2006-2016), Vocals (clean) (2006-present), Bass (2016-present)
See also: ex-Belial War, ex-Berkaial, ex-Vociferatus (live)
F. Gonçalves Vocals (2006-present)
See also: ex-Belial War, Uncrowned, ex-Impacto Profano (live), ex-Exhumed Christ
R. Casotto Guitars (2013-present)
See also: ex-Pagan Throne
R. Morais Guitars (2016-present)
R. Grilo Drums (2018-present)
See also: Gutted Souls (live)
[youtube]EZwFFJQgk2E[/youtube]
[youtube]ZEsaqUd0sYM[/youtube][/more]

[more=Technical info]
Input File: 03. God Above Nothing.mp3
Channels : 2
Sample Rate : 44100
Precision : 16-bit
Duration : 00:05:14.20 = 13856000 samples = 23564.6 CDDA sectors
File Size : 12.7M
Bit Rate : 324k
Sample Encoding: MPEG audio (layer I, II or III)
Comments :
Title=God Above Nothing
Artist=DarkTower
Album=Obedientia
Tracknumber=3/10
Year=2019
Genre=17
Discnumber=1/1

[/more]

Register
(13) alikkon, atavist, cist, multizwilling, Olethros, Reverend, Rosen, Shadechaser, sta1081, VALERY, vasiljev_sergej, vov7609, Сварог Барг,
Nov 10 2019, 19:20:50 Runenwacht - Gjallar Erschallt (2019)


*Artist: Runenwacht
*Album: Gjallar Erschallt
*Year: 2019
*Genre: Black Metal
*Country: Germany
*Format: mp3@CBR320kbps
*Size: 106MB

Tracklist:
1. MG42 02:25
2. Blutgeweiht 04:03
3. Gjallar erschallt 04:48
4. Lied der Seherin 04:31
5. Wilde Jagd 05:36
6. Als das Glück verschwand 05:34
7. Fleischopfer 04:34
8. Exekution Menschheit 05:30
9. Freija heile diese kranke Welt 06:05
10. Fuck Pax Christi 03:17
******************************
Total playing time: 46:23



[more=Extended info]Rex Guitars, Bass, Vocals
Sturmkaiser Drums
[youtube]fDYXaFvPyMg[/youtube]
[youtube]3cFWdBPGIVA[/youtube][/more]

[more=Technical info]
Input File: 05 - Wilde Jagd.mp3
Channels : 2
Sample Rate : 44100
Precision : 16-bit
Duration : 00:05:36.45 = 14837401 samples = 25233.7 CDDA sectors
File Size : 13.6M
Bit Rate : 323k
Sample Encoding: MPEG audio (layer I, II or III)
Comments :
Title=Wilde Jagd
Artist=Runenwacht
Album=Gjallar Erschallt
Tracknumber=5
Year=2019

[/more]

Register
(20) 1968_janeart, alikkon, atavist, autumnwood, ErikGoth, judaz, kim666, multizwilling, Olethros, Ostinato, raaf, Rosen, stub888, suseka, thenecromancer, tim47, VALERY, vasiljev_sergej, Vidder242, zotyo1975,
Nov 10 2019, 19:05:12 Blightmass - Severed From Your Soul (2019)


*Artist: Blightmass
*Album: Severed From Your Soul
*Year: 2019
*Genre: Old School Death Metal
*Country: International
*Format: mp3@CBR320kbps
*Size: 96MB

Tracklist:
1. Pale Child (intro) 01:51
2. My Embrace 04:03
3. Destruction Inevitable 03:28
4. Misery from Martyrdom 02:53
5. Invert Ascension 03:55
6. Severed from Your Soul 03:37
7. When He Wakes 02:22
8. Grave Hatred 04:41
9. Scorched Atrocity 02:47
10. They Will Listen to the Dead 05:20
11. To Have Bled the Price 04:06
12. Vision of Desolation (outro) 02:31
13. Black Star (Carcass cover) 03:29
******************************
Total playing time: 45:03




[more=Extended info]France / USA

Ullerkens Bass (2019-present)
See also: ex-Purgatory Unleashed
Splathammer Drums (2019-present)
See also: Poisöncharge, Temple of Worms, Dysylumn (live), ex-Purgatory Unleashed
Nattewølf Guitars (2019-present)
See also: Wolfshade, ex-Purgatory Unleashed
Enteronecrophile Guitars (2019-present)
See also: Angel's Sperm, ex-Purgatory Unleashed
Jechael Vocals (2019-present)
See also: Diabolic, Nakhiel, Promethean Horde, The Absence (live), ex-Blastmasters, ex-Purgatory Unleashed, Lull Me to Larvae, ex-Amon, ex-Crimson Massacre, ex-Success Will Write Apocalypse Across the Sky, ex-After Death, ex-Evixion
[youtube]aUF3xyELQGU[/youtube][/more]

[more=Technical info]
Input File: 06. Severed from Your Soul.mp3
Channels : 2
Sample Rate : 44100
Precision : 16-bit
Duration : 00:03:37.35 = 9585311 samples = 16301.5 CDDA sectors
File Size : 8.80M
Bit Rate : 324k
Sample Encoding: MPEG audio (layer I, II or III)
Comments :
Title=Severed from Your Soul
Artist=BlightMass
Album=Severed from Your Soul
Tracknumber=6/13
Year=2019
Discnumber=1/1

[/more]

Register
(21) alikkon, andreikun, cist, DarkHorde, desekrator, Foneg, jollo, judaz, multizwilling, Olethros, Ostinato, Rosen, sergsazan, soulflesh, stumpheavyrock, THROWER666, Tino, VALERY, vyacheslav, Wail, zhol,
Nov 10 2019, 14:14:08 The Konstellation - The Vision And The Voice (2019)


*Artist: The Konstellation
*Album: The Vision And The Voice
*Year: 2019
*Genre: Progressive Death/Black Metal
*Country: Netherlands
*Format: mp3@CBR320kbps
*Size: 95MB

Tracklist:
1. Intro 02:11
2. Sun and Moon 04:20
3. Passion Overture 08:21
4. The Vision and the Voice 04:43
5. Horns of White (And Black and Gold) 04:46
6. Mysteries of Zen 05:54
7. For I Am Peace 05:14
8. The Vesica Piscis 05:29
******************************
Total playing time: 40:58



[more=Extended info]OM Vocals, Music, Lyrics
See also: ex-Tenowar, ex-Funebre (live), ex-Damned Spirits' Dance, ex-Baskíria
Botyánszki Balázs Drummer (2018-present)
See also: Sin of God
Æ Bass (2019-present)
See also: Paragon Zero, Svoid (live), ex-Darktempered, ex-Mallior, ex-Pagan Megalith, ex-Deathstruck, ex-Dispassion, ex-CageDeadDogs, ex-Kyliga Dälen, ex-Sickdom
[youtube]yYQFuMo2N8g[/youtube]
[youtube]jthy3hh9bdQ[/youtube][/more]

[more=Technical info]
Input File: 04 - The Vision and the Voice.mp3
Channels : 2
Sample Rate : 44100
Precision : 16-bit
Duration : 00:04:43.60 = 12506804 samples = 21270.1 CDDA sectors
File Size : 11.5M
Bit Rate : 324k
Sample Encoding: MPEG audio (layer I, II or III)
Comments :
Title=The Vision and the Voice
Artist=The Konstellation
Album=The Vision and the Voice
Tracknumber=4
Year=2019-11-09
Genre=Metal
Discnumber=1

[/more]

Register
(9) cist, metala, Olethros, Rosen, soulflesh, VALERY, vasiljev_sergej, vov7609, yuratroll,
Nov 10 2019, 13:35:16 Prophettica - Eterno (2019)


*Artist: Prophettica
*Album: Eterno
*Year: 2019
*Genre: Heavy Metal
*Country: Brazil
*Format: mp3@CBR320kbps
*Size: 68MB

Tracklist:
1. Intro Vale Da Morte
2. A Cura
3. Eterno
4. Amanha
5. Nunca Desistir
6. Toda Dor
7. Julgamento
******************************
Total playing time: 29:17



[more=Extended info]Rodolfo Alencar Vocal
Ronaldo Depestilli Baixo
Junior Tavares guitarra
Alexandre Santana Bateria e voz
[youtube]t8v6MFI6PLg[/youtube][/more]

[more=Technical info]
Input File: 04 - Amanhã.mp3
Channels : 2
Sample Rate : 44100
Precision : 16-bit
Duration : 00:05:14.30 = 13860454 samples = 23572.2 CDDA sectors
File Size : 12.7M
Bit Rate : 324k
Sample Encoding: MPEG audio (layer I, II or III)
Comments :
Title=Amanhã
Artist=Prophettica
Album=Eterno
Tracknumber=4
Year=2019

[/more]

Register
(5) aviacademy, Olethros, Rosen, Rover, Сварог Барг,
Nov 10 2019, 13:18:23 Northerion - Sky Above//Sea Below (2019)


*Artist: Northerion
*Album: Sky Above//Sea Below
*Year: 2019
*Genre: Heavy Metal
*Country: Germany
*Format: mp3@CBR320kbps
*Size: 112MB

Tracklist:
1. Intro 00:54
2. To the Raging Tides 06:08
3. Warriors 07:00
4. Valkyries Wings 04:08
5. Under a Blazing Sky 04:35
6. The Omen of Fire 04:15
7. Now That the Night Falls 04:43
8. Last Alliance 04:12
9. When the Blade for us Will Fall 04:33
10. She, the Ocean 05:40
******************************
Total playing time: 46:08



[more=Extended info]Tim Grogor - vocals
Jorg Saathoff - guitars
Pascal Meinen - guitars
Harald Gerdes - bass
Nikolai Neumayer - drums
[youtube]f46x0GFSF3Q[/youtube]
[youtube]YDaw2U2izW4[/youtube][/more]

[more=Technical info]
Input File: 03 Warriors.mp3
Channels : 2
Sample Rate : 44100
Precision : 16-bit
Duration : 00:07:00.99 = 18565483 samples = 31574 CDDA sectors
File Size : 17.7M
Bit Rate : 336k
Sample Encoding: MPEG audio (layer I, II or III)
Comments :
Title=Warriors
Artist=Northerion
Album=Sky Above // Sea Below
Tracknumber=3/10
Year=2019
Genre=Metal
Discnumber=1/1

[/more]

Register
(12) aviacademy, BugEyes, Herrant, metala, multizwilling, Olethros, Rosen, Rover, sergsazan, stumpheavyrock, vir2al, Сварог Барг,
Nov 10 2019, 12:59:00 Blakylle - Wo Uralte Wasser Fließen (2019)


*Artist: Blakylle
*Album: Wo Uralte Wasser Fließen
*Year: 2019
*Genre: Pagan Metal
*Country: Germany
*Format: mp3@CBR320kbps
*Size: 93MB

Tracklist:
1. Aesir 04:50
2. Wo uralte Wasser fließen 05:31
3. Weiser Mann 05:51
4. Windmal 04:25
5. Der Stab 05:00
6. Die Frauen vom bleichen Wald 04:43
7. Skalde 04:45
8. Wanderer 05:07
******************************
Total playing time: 40:12




[more=Extended info]Sandro Lukaszczyk Guitars, Songwriting, Lyrics
Albert Link Bass, Vocals
Adrian Wagner Vocals
Constantin Drums
[youtube]rS1lZNTS42o[/youtube][/more]

[more=Technical info]
Input File: 03 - Weiser Mann.mp3
Channels : 2
Sample Rate : 44100
Precision : 16-bit
Duration : 00:05:51.81 = 15514821 samples = 26385.8 CDDA sectors
File Size : 14.3M
Bit Rate : 325k
Sample Encoding: MPEG audio (layer I, II or III)
Comments :
Title=Weiser Mann
Artist=Blakylle
Album=Wo uralte Wasser fließen
Tracknumber=3
Year=2019

[/more]

Register
(7) cist, Olethros, Rosen, tt2008, VALERY, zhol, Сварог Барг,
Nov 10 2019, 00:40:02 Skullpture - Reborn In Decay (2019)


*Artist: Skullpture
*Album: Reborn In Decay
*Year: 2019
*Genre: Death/Thrash Metal
*Country: Chile
*Format: mp3@CBR320kbps
*Size: 76MB

Tracklist:
1. Downfall (Intro) 00:41
2. Nine Circles of Hell 04:05
3. Ritual Ancestral 03:05
4. Hunting Humans 03:46
5. Feast with the Death 04:22
6. Xenomorph 03:52
7. Morbid Dreams 03:25
8. Human Slaughterhouse 04:24
9. The Rotten Tree 03:55
10. Respite (Outro) 00:53
******************************
Total playing time: 32:28




[more=Extended info]Daniel Rodríguez Bass (2009-present)
Pedro Donoso Guitars (2009-2011, 2017-present)
Francisco Sereño Drums (2017-present)
See also: ex-Azazeth, ex-Eriador
Francisco Quiero Vocals (2017-present)
[youtube]klEcTj7Ollw[/youtube]
[youtube]KbYXF0L9C8o[/youtube][/more]

[more=Technical info]
Input File: 05 - Feast with the Death.mp3
Channels : 2
Sample Rate : 44100
Precision : 16-bit
Duration : 00:04:22.15 = 11560947 samples = 19661.5 CDDA sectors
File Size : 10.6M
Bit Rate : 324k
Sample Encoding: MPEG audio (layer I, II or III)
Comments :
Title=Feast with the Death
Artist=SKULLPTURE
Album=Reborn in Decay
Tracknumber=5
Year=2019-11-07
Genre=Metal
Discnumber=1

[/more]

Register
(15) atavist, chipsgott, GorAtheist, jollo, metala, multizwilling, Olethros, Rosen, sergsazan, stumpheavyrock, TeamatSE, thrashiac, THROWER666, vyacheslav, wgs73,
Nov 9 2019, 20:00:26 Invaders - The Nights Of Terror [ep] (2019)


*Artist: Invaders
*Album: The Nights Of Terror [ep]
*Year: 2019
*Genre: Old School Thrash Metal
*Country: Norway
*Format: mp3@CBR320kbps
*Size: 77MB

Tracklist:
1. Punished by God 04:18
2. Thrash Metal Attack 03:38
3. Malice 04:35
4. Deathonator 03:09
5. Sick Reality 03:26
6. Butthole Ruination 07:50
7. Burial Grounds 06:02
******************************
Total playing time: 32:58



[more=Extended info]Philip Earnshaw Bass
Einar Myhren Nilsson Drums
Gabriel Foorabally Nilsen Guitars
Julian Foorabally Nilsen Guitars (2015-present)
[youtube]3tt_Q4Qsii4[/youtube]
[youtube]gyQ8XDe73lg[/youtube][/more]

[more=Technical info]
Input File: 03 - Malice.mp3
Channels : 2
Sample Rate : 44100
Precision : 16-bit
Duration : 00:04:35.19 = 12135835 samples = 20639.2 CDDA sectors
File Size : 11.2M
Bit Rate : 325k
Sample Encoding: MPEG audio (layer I, II or III)
Comments :
Title=Malice
Artist=Invaders
Album=The Nights of Terror
Tracknumber=3
Year=2019-10-18
Genre=Metal
Discnumber=1

[/more]

Register
(12) Asketto, boby9052, Diflock, multizwilling, Olethros, pedrohell, Rosen, sayfut, sergsazan, stumpheavyrock, Wail, wgs73,
Nov 9 2019, 19:28:03 Kross Of Khaoss - Slay Pride (2019)


*Artist: Kross Of Khaoss
*Album: Slay Pride
*Year: 2019
*Genre: Heavy Metal
*Country: Italy
*Format: mp3@CBR320kbps
*Size: 102MB

Tracklist:
1. Rest in Pieces 03:47
2. Machete Happens 05:50
3. Snowhite 05:09
4. Insatiable Lover 07:55
5. Undead Wishes 03:58
6. Bodygrinder 03:41
7. Slay Pride 05:36
8. Dehumanizer 03:34
9. Fire (Endless Silence) 03:48
10. Hunger 04:12
******************************
Total playing time: 47:30




[more=Extended info]Mattia "El Mataio" Martignago - vocals
Alessandro "El Grindo" Pereni - guitar
Mauro "El Cerdo" Brunelli - bass
Pierpaolo "El Pinata" Roccabella - drums
[youtube]T136r1l-TKU[/youtube]
[youtube]TUW1vU2fYqQ[/youtube][/more]

[more=Technical info]
Input File: 04. Insatiable Lover.mp3
Channels : 2
Sample Rate : 44100
Precision : 16-bit
Duration : 00:07:55.85 = 20984941 samples = 35688.7 CDDA sectors
File Size : 19.3M
Bit Rate : 324k
Sample Encoding: MPEG audio (layer I, II or III)
Comments :
Title=Insatiable Lover
Artist=Kross of Khaoss
Album=Slay Pride
Tracknumber=4/10
Year=2019
Genre=9
Discnumber=1/1

[/more]

Register
(9) aviacademy, metala, metalwoman, Olethros, postal67, Rosen, Rover, sergsazan, wgs73,
Nov 9 2019, 19:07:18 Malefication - The Pain Elemental [demo] (2019)


*Artist: Malefication
*Album: The Pain Elemental [demo]
*Year: 2019
*Genre: Death/Thrash Metal
*Country: United States
*Format: mp3@CBR320kbps
*Size: 73MB

Tracklist:
1. Icon of Iniquity 04:22
2. Habitual Evisceration 03:41
3. Diabolic Incisions 03:14
4. The Pain Elemental 04:13
5. Brutally Embalmed 05:12
6. In the Grave 03:13
7. Systematic Devourment 03:42
8. The Gate to Beyond 03:35
******************************
Total playing time: 31:12



[more=Extended info]Devin Mason All instruments, Vocals[/more]

[more=Technical info]
Input File: 04 - The Pain Elemental.mp3
Channels : 2
Sample Rate : 44100
Precision : 16-bit
Duration : 00:04:13.74 = 11189978 samples = 19030.6 CDDA sectors
File Size : 10.3M
Bit Rate : 326k
Sample Encoding: MPEG audio (layer I, II or III)
Comments :
Title=The Pain Elemental
Artist=Malefication
Album=The Pain Elemental
Tracknumber=4
Year=2019-11-08
Discnumber=1

[/more]

Register
(5) chipsgott, GorAtheist, Olethros, thrashiac, wgs73,
Nov 9 2019, 17:01:25 Headrot - Human Buffet (2016)


*Artist: Headrot
*Album: Human Buffet
*Year: 2016
*Genre: Death Metal
*Country: United States
*Format: mp3@CBR320kbps
*Size: 71MB

Tracklist:
1. Sleepless Bloodlust 03:59
2. Removing Flesh from Bone 02:51
3. Sucking Up Your Own Guts 03:43
4. Feasting upon the Flesh 03:51
5. Hammer to the Head 02:57
6. Cease to Exist 03:33
7. Pigs in Worship 04:56
8. Pathways to the Flesh 04:23
******************************
Total playing time: 30:13




[more=Extended info]В Лоу
Skip Bradshaw Drums
Mike Brown Guitars
Brian Frechette Vocals
Brian "Saton" Hall Bass
[youtube]Q12ErWFY1HI[/youtube][/more]

[more=Technical info]
Input File: 03 - Sucking Up Your Own Guts.mp3
Channels : 2
Sample Rate : 44100
Precision : 16-bit
Duration : 00:03:44.08 = 9881928 samples = 16806 CDDA sectors
File Size : 9.17M
Bit Rate : 327k
Sample Encoding: MPEG audio (layer I, II or III)
Comments :
Title=Sucking Up Your Own Guts
Artist=Headrot
Album=Human Buffet
Tracknumber=03
Year=2016
Genre=22

[/more]

Register
(3) jollo, Olethros, Rosen,
Nov 9 2019, 16:03:19 Boreal Hymn - Tundra [demo] (2019)


*Artist: Boreal Hymn
*Album: Tundra [demo]
*Year: 2019
*Genre: Folk/Pagan Metal
*Country: Canada
*Format: mp3@CBR320kbps
*Size: 46MB

Tracklist:
1. Labrynthian Graves 05:00
2. Glimmer In The Umbra 05:11
3. Banner Of Grief 03:52
4. Defiance Against The Breath Of Gods 05:59
******************************
Total playing time: 20:02



[more=Extended info][youtube]IlTT1PttYwQ[/youtube][/more]

[more=Technical info]
Input File: 02 - Glimmer in the Umbra.mp3
Channels : 2
Sample Rate : 44100
Precision : 16-bit
Duration : 00:05:11.19 = 13723347 samples = 23339 CDDA sectors
File Size : 12.5M
Bit Rate : 322k
Sample Encoding: MPEG audio (layer I, II or III)
Comments :
Title=Glimmer in the Umbra
Artist=Boreal Hymn
Album=Tundra (Demo)
Tracknumber=2
Year=2019-11-08
Genre=Alternative; Indie Rock; Metal
Discnumber=1

[/more]

Register
(17) Beazth, Cartman223, chipsgott, Druidir, evelyn, LightWizard, Ludwig Hagen, Old Vyaine, Olethros, pfk505, raattent, Rosen, RUDACHUR, thenecromancer, ZA670, zhol, Сварог Барг,
Nov 9 2019, 13:13:58 Trial By Fire - Mayhem Uncovered [ep] (2019)


*Artist: Trial By Fire
*Album: Mayhem Uncovered [ep]
*Year: 2019
*Genre: Thrash/Heavy Metal
*Country: Finland
*Format: mp3@CBR320kbps
*Size: 72MB

Tracklist:
1. Departure from Time 03:37 instrumental
2. Afterburn 04:06
3. I Am the One 05:41
4. Lost in Sorrow 06:36
5. Marching On 04:51
6. Critical Urgency 06:38
******************************
Total playing time: 31:29



[more=Extended info]Toivo Hankia Bass
Tino Porkka Drums
Totti Pakkanen Guitars
Tuure Suomalainen Vocals, Guitars
[youtube]Bmq6WANeMVA[/youtube]
[youtube]bOUaG9qhkC8[/youtube][/more]

[more=Technical info]
Input File: 03 - I Am the One.mp3
Channels : 2
Sample Rate : 44100
Precision : 16-bit
Duration : 00:05:40.08 = 14997528 samples = 25506 CDDA sectors
File Size : 13.7M
Bit Rate : 322k
Sample Encoding: MPEG audio (layer I, II or III)
Comments :
Title=I Am the One
Artist=Trial By Fire
Album=Mayhem Uncovered
Tracknumber=3
Year=2019-09-01
Genre=Metal
Discnumber=1

[/more]

Register
(9) aviacademy, cast_iron, Olethros, postal67, Rosen, Rover, stumpheavyrock, thrashiac, wgs73,
Nov 9 2019, 12:11:19 Dinograve - Into The Black [ep] (2019)


*Artist: Dinograve
*Album: Into The Black [ep]
*Year: 2019
*Genre: Melodic Death/Thrash Metal
*Country: United States
*Format: mp3@CBR320kbps
*Size: 70MB

Tracklist:
1. Violent Determination 06:02
2. Ascent to Naught 07:18
3. Winter 08:52
4. Jupiter 08:04
******************************
Total playing time: 30:16



[more=Extended info]Peter DeMore
Shaun Carmer
Ryan Smith
Alejandro Pelaez
[youtube]dkWFsxQ9dLw[/youtube]
[youtube]c1ZZYb6FZ_w[/youtube][/more]

[more=Technical info]
Input File: 03 - Winter.mp3
Channels : 2
Sample Rate : 44100
Precision : 16-bit
Duration : 00:08:52.09 = 23465213 samples = 39906.8 CDDA sectors
File Size : 21.4M
Bit Rate : 322k
Sample Encoding: MPEG audio (layer I, II or III)
Comments :
Title=Winter
Artist=Dinograve
Album=Into the Black
Tracknumber=3
Year=2019-11-09
Discnumber=1

[/more]

Register
(10) chipsgott, GorAtheist, Ludwig Hagen, Olethros, Rosen, stumpheavyrock, TeamatSE, wanderer73, zhol, Сварог Барг,
Nov 9 2019, 11:33:51 Ghusa - 25 Years Of Death Metal [compilation] (2015)


*Artist: Ghusa
*Album: 25 Years Of Death Metal [compilation]
*Year: 2015
*Genre: Old School Death Metal
*Country: France
*Format: mp3@CBR320kbps
*Size: 202MB

Tracklist:
01. Casket Garden (Dismember cover)
02. No God for the Living
03. Blessed Be (Entombed cover)
04. Genocide
05. Soulless (Grave cover)
06. The Nail
07. I'm Not the Only One
08. Letter to My Son'(s)
09. Violation Domain (Benediction cover)
10. Nechama (The Jon's Song)
11. Ponctual Choice
12. The Color
13. The Wind
14. Silence
15. RU486
16. The Warrior
17. Promo Tape 1994
******************************
Total playing time: 1:06:24




[more=Extended info]Pyromancer Drums
See also: Architect of Seth, Mylidian, Voight Kampff, Black Tears, ex-Diktat
L. Chuck D. Vocals, Guitars (1989-present)
See also: ex-Carnal Lust, ex-No Return, ex-Yorblind
Heimdall Bass (2014-present)
See also: DunkelNacht, Harshness
Vincent Bigaillon Guitars (2014-present)
See also: Blood Troopers, ex-W.I.L.D.
Romuald Potel Guitars (rhythm) (2016-present)
See also: Morzienda, Nyarlath
Brendan Duffy Drums (2018-present)
See also: Dödsrit, Morvigor
[youtube]LRpjHfa_D3s[/youtube][/more]

[more=Technical info]
Input File: 06. The Nail.mp3
Channels : 2
Sample Rate : 44100
Precision : 16-bit
Duration : 00:05:55.07 = 15658367 samples = 26629.9 CDDA sectors
File Size : 14.7M
Bit Rate : 331k
Sample Encoding: MPEG audio (layer I, II or III)
Comments :
Title=The Nail
Artist=ghUSa
Album=25 Years of Death Metal (320)
Tracknumber=06
Year=2015
Genre=Metal

[/more]

Register
(11) andreikun, older68, Olethros, Ostinato, Rosen, supremo, Tino, VALERY, vyacheslav, wanderer73, zhol,
Nov 9 2019, 10:59:25 Chalice Of Throe - Times Are Coming (2019)


*Artist: Chalice Of Throe
*Album: Times Are Coming
*Year: 2019
*Genre: Heavy/Progressive/Power Metal
*Country: Brazil
*Format: mp3@CBR320kbps
*Size: 88MB

Tracklist:
1. Ascension
2. Be Afraid
3. End of Times
4. Heart's Black Sea
5. Coming of Eris
6. In Your Eyes
7. Rising Sun
8. Thread of the Fate
******************************
Total playing time: 37:01



[more=Extended info][youtube]sycpdgCf4ks[/youtube]
[youtube]OruGx5C2xuI[/youtube][/more]

[more=Technical info]
Input File: 03 - End of Times.mp3
Channels : 2
Sample Rate : 44100
Precision : 16-bit
Duration : 00:05:51.58 = 15504590 samples = 26368.4 CDDA sectors
File Size : 14.3M
Bit Rate : 324k
Sample Encoding: MPEG audio (layer I, II or III)
Comments :
Title=End of Times
Artist=Chalice Of Throe
Album=Times Are Coming
Tracknumber=3
Year=2019
Genre=Heavy Metal
Discnumber=1

[/more]

Register
(9) aviacademy, Herrant, metala, Olethros, postal67, Rosen, Rover, stumpheavyrock, Сварог Барг,
Nov 9 2019, 10:39:34 Shaped In Dreams - Echoes Of Eldren Deeds (2019)


*Artist: Shaped In Dreams
*Album: Echoes Of Eldren Deeds
*Year: 2019
*Genre: Progressive Melodic Death Metal
*Country: Germany
*Format: mp3@CBR320kbps
*Size: 108MB

Tracklist:
1. A Vault Roamed by Memory 02:47 instrumental
2. Fire Within 06:08
3. ...and Warmth Remained 05:12 instrumental
4. Mere Illusion 05:24
5. A Giant to Face 06:21
6. Thrilled for the Brawl 06:08
7. At the Caverns of Sleep 04:00 instrumental
8. As Life Awakens 04:28
9. Time Turned into Memory 06:30 instrumental
******************************
Total playing time: 46:58




[more=Extended info]Martin Matiasovic - Rhythm, Lead and Acoustic Guitars, French Horn, Composing, Arranging, Production, Editing, Lyrics
James Dorton - Vocals
Linus Klausenitzer - Bass
Marc Dzierzon - Drums
[youtube]qEdko-0joUM[/youtube]
[youtube]qDoCPO73-g0[/youtube][/more]

[more=Technical info]
Input File: 03 - And Warmth Remained.mp3
Channels : 2
Sample Rate : 44100
Precision : 16-bit
Duration : 00:04:52.80 = 12912304 samples = 21959.7 CDDA sectors
File Size : 11.9M
Bit Rate : 325k
Sample Encoding: MPEG audio (layer I, II or III)
Comments :
Title=And Warmth Remained
Artist=Shaped in Dreams
Album=Echoes of Eldren Deeds
Tracknumber=3
Year=2019

[/more]

Register
(10) Korpse, metala, metaljosue, Olethros, qazaqra, realexxx75, Rosen, Sanctus, VALERY, zhol,
Nov 8 2019, 13:26:13 Oniric Prison - Oniric Prison [ep] (2019)


*Artist: Oniric Prison
*Album: Oniric Prison [ep]
*Year: 2019
*Genre: Thrash/Death Metal
*Country: Spain
*Format: mp3@CBR320kbps
*Size: 42MB

Tracklist:
1. Blood Manifest 02:18
2. Private Hell 03:25
3. The Unknown 04:11
4. Reality Overdose 03:58
5. Beyond the Grave 04:15
******************************
Total playing time: 18:07



[more=Extended info]Gerardo Díaz - Vocals & Guitars
Francisco Benitez - Guitars & Backing vocals
Chema Sillero - Bass & Backing vocals
Javier Quirosa - Drums
[youtube]-gn-b0AC22w[/youtube][/more]

[more=Technical info]
Input File: 03 - The Unknown.mp3
Channels : 2
Sample Rate : 44100
Precision : 16-bit
Duration : 00:04:12.02 = 11113950 samples = 18901.3 CDDA sectors
File Size : 10.2M
Bit Rate : 325k
Sample Encoding: MPEG audio (layer I, II or III)
Comments :
Title=The Unknown
Artist=Oniric Prison
Album=Oniric Prison
Tracknumber=3
Year=2019-10-27
Genre=Metal
Discnumber=1

[/more]

Register
(7) GorAtheist, Olethros, Rosen, sergsazan, stumpheavyrock, thrashiac, wgs73,
Nov 8 2019, 12:49:01 Spectral - Between Life And Death (2019)


*Artist: Spectral
*Album: Between Life And Death
*Year: 2019
*Genre: Thrash Metal
*Country: Colombia
*Format: mp3@CBR320kbps
*Size: 64MB

Tracklist:
1. Morbid Atrocity 03:39
2. Reach of Doom 04:44
3. Thrashing With Hell Fire 03:25
4. Firing Squad 03:26
5. Spectral 03:38
6. Victim(izer) 03:58
7. Hereje 05:03
******************************
Total playing time: 27:53




[more=Extended info]Freeman Bass, Vocals
Hector Drums
See also: Border Terror
Jr. Guitars
Tabares Guitars
Santiago Vocals
See also: Bullets
[youtube]11TL5VceTBI[/youtube][/more]

[more=Technical info]
Input File: 02 - Reach of Doom.mp3
Channels : 2
Sample Rate : 44100
Precision : 16-bit
Duration : 00:04:44.36 = 12540188 samples = 21326.9 CDDA sectors
File Size : 11.5M
Bit Rate : 323k
Sample Encoding: MPEG audio (layer I, II or III)
Comments :
Title=Reach of Doom
Artist=Spectral
Album=Between Life and Death
Tracknumber=2
Year=2019-11-03
Discnumber=1

[/more]

Register
(17) andreikun, atavist, boby9052, gwar, maoniu08, metala, MMMMM, multizwilling, Olethros, pichileon, postal67, Rosen, sayfut, sergsazan, stumpheavyrock, thrashiac, wgs73,

680 Pages V  < 1 2 3 4 5 > » 
- Lo-Fi Version Support form
Copyrights and abuse reports form
Time is now: 15th November 2019 - 13:20:50