Welcome Guest ( Log In | Register )

История благодарностей участнику Xutun ::: Спасибо сказали: 207 раз(а)
Дата поста: В теме: За сообщение: Спасибо сказали:
Feb 4 2023, 11:39:52 Metallica - Leftovers From The Black Album Box Set [compilation] (2023)
ЦИТАТА(alicons @ Feb 4 2023, 12:11:55) *
Нахєра???

ЦИТАТА(Grummegargler @ Feb 4 2023, 12:35:51) *
...а главное ЗАЧЕМ?)

ЦИТАТА(maxmagmas @ Feb 4 2023, 13:12:36) *
И ПОЧЕМУ?

Их, ещё, никто не отменял Оскар
(1) Yarri,
Aug 23 2022, 14:15:38 Лучшие альбомы в дум метале за 2022 // Best Doom Metal Albums of 2022
Talsur - Dark
(2) 6666666, metaljosue,
Jul 3 2022, 18:53:20 Flegma - Eine Kleine Schlacht - Musik [ep] (1990)


*Artist: Flegma
*Album: Eine Kleine Schlacht - Musik [ep]
*Year: 1990
*Genre: Hardcore/Thrash Metal
*Country: Sweden
*Format: flac
*Size: 73MB

Tracklist:
1. Tune In, Turn On, Drop Out / Wasted Life 4:02
2. I'm O.K. 1:17
3. Fiend of the State 1:53
4. Lovetrap 2:09
5. Ultra Bizarre 1:55
6. Armageddon 0:48
******************************
Total playing time: 12:04

[more=Extended info]На одном известном ресурсе указано, что это 12". В реале - 7"
Limited Edition - 1150 copies.[/more]

Register
(7) boby9052, chipsgott, hell_armageddon, Marek, Proteus_666, stumpheavyrock, Wail,
Jul 1 2022, 20:52:17 In The Colonnades - Wheels [single] (1987)


*Artist: In The Colonnades
*Album: Wheels [single]
*Year: 1987
*Genre: Doom/Heavy Metal
*Country: Sweden
*Format: flac
*Size: 65MB

Tracklist:
1. Wheels
2. Sort of Heaven
******************************
Total playing time: 8:03

Register
(4) Dante_D, Wail, wgs73, Xtohar,
Jun 30 2022, 21:09:44 Sthygma - Khalimaa (1997) (1) deatholocaust,
Jun 30 2022, 18:18:11 Sthygma - Act 1: Sthygma [ep] (1995) (1) Carcharoth,
Jun 27 2022, 19:46:29 Mental Hippie Blood - Don't Talk [single] (1993)
Register
(1) Xtohar,
Jun 26 2022, 19:10:14 In The Colonnades - Fryday [single] (1989)


*Artist: In The Colonnades
*Album: Fryday [single]
*Year: 1989
*Genre: Doom Metal/Heavy Metal
*Country: Sweden
*Format: mp3@CBR320kbps
*Size: 45MB

Tracklist:
1. Fryday
2. War
3. R.E.P.O.
******************************
Total playing time: 15:49

[more=Technical info]
Input File: 02. War.mp3
Channels : 2
Sample Rate : 44100
Precision : 16-bit
Duration : 00:04:05.09 = 10808645 samples = 18382 CDDA sectors
File Size : 11.6M
Bit Rate : 379k
Sample Encoding: MPEG audio (layer I, II or III)
Comments :
Title=War
Artist=In The Colonnades
Album=Fryday
Tracknumber=02
Year=1989
Genre=Doom / Heavy Metal

[/more]

Register
(14) after21allD, artscald, Bloodline Christian, caro, Olethros, quarantine, Rover, stumpheavyrock, Svafrlami, Unsane, Wail, wgs73, wreak, Xtohar,
Jun 22 2022, 17:45:37 Dreams Of Damnation - Dreams Of Damnation [single] (1992)


*Artist: Dreams Of Damnation
*Album: Dreams Of Damnation [single]
*Year: 1992
*Genre: Thrash Metal
*Country: United States
*Format: flac
*Size: 93MB

Tracklist:
1. Dreams Of Damnation
2. For God & Country
3. No Friend Of Mine
******************************
Total playing time: 13:33

[more=Extended info]Bass – Dennis O'Hara (ex-Heretic, ex-Reverend)
Drums – Brad Campbell
Guitar – Jim Durkin (Dark Angel)
Vocals – Dave Gilstrap (ex-Defcon)[/more]

Register
(8) after21allD, boby9052, grimmstone, hell_armageddon, Marek, Olethros, traitor666, Wail,
Jun 21 2022, 20:00:57 Dreams Of Damnation - Dreams Of Damnation [single] (1992)


*Artist: Dreams Of Damnation
*Album: Dreams Of Damnation [single]
*Year: 1992
*Genre: Thrash Metal
*Country: United States
*Format: flac
*Size: 93MB

Tracklist:
1. Dreams Of Damnation
2. For God & Country
3. No Friend Of Mine
******************************
Total playing time: 13:33


 i 

Обложка?
 


[more=Extended info]Bass – Dennis O'Hara (ex-Heretic, ex-Reverend)
Drums – Brad Campbell
Guitar – Jim Durkin (Dark Angel)
Vocals – Dave Gilstrap (ex-Defcon)[/more]

Register
(1) thenecromancer,
Jun 20 2022, 16:09:03 Misdemeanor - You're Nothing (And You Know It) [single] (1999)


*Artist: Misdemeanor
*Album: You're Nothing (And You Know It) [single]
*Year: 1999
*Genre: Stoner Rock
*Country: Sweden
*Format: flac
*Size: 65MB

Tracklist:
1. You're Nothing (And You Know It)
2. Y.S.B.T.
******************************
Total playing time: 8:42

[more=Extended info]Bass [Goddess] – Jenny E Lindahl*
Drums – Mia "Bulten"
Guitar [Six String Master] – Jenny
Guitar [Six String Ruler] – Sara
Vocals – Vera Rock[/more]

Register
(4) marilin, Olethros, stumpheavyrock, Wail,
Jun 19 2022, 13:17:44 Charon - Waters Of Styx (1999)
.WAV + Scans
Register
(1) Carcharoth,
Jun 19 2022, 10:11:02 Various Artists - 663 [compilation] (1999)


*Artist: Various Artists
*Album: 663 [compilation]
*Year: 1999
*Genre: Death Metal/Experimental/Hardcore
*Country: Many
*Format: flac
*Size: 475MB

Tracklist:
1 Porno Coma– Tossin' Salad 4:14
2 Porno Coma– Black Lungs [Georges] 3:30
3 Aphasia (7)– Quest For Eternal Life 6:22
4 Sin On Skin– Blind Conformity 4:26
5 Wisigoth– Untitled 6:14
6 Scepter– Humans Massaker (Holocaust Mix) 2:26
7 Gone Sadness– Sunken Low 4:05
8 Neurosis Inc.– The White Man 4:25
9 Nefarious (4)– Global Warning 5:01
10 South Central Satan– Untitled 1:02
11 Sleazy Scum Dog– Les... Zimoroids 1:36
12 Sleazy Scum Dog– Mother Slut 3:31
13 Somber Serenity– The Sufferer 6:30
14 Diabolical– Demons (Inner War) 3:49
15 Testicle Bombs*– Fuck Face 1:48
16 Testicle Bombs*– My Life 2:20
17 The Darkness Within– Blood And Love 5:10
18 Jus Gastrique– Fucking Alcoholic Punx 0:49
19 Spider Brain– God Is My Life 4:53
20 No Artist– Bonus Track 0:12
******************************
Total playing time: 1:12:24

[more=Extended info]Impaler Records – IR 663[/more]

Register
(1) Dante_D,
Apr 2 2022, 17:19:23 Talsur - Dark (2022)
Давненько не приходилось слушать такой мощный и интересный Doom/Death. Обидно, что не на CD или LP, не жаль потратиться на такое!
(1) nsk2008,
Mar 17 2022, 08:18:13 Ария - С Кем Ты? (1986)
Единственный их альбом, который не грех переслушивать вновь и вновь. Все песни абсолютно идеальны и все на своих местах. Нет ни одной лишний.
(1) lafuma,
Oct 5 2021, 18:01:06 Mental Hippie Blood - Chosen [ep] (1994)


*Artist: Mental Hippie Blood
*Album: Chosen [ep]
*Year: 1994
*Genre: Heavy Metal
*Country: Sweden
*Format: mp3@CBR320kbps
*Size: 29MB

Tracklist:
1. Chosen
2. Golden Sun
3. Save Me
******************************
Total playing time: 11:08

[more=Technical info]
Input File: 01. Chosen.mp3
Channels : 2
Sample Rate : 44100
Precision : 16-bit
Duration : 00:04:05.04 = 10806352 samples = 18378.1 CDDA sectors
File Size : 9.93M
Bit Rate : 324k
Sample Encoding: MPEG audio (layer I, II or III)
Comments :
Title=Chosen
Artist=Mental Hippie Blood
Album=Chosen
Tracknumber=01/03
Year=1994
Genre=Heavy Metal

[/more]

Register
(1) stumpheavyrock,
Sep 30 2021, 19:37:55 Mental Hippie Blood - Don't Talk [single] (1993)


*Artist: Mental Hippie Blood
*Album: Don't Talk [single]
*Year: 1993
*Genre: Heavy Metal
*Country: Sweden
*Format: mp3@CBR320kbps
*Size: 33MB

Tracklist:
1. Don't Talk
2. Psychopathic Mind
3. Don't Talk (Full Lenght Version)
******************************
Total playing time: 14:02

[more=Technical info]
Input File: 01. Don\'t Talk.mp3
Channels : 2
Sample Rate : 44100
Precision : 16-bit
Duration : 00:04:40.91 = 12388131 samples = 21068.3 CDDA sectors
File Size : 11.3M
Bit Rate : 323k
Sample Encoding: MPEG audio (layer I, II or III)
Comments :
Title=Don't Talk
Artist=Mental Hippie Blood
Album=Don't Talk
Tracknumber=01/03
Year=1993
Genre=Heavy Metal

[/more]

Register
(8) caro, Olethros, stumpheavyrock, Svafrlami, Taakeferd, Tino, Wail, wreak,
Sep 29 2021, 18:35:59 Mental Hippie Blood - Dont't Talk [single] (1993)


*Artist: Mental Hippie Blood
*Album: Dont't Talk [single]
*Year: 1993
*Genre: Heavy Metal
*Country: Sweden
*Format: mp3@CBR320kbps
*Size: 34MB

Tracklist:
1. Don't Talk
2. Psychopathic Mind
3. Don't Talk (Full Lenght Version)
******************************
Total playing time: 14:02

[more=Technical info]
Input File: 01. Don\'t Talk.mp3
Channels : 2
Sample Rate : 44100
Precision : 16-bit
Duration : 00:04:40.82 = 12384338 samples = 21061.8 CDDA sectors
File Size : 11.2M
Bit Rate : 320k
Sample Encoding: MPEG audio (layer I, II or III)
Comments :
Title=Don't Talk
Artist=Mental Hippie Blood
Album=Don't Talk
Tracknumber=1
Year=1993
Genre=Heavy Metal

[/more]

Register
(1) stumpheavyrock,
Sep 5 2021, 18:11:45 Erika - Planet X (1997)


*Artist: Erika
*Album: Planet X
*Year: 1997
*Genre: Aor/Hard Rock
*Country: Sweden
*Format: mp3@CBR320kbps
*Size: 133MB

Tracklist:
01. Super Sonic City
02. Jimmy, Jimmy, Jimmy
03. Vampire
04. Detroit
05. Japanese Boyfriend
06. Neon City Lights
07. Drive Me Wild
08. Planet X
09. Action Boy
10. I Wanna Run Now
11. Stardust Motel
12. Hot Love
13. Wild, Wild One
******************************
Total playing time: 44:32

[more=Technical info]
Input File: 01. Super Sonic City.mp3
Channels : 2
Sample Rate : 44100
Precision : 16-bit
Duration : 00:03:06.26 = 8214022 samples = 13969.4 CDDA sectors
File Size : 7.45M
Bit Rate : 320k
Sample Encoding: MPEG audio (layer I, II or III)
Comments :
Title=Super Sonic City
Artist=Erika
Album=Planet X
Tracknumber=01
Year=1997

[/more]

Register
(5) gwar, Matusalem, Occultas, Olethros, Wail,
Jun 14 2021, 14:26:33 Indigo Dying - Indigo Dying (2007)
mp3@320kbps / 153 Mb / Scans
Register
(1) wreak,
Jun 14 2021, 13:55:37 Wotan - Carmina Barbarica (2004)
mp3@320kbps / 133 Mb / Scans
Register

P.S. Возможно пиратская версия, похожей версии на discogs нет.
(2) thenecromancer, wreak,
Jun 14 2021, 13:48:18 Ayat - Six Years Of Dormant Hatred (2008)
mp3@320kbps / 158 Mb / Scans
Register
(3) Ingvar, kim666, wreak,
Jun 14 2021, 13:44:08 Winter - Into Darkness (1990)
mp3@320kbps / 126 Mb / Scans
Register
(1) wwwgnom,
Dec 24 2019, 19:16:56 Lawnmower Deth - Unleashed In The East... Midlands [live] (2018)
Месяца два назад, приобрёл на CD три их альбома. "Ooh Crikey..." безусловно шедевриален, имхо. Звучит потрясающи, да и с юмором всё нормально. А узнал о них, из "Ровесника", в году этак 1990-1991, тогда же и записал на кассету, которая до сих пор жива))). За новость спасибо!
(2) Diflock, kim666,
Dec 11 2019, 16:56:32 Abaddon - The Wayfarer (2014)
Надеюсь, альбом не разочарует. Спасибо!
(1) Samaritianin,

4 Pages V   1 2 3 > » 
- Lo-Fi Version Support form
Copyrights and abuse reports form
Time is now: 9th February 2023 - 14:14:35