Welcome Guest ( Log In | Register )

Объявления

* gmail.com упорно продолжает считать почту с нас "unsolicited" и отбивает в том числе и письма активации, поэтому просьба использовать альтернативные почтовые ящики.
------------
* gmail.com continues reject all mail from us as "unsolicited" (activation mails too) therefore please use alternate mail servers.
История благодарностей участнику Xutun ::: Спасибо сказали: 473 раз(а)
Дата поста: В теме: За сообщение: Спасибо сказали:
May 14 2024, 18:52:52 Today Needed
Vomitory перезалил...
Register
(2) Occultas, thenecromancer,
May 14 2024, 18:48:38 Vomitory - Demo [demo] (1992)
The quality is not great, sorry.

Register
(5) hell_armageddon, incubus, mayhemehyam, thenecromancer, wreak,
May 14 2024, 18:47:16 Vomitory - Promo '93 [demo] (1993)
The quality is not great, sorry.

Register
(4) hell_armageddon, mayhemehyam, thenecromancer, wreak,
May 4 2024, 17:51:32 Today Needed
Перезалил EP

Metallica
(3) BlackSwordMaster88, ErickLeoni, Occultas,
May 4 2024, 17:47:50 Metallica - Creeping Death/jump In The Fire [re-release] [ep] (1990)
Register
(4) ErickLeoni, hell_armageddon, Occultas, thenecromancer,
May 4 2024, 16:42:41 Today Needed
Перезалил синглы

Register

Register
(3) BlackSwordMaster88, ErickLeoni, Occultas,
May 4 2024, 16:41:30 Metallica - Jump In The Fire [single] (1984)
Register
(4) ErickLeoni, hell_armageddon, Occultas, thenecromancer,
May 4 2024, 16:38:11 Metallica - Eye Of The Beholder [single] (1988)
Register
(4) ErickLeoni, hell_armageddon, Occultas, thenecromancer,
Apr 25 2024, 18:08:50 Today Needed
Death - Live In Eindhoven (1998)
Перезалил
(1) thenecromancer,
Apr 25 2024, 18:07:39 Death - Live In Eindhoven (1998)
Все благодарности g.y.m.
Register
(4) hell_armageddon, stumpheavyrock, thenecromancer, wreak,
Apr 21 2024, 11:57:29 Aldious - We Are (2017)
Register
(1) kastrup,
Apr 21 2024, 11:54:36 Aldious - All Brose [ep] (2018)
Register
(1) kastrup,
Apr 9 2024, 19:11:01 Today Needed
Обновил.
Abigail & Evil
(2) ErickLeoni, thenecromancer,
Apr 9 2024, 19:09:32 Evil & Abigail - Evil/Abigail [split] (2009)
Register
(4) ErickLeoni, stumpheavyrock, thenecromancer, Xtohar,
Apr 7 2024, 19:29:26 Black Symphony - Tears Of Blood (2001)
Российское издание от CD-Maximum, 2002 года, с коверами на The Who, Deep Purple, Black Sabbath & Queensrÿche.
Register
(1) Wail,
Apr 6 2024, 22:21:37 Toss 'n' Turn - Freestyle (1994)


*Artist: Toss 'n' Turn
*Album: Freestyle
*Year: 1994
*Genre: Hard Rock
*Country: Germany
*Format: mp3@CBR320kbps
*Size: 169MB

Tracklist:
1. How Do You Feel 4:44
2. Don't Lie To Me 3:53
3. Back To the Wall 4:30
4. Heart Growing Old 6:02
5. Confession 3:34
6. Hungry 5:39
7. In My Blood 4:04
8. Torture, Torture 4:59
9. All Night Sensation 5:05
10. Life (The Up's and Down's) 4:02
11. Stop Beggin' Me 4:34
12. One Night & a Heartache 4:03
13. Eternal Flame 4:53
14. Hidden Track 1:18
******************************
Total playing time: 1:01:20

[more=Extended info]Lame 3.93.1[/more]

[more=Technical info]
Input File: 13. Eternal Flame.mp3
Channels : 2
Sample Rate : 44100
Precision : 16-bit
Duration : 00:03:54.31 = 10332851 samples = 17572.9 CDDA sectors
File Size : 9.37M
Bit Rate : 320k
Sample Encoding: MPEG audio (layer I, II or III)
Comments :
Title=Eternal Flame
Artist=Toss'N'Turn
Album=Freestyle
Tracknumber=13
Year=1994
Genre=Heavy Metal/Hard Rock/AOR

[/more]

Register
(3) Grev, Wail, Xtohar,
Mar 20 2024, 16:56:41 Oratory - Interludium [ep] (2005)
Register
(2) ErickLeoni, wreak,
Mar 20 2024, 16:56:13 Oratory - Illusion Dimensions (2000)
@320 & Scans

Register
(3) avather, ErickLeoni, wreak,
Mar 20 2024, 16:53:50 Oratory - Beyond Earth (2002)
@320 & Scans

Register
(2) ErickLeoni, wreak,
Mar 19 2024, 19:33:16 Today Needed
ЦИТАТА(ErickLeoni @ Mar 19 2024, 20:07:40) *

Есть все три, на днях постараюсь выложить. (I have all three, I’ll try to post them one of these days.) 2003 - Beyond Earth (Japanese Edition)
(1) ErickLeoni,
Mar 18 2024, 19:28:44 A Tribute To Ramones - We're Happy Family (2003)
Discogs

Register
(3) canadaspaceman, thenecromancer, yuratroll,
Mar 17 2024, 13:05:34 Saturday Night Satan - All Things Black (2024)
ЦИТАТА(vosmidesijatye @ Mar 17 2024, 16:01:48) *
О, спасибо за референс, Люсифер это всегда хорошо. Послушал превьюшку сабжа - отличнейше, качаю сабж. 9.gif

Рад был помочь! 9.gif
(1) vosmidesijatye,
Mar 17 2024, 11:57:29 Saturday Night Satan - All Things Black (2024)
мммда... уже и Lucifer клоном обзавёлся.
(1) vosmidesijatye,
Mar 16 2024, 23:48:03 Today Needed
Обновил (Updated):
Register

(2) ErickLeoni, thenecromancer,
Mar 16 2024, 23:41:09 Metallica - More Than Just Metal [bootleg] (1993)


Register
(6) Carcharoth, ErickLeoni, hell_armageddon, thenecromancer, wreak, Xtohar,

7 Pages V   1 2 3 > » 
- Lo-Fi Version Support form
Copyrights and abuse reports form
Time is now: 14th June 2024 - 07:49:27