Welcome Guest ( Log In | Register )

Объявления

* gmail.com упорно продолжает считать почту с нас "unsolicited" и отбивает в том числе и письма активации, поэтому просьба использовать альтернативные почтовые ящики.
------------
* gmail.com continues reject all mail from us as "unsolicited" (activation mails too) therefore please use alternate mail servers.
История благодарностей участнику morrom ::: Спасибо сказали: 1409 раз(а)
Дата поста: В теме: За сообщение: Спасибо сказали:
Feb 6 2024, 06:04:51 Palliatus - Сколько (2024)
[youtube]bLPIEIcxugY[/youtube]
(1) Phlebotomized,
Jan 28 2024, 18:17:23 Bjørkø - Heartrot (2023)
ЦИТАТА(Victim of fate @ Dec 11 2023, 22:31:03) *
понравилось- есть у кого мр3?

Register

(2) garml2, tschunioronbeer,
Nov 29 2023, 14:19:02 Daemonic Dreams - Aeon (2023)
[youtube]8H8DEANxIn0[/youtube]
(1) hate_eternal,
Nov 3 2023, 11:34:37 Till Lindemann - Zunge (2023)
FLAC 317Mb:
Register
(2) Emhyr var Emreis, nemx,
Nov 3 2023, 06:14:48 Till Lindemann - Zunge (2023)


*Artist: Till Lindemann
*Album: Zunge
*Year: 2023
*Genre: Industrial Metal
*Country: Germany
*Format: mp3@CBR320kbps
*Size: 108MB

Tracklist:
01. Zunge 04:35
02. Sport frei 04:12
03. Altes Fleisch 04:24
04. Übers Meer 03:19
05. Du hast kein Herz 03:52
06. Tanzlehrerin 04:22
07. Nass 03:53
08. Alles für die Kinder 03:50
09. Schweiss 04:01
10. Lecker 03:31
11. Selbst verliebt 06:28
******************************
Total playing time: 46:34




[more=Technical info]
Input File: 01. Zunge.mp3
Channels : 2
Sample Rate : 44100
Precision : 16-bit
Duration : 00:04:35.90 = 12167058 samples = 20692.3 CDDA sectors
File Size : 11.1M
Bit Rate : 322k
Sample Encoding: MPEG audio (layer I, II or III)
Comments :
Title=Zunge
Artist=Till Lindemann
Album=Zunge
Tracknumber=01/11
Year=2023
Genre=Industrial Metal
Discnumber=1/1

[/more]

Register
(34) 6666666, 747metaller, A.L.Rapsod, Aresson, Brann, cancer1974, Cartman223, Chasm, CORPSEMIKA, Druidir, Forest Silence, gena, GeorG, Grev, gwar, Hexenmeister, kimkayoung, lafuma, leks, lucifix, METALHUNTER, nadin85, nemx, oldvarg, Parfen81, Phlebotomized, princeshr, rabindranad, Shadechaser, Slam91, VALERY, Wail, Xor, yuratroll,
Apr 28 2023, 06:04:25 Graveworm - Killing Innocence (2023)
Треки по алфавиту... Сначала подумал с тэгами что-то не то. Ан нет! На архивах такая же последовательность...
(1) kostja,
Mar 7 2023, 06:07:30 Imperial Demonic - Beneath The Crimson Eclipse [ep] (2023)
[youtube]KTMs5Jh3W1k[/youtube]
(2) isvili, megam,
Feb 13 2023, 12:23:29 Inherited Extinction - Inherited Extinction [ep] (2022)
[youtube]NDOOZA6vn8k[/youtube]
(1) lldma,
Dec 9 2022, 09:23:59 Souldrainer - Departure (2022)
Наконец-то! Ждал. Ребята изначально взяли за основу концепцию написания неторопливых песен у Hypocrisy и гнут эту линию. Дебютник, конечно, не переплюнуть, но вполне себе медленный мелодичный MDM с клавишной подложкой
(1) Andrew,
Apr 24 2022, 08:47:51 Cosecha Lagrimas - Crisol (2022)
Я нашел себе новый рингтон на телефон! Заглавная тема из Терминатора - огонь!
(1) Victim of fate,
Apr 7 2022, 08:15:39 Beyond Mortal Dreams - Abomination Of The Flames (2022)
Облога - огонь!!! Во всех смыслах!
(2) avather, Mencae77,
Feb 1 2022, 06:44:06 Kill All The Gentlemen - Black Canvas (2022)
Ссылка на ютуб в шапке неправильная
[youtube]Gh2mZKc7ydM[/youtube]
(1) Sanctus,
Oct 24 2021, 13:55:18 Stygian Dark - Gorelords Of War (2021)
[youtube]MSnvX_mMfH4[/youtube]
(2) vosmidesijatye, WOLAND,
Aug 26 2021, 10:44:40 Be'lakor - Hidden Window [single] (2021)


*Artist: Be'lakor
*Album: Hidden Window [single]
*Year: 2021
*Genre: Melodic Death Metal
*Country: Australia
*Format: mp3@CBR320kbps
*Size: 20MB

Tracklist:
1. Hidden Window
******************************
Total playing time: 8:25



[more=Technical info]
Input File: 01 Hidden Window.mp3
Channels : 2
Sample Rate : 48000
Precision : 16-bit
Duration : 00:08:24.48 = 24215040 samples ~ 37836 CDDA sectors
File Size : 20.2M
Bit Rate : 320k
Sample Encoding: MPEG audio (layer I, II or III)

[/more]

Register
(14) ALEXSATHANAS, AnthonyHipHopkins, Aresson, caro, chipsgott, d0zer, DCLXVI-135, GuldenDraak, gwynnbleid, Hell_Is_Here, Olethros, Reverend, wreak, zhol,
Aug 20 2021, 21:44:21 Leviathan Cycle - Mankind's Greatest Failure (2021)
ЦИТАТА(metamfer @ 20th August 2021 - 20:21:24) *
А очень и очень хорошо.

Соглашусь! Отличный саунд. Местами развеселый. Без соплей. Гроул постоянно подпитывает гитара... Местами весьма смачно! Хороший релиз!
(2) metamfer, Samaritianin,
Jul 2 2021, 09:51:46 Scent Of Surface - As Time Puts Us To Sleep (2021)
[youtube]9MYNW4JvMA4[/youtube]
(1) Old Vyaine,
Jun 26 2021, 21:45:28 The Void's Embrace - Dawn Of A Stillborn Sun (2021)
[youtube]JSmdmx-q8Dc[/youtube]
https://music.yandex.ru/album/16196769
(1) Sordes,
May 15 2021, 07:25:54 Everlasting Mortality - The Restless Waves (2021)
[youtube]AWu5JkaQCXY[/youtube]
(4) Druidir, infiltrator, lary_veel, Old Vyaine,
Apr 29 2021, 20:20:18 Autumn Bride - Undying (2021)
[youtube]a_BzMUW_-Qg[/youtube]
(3) ANGELUSARCHDAEMON, infiltrator, Old Vyaine,
Mar 22 2021, 07:49:38 Reborn - The Non-Existent Path (2021)
[youtube]2HZYgwhig0Y[/youtube]
(3) 555, infiltrator, Vladimir,
Mar 3 2021, 06:29:31 Phobos Monolith - When The Light Will Fade [ep] (2021)
[youtube]6BLv6mjHiAI[/youtube]
(2) DCLXVI-135, Old Vyaine,
Nov 24 2020, 12:00:00 Within Temptation - The Purge [single] (2020)
ЦИТАТА(garmonbozia @ 24th November 2020 - 08:22:42) *
настоящие чувства они глубже, соотвественно незаметнее

Чем старше возраст - тем сложнее вызвать сильные чувства... И тем они ценнее!
Меня уже 30 (приблизительно) лет пробирает от темы Dreaming in Red в исполнении Dismember... И я её очень берегу - редко но метко слушаю... Как раз под рюмку крепкого...
(1) Maestrovs,
Oct 15 2020, 12:51:20 Benediction - Scriptures (2020)
Идея клипа с креслом и бутылкой в руке почему-то очень зашла. Да и песня качевая. Будем слушать альбом!
(6) Alexis The Best, Indamage, infiltrator, Metalass, quicksand, Samaritianin,
Sep 24 2020, 04:53:21 Mortal Plague - Parasite (2020)
[youtube]zLT62RvOlW4[/youtube]
(1) Sanctus,
Jul 31 2020, 05:22:34 Catharist - Eternal Ekur (2020)
[youtube]wUHZCpXxRSI[/youtube]
(1) Phlebotomized,

11 Pages V   1 2 3 > » 
- Lo-Fi Version Support form
Copyrights and abuse reports form
Time is now: 14th June 2024 - 09:10:09