Welcome Guest ( Log In | Register )

История благодарностей участнику Panacea ::: Спасибо сказали: 7010 раз(а)
Дата поста: В теме: За сообщение: Спасибо сказали:
Feb 23 2020, 10:52:40 Naartz - Sombre [ep] (2020)


*Artist: Naartz
*Album: Sombre [ep]
*Year: 2020
*Genre: Atmospheric Post-Black Metal
*Country: Canada
*Format: mp3@CBR320kbps
*Size: 43MB

Tracklist:
1. Dernier Souffle 04:58
2. L'autre Joue 05:13
3. Pleure Ta Terre 05:00
4. La Marche 03:40
******************************
Total playing time: 18:51



[more=Technical info]
Input File: 04 - La Marche.mp3
Channels : 2
Sample Rate : 44100
Precision : 16-bit
Duration : 00:03:41.01 = 9746585 samples = 16575.8 CDDA sectors
File Size : 8.93M
Bit Rate : 323k
Sample Encoding: MPEG audio (layer I, II or III)
Comments :
Title=La Marche
Artist=Naartz
Album=Sombre
Tracknumber=4
Year=2020
Genre=Atmospheric Post-Black Metal

[/more]

Register
(13) 1968_janeart, ASkyThatBurns, exorcist1969, infiltrator, kim666, krotovich, Olethros, robertho777, Rosen, satanist666, Tyrone, VALERY, vasiljev_sergej,
Feb 23 2020, 10:38:56 Conifère - Noblesse D'épée [demo] (2020)


*Artist: Conifère
*Album: Noblesse D'épée [demo]
*Year: 2020
*Genre: Black Metal/Dungeon Synth
*Country: Canada
*Format: mp3@CBR320kbps
*Size: 69MB

Tracklist:
1. Seigneur Sans Terres 09:04
2. Assouvir l'Avarice 03:54
3. La Genèse de l'Ordre 04:26
4. Écraser l'Infâme 08:26
5. Le Pont des Trois Arches 10:00
******************************
Total playing time: 35:50



[more=Technical info]
Input File: 02 - Assouvir l\'Avarice.mp3
Channels : 2
Sample Rate : 44100
Precision : 16-bit
Duration : 00:03:54.07 = 10322619 samples = 17555.5 CDDA sectors
File Size : 9.49M
Bit Rate : 324k
Sample Encoding: MPEG audio (layer I, II or III)
Comments :
Title=Assouvir l'Avarice
Artist=Conifère
Album=Noblesse d'Épée
Tracknumber=2
Year=2020
Genre=Black Metal/Dungeon Synth

[/more]

Register
(18) 1968_janeart, ASkyThatBurns, craP_cillA, exorcist1969, horss, infiltrator, kim666, nemx, Olethros, robertho777, Rosen, Rudolfo_Metal, satanist666, Tarkron, thenecromancer, vasiljev_sergej, Velmi, Wolftribes,
Feb 18 2020, 23:10:54 Anhedonist & Spectral Voice - Abject Darkness/Ineffable Winds [split] (2020)


*Artist: Anhedonist & Spectral Voice
*Album: Abject Darkness/​Ineffable Winds [split]
*Year: 2020
*Genre: Death/Doom Metal | Death/Doom Metal
*Country: United States | United States
*Format: mp3@CBR320kbps
*Size: 32MB

Tracklist:
Anhedonist:
1. Abject Darkness 06:15
Spectral Voice:
2. Ineffable Winds 07:25
******************************
Total playing time: 13:40



[more=Extended info]Dark Descent Records.
Co-released with Parasitic Records.
Available on black vinyl or transparent blue vinyl.

Anhedonist: "Abject Darkness” was recorded during the same session as their only album "Netherwards" in the Winter of 2011. Initially slated to appear on an aborted split EP with Knelt Rote

Spectral Voice: Recorded in the winter of 2019.[/more]

[more=Technical info]
Input File: 01 - Anhedonist-Abject Darkness.mp3
Channels : 2
Sample Rate : 44100
Precision : 16-bit
Duration : 00:06:15.98 = 16580630 samples = 28198.4 CDDA sectors
File Size : 15.2M
Bit Rate : 324k
Sample Encoding: MPEG audio (layer I, II or III)
Comments :
Title=Abject Darkness
Artist=Anhedonist
Album=Abject Darkness/Ineffable Winds
Tracknumber=1
Year=2020
Genre=Death/Doom Metal

[/more]

Register
(19) AHBAnep, ASkyThatBurns, caro, doomTemplar, FUDEDOR, helvetestoner, infiltrator, lacrimoza, marilin, Mist13Signifier, Occultas, Rosen, sacredserenity, sergsazan, stumpheavyrock, VALERY, valgalder, vyacheslav, Wail,
Feb 18 2020, 19:30:57 Crypt Dagger - Tales Of Torment [ep] (2019)


*Artist: Crypt Dagger
*Album: Tales Of Torment [ep]
*Year: 2019
*Genre: Black/Speed/Thrash Metal
*Country: Germany
*Format: mp3@CBR320kbps
*Size: 30MB

Tracklist:
1. Death To All 03:31
2. Rape From The Grave 02:37
3. The Cruel Reign 03:27
4. Six Horned Pervertor 02:48
******************************
Total playing time: 12:23

[more=Extended info]Limited edition cassette to 50 hand-numbered copies released by Screaming Skull Records.[/more]

[more=Technical info]
Input File: 02 - Rape From The Grave.mp3
Channels : 2
Sample Rate : 44100
Precision : 16-bit
Duration : 00:02:37.58 = 6949366 samples = 11818.6 CDDA sectors
File Size : 6.39M
Bit Rate : 324k
Sample Encoding: MPEG audio (layer I, II or III)
Comments :
Title=Rape From The Grave
Artist=Crypt Dagger
Album=Tales Of Torment
Tracknumber=2
Year=2019
Genre=Black/Speed/Thrash Metal

[/more]

Register
(16) artscald, Asketto, ASkyThatBurns, boby9052, caro, cast_iron, Darkness, infiltrator, Olethros, Rosen, satanist666, sergsazan, stumpheavyrock, Styx, vasiljev_sergej, Wail,
Feb 7 2020, 00:39:55 Spite - Winds Of Luciferian Æther [live] (2019)


*Artist: Spite
*Album: Winds Of Luciferian Æther [live]
*Year: 2019
*Genre: Black Metal
*Country: United States
*Format: mp3@CBR320kbps
*Size: 79MB

Tracklist:
1. Winds Of Luciferian Æther 32:41
******************************
Total playing time: 32:41



[more=Extended info]Recorded live at Saint Vitus Bar in Brooklyn, NY on August 30, 2019.
Recorded, mixed, & mastered by Jamie Elton.
Photographs by Arno Tsay.

Setlist:
1. Countless Blasphemy
2. The Shield Of Abraham
3. Vision Of The Merkabah
4. Trapped In The Pentagram
5. The Devil's Minyan
6. Antimoshiach
7. Desecration Rites[/more]

[more=Technical info]
Input File: 01 - Winds Of Luciferian AEther.mp3
Channels : 2
Sample Rate : 44100
Precision : 16-bit
Duration : 00:32:41.31 = 86493639 samples = 147098 CDDA sectors
File Size : 78.5M
Bit Rate : 320k
Sample Encoding: MPEG audio (layer I, II or III)
Comments :
Title=Winds of Luciferian AEther
Artist=Spite
Album=Winds of Luciferian Æther
Tracknumber=1
Year=2019
Genre=Black Metal

[/more]

Register
(13) 1968_janeart, Bzth, helvetestoner, infiltrator, milosdjor, morbidangelo, Occultas, Olethros, Rosen, stub888, VALERY, vasiljev_sergej, Wail,
Feb 6 2020, 22:07:07 Black Curse - Endless Wound [demo] (2019)
[youtube]jR5UtaCOGsg[/youtube]
(1) Occultas,
Feb 6 2020, 18:58:23 Fleurety - Min Tid Skal Komme (1995)
CBR 320 kbps (1995 edition)
Register
(5) Alexis The Best, DarkHorde, sarcophagus, thenecromancer, varlam4,
Feb 6 2020, 18:09:35 Black Curse - Endless Wound [demo] (2019)


*Artist: Black Curse
*Album: Endless Wound [demo]
*Year: 2019
*Genre: Black/Death Metal
*Country: United States
*Format: mp3@CBR320kbps
*Size: 35MB

Tracklist:
1. Charnel Rift 05:14
2. Seared Eyes 03:14
3. Endless Wound 06:17
******************************
Total playing time: 14:45



[more=Extended info]Project of Blood Incantation/Spectral Voice members.
Advance demo that was sold at Kill-Town Death Fest in Copenhagen on 6.09.2019
featuring roughest versions of songs from the upcoming album "Endless Wound".[/more]

[more=Technical info]
Input File: 02 - Seared Eyes.mp3
Channels : 2
Sample Rate : 48000
Precision : 16-bit
Duration : 00:03:14.07 = 9315216 samples ~ 14555 CDDA sectors
File Size : 7.88M
Bit Rate : 325k
Sample Encoding: MPEG audio (layer I, II or III)
Comments :
Title=Seared Eyes
Artist=Black Curse
Album=Endless Wound
Tracknumber=2
Year=2019
Genre=Black/Death Metal

[/more]

Register
(20) Ambercandle, ASkyThatBurns, Boozer, FUDEDOR, fukhuman, gena, Grogro, infiltrator, kim666, LVXXVL, morbidangelo, Occultas, Rosen, satanist666, SilentNidhogg, stub888, VALERY, vasiljev_sergej, Wail, wanderer73,
Feb 5 2020, 16:02:02 Abhorrency - Demo Mmxx [demo] (2020)


*Artist: Abhorrency
*Album: Demo Mmxx [demo]
*Year: 2020
*Genre: Black/Death Metal
*Country: United States
*Format: mp3@CBR320kbps
*Size: 27MB

Tracklist:
1. Choked Upon The Pentagram 04:06
2. Perverse Serpentine Invocation 03:43
3. Feces Aspergillum 02:58
******************************
Total playing time: 10:47



[more=Extended info]First edition, DIY tape limited to 50. Self-released.[/more]

[more=Technical info]
Input File: 03 - Feces Aspergillum.mp3
Channels : 2
Sample Rate : 44100
Precision : 16-bit
Duration : 00:02:58.30 = 7862942 samples = 13372.4 CDDA sectors
File Size : 7.23M
Bit Rate : 325k
Sample Encoding: MPEG audio (layer I, II or III)
Comments :
Title=Feces Aspergillum
Artist=Abhorrency
Album=Demo MMXX
Tracknumber=3
Year=2020
Genre=Black/Death Metal

[/more]

Register
(11) ASkyThatBurns, infiltrator, morbidangelo, Olethros, Rosen, Sanctus, satanist666, stub888, VALERY, vasiljev_sergej, Wail,
Feb 3 2020, 15:50:21 Bekëth Nexëhmü - De Svarta Riterna [demo] (2013)
QUOTE(lestllk @ Feb 3 2020, 01:14:03) *
I'm pretty sure that this has been here before 13.gif 21.gif

I might been, because there is a link on their Discography page but it seems to be broken.
Bekëth Nexëhmü Discography
(1) Occultas,
Feb 2 2020, 15:52:55 Bekëth Nexëhmü - De Fördolda Klangorna (2019)


*Artist: Bekëth Nexëhmü
*Album: De Fördolda Klangorna
*Year: 2019
*Genre: Black Metal/Ambient
*Country: Sweden
*Format: mp3@CBR320kbps
*Size: 292MB

Tracklist:
1. Bestens Urblod 07:46
2. Dunklets Svarta Urkall 07:15
3. Ragnaröks Ankomst 07:14
4. Urtidens Jättar 05:38
5. Döpt i Elden 06:05
6. Det Gapande Svaljet 05:44
7. Vemodets Andetag 05:57
8. Mörkrets Uråldriga Makter 16:47
9. I Trolls Skepnad 12:36
10. Dunklets Åkallelse 06:51
11. Furstens Välde 12:53
12. De Svartas Vindar 06:23
13. Vision af Hels Prakt 15:13
14. Mörkrets Uråldriga Makter pt.II 13:12
******************************
Total playing time: 2:09:34



[more=Extended info]Re-recording of the 2014 demo with bonus tracks.[/more]

[more=Technical info]
Input File: 04 - Urtidens Jattar.mp3
Channels : 2
Sample Rate : 44100
Precision : 16-bit
Duration : 00:05:38.05 = 14907829 samples = 25353.5 CDDA sectors
File Size : 13.6M
Bit Rate : 323k
Sample Encoding: MPEG audio (layer I, II or III)
Comments :
Title=Urtidens Jättar
Artist=Bekëth Nexëhmü
Album=De Fördolda Klangorna
Tracknumber=4/14
Year=2019
Genre=Black Metal/Ambient

[/more]

Register
(43) 1968_janeart, ASkyThatBurns, BERZERK, Boozer, craP_cillA, El_Chibo, Evilded, exorcist1969, Forest Silence, gena, horss, Ildjarn, infiltrator, kim666, Korpse, Krosis, Leolomb, Moonlover, Moonshtook, morbidangelo, murian, Olethros, peppuzzo, piejoda, robertho777, Rosen, Shagarth21, SilentNidhogg, stub888, thenecromancer, tOmV, umnaxtet, undertrykkelse, varlam4, vasiljev_sergej, Vidder242, vovenom, wolverine, wtk.412, yuratroll, ZA670, Zenial, zhol,
Feb 2 2020, 15:50:30 Bekëth Nexëhmü - De Svarta Riterna [demo] (2013)


*Artist: Bekëth Nexëhmü
*Album: De Svarta Riterna [demo]
*Year: 2013
*Genre: Black Metal/Ambient
*Country: Sweden
*Format: mp3@VBR288kbps
*Size: 92MB

Tracklist:
1. Fenrisulvens Käftar 12:27
2. Hels Frusna Nejder 10:58
3. Jörmungandr 10:02
4. Niddhöggs Härkomst 13:20
******************************
Total playing time: 46:47



[more=Technical info]
Input File: 03 - Jormungandr.mp3
Channels : 2
Sample Rate : 44100
Precision : 16-bit
Duration : 00:10:00.89 = 26499425 samples = 45067 CDDA sectors
File Size : 23.3M
Bit Rate : 310k
Sample Encoding: MPEG audio (layer I, II or III)
Comments :
Title=Jörmungandr
Artist=Bekëth Nexëhmü
Album=De Svarta Riterna
Tracknumber=03
Year=2013
Genre=Black Metal/Ambient

[/more]

Register
(20) 1968_janeart, ASkyThatBurns, craP_cillA, El_Chibo, gena, Ildjarn, infiltrator, Moonshtook, morbidangelo, Olethros, robertho777, Rosen, Rudolfo_Metal, stub888, thenecromancer, Tyrone, undertrykkelse, varlam4, vasiljev_sergej, Vidder242,
Feb 1 2020, 12:50:56 Solefald - The Linear Scaffold (1997)
CBR 320 kbps
Register
(2) Brann, varlam4,
Jan 27 2020, 23:26:07 Decarabia - Ancestral Kingdoms (2019)


*Artist: Decarabia
*Album: Ancestral Kingdoms
*Year: 2019
*Genre: Atmospheric Black Metal/Ambient
*Country: United States
*Format: mp3@CBR320kbps
*Size: 101MB

Tracklist:
1. Darkness 17:31
2. Languid Dreams 07:03
3. The Pallid Rider 06:38
4. Unknown Psalms 06:43
5. The Isle Of The Dead 05:43
******************************
Total playing time: 43:38



[more=Technical info]
Input File: 05 - The Isle Of The Dead.mp3
Channels : 2
Sample Rate : 44100
Precision : 16-bit
Duration : 00:05:43.74 = 15158978 samples = 25780.6 CDDA sectors
File Size : 14.0M
Bit Rate : 325k
Sample Encoding: MPEG audio (layer I, II or III)
Comments :
Title=The Isle Of The Dead
Artist=Decarabia
Album=Ancestral Kingdoms
Tracknumber=5
Year=2019
Genre=Atmospheric Black Metal/Ambient

[/more]

Register
(20) 0x13, 1968_janeart, ASkyThatBurns, Ildjarn, infiltrator, kim666, Ludwig Hagen, morbidangelo, multizwilling, Occultas, Olethros, Ostinato, popen13, Rosen, Rudolfo_Metal, senecazm, stone88, stub888, vasiljev_sergej, zargonath,
Jan 27 2020, 20:26:29 Enid - Nachtgedanken (1999)
CBR 320 kbps
Register
(4) infiltrator, kimkayoung, morbidangelo, vasiljev_sergej,
Jan 26 2020, 19:18:25 Black Fucking Cancer & Gloam - Boundless Arcane Invokations [split] (2019)


*Artist: Black Fucking Cancer & Gloam
*Album: Boundless Arcane Invokations [split]
*Year: 2019
*Genre: Black Metal | Black Metal
*Country: United States | United States
*Format: mp3@CBR320kbps
*Size: 95MB

Tracklist:
Black Fucking Cancer:
1. Boundless Arcane Invokation 21:59
Gloam:
2. Boundless Arcane Invokation 18:50
******************************
Total playing time: 40:49



[more=Extended info]Comes in a custom made and cut black cover + insert screen printed with metallic gold ink, and is pressed in 200 units of black 12'' vinyl.
Released by Sentient Ruin Laboratories.[/more]

[more=Technical info]
Input File: 02 - Gloam-Boundless Arcane Invokation.mp3
Channels : 2
Sample Rate : 44100
Precision : 16-bit
Duration : 00:18:50.70 = 49863738 samples = 84802.3 CDDA sectors
File Size : 45.4M
Bit Rate : 321k
Sample Encoding: MPEG audio (layer I, II or III)
Comments :
Title=Boundless Arcane Invokation
Artist=Gloam
Album=Boundless Arcane Invokations
Tracknumber=2/02
Year=2019
Genre=Black Metal

[/more]

Register
(15) ASkyThatBurns, Boozer, Hell_Is_Here, Ildjarn, kim666, robertho777, Rosen, satanist666, SilentNidhogg, stub888, Tyrone, VALERY, vasiljev_sergej, Vidder242, wtk.412,
Jan 25 2020, 18:05:04 Mortiis - Spirit Of Rebellion (2020)
Back in early 90s i always found Mortiis releases to be a little bit of boring and repetitive, with the exception of Crypt Of the Wizard compilation and his Fata Morgana project.
As for his Industrial albums i do not even want to talk about them. But oh my...this one is absolutely amazing!
His dungeon synth melodies are mixed with elements of Dark Ambient/Neo-Classical reminding early works of bands from Cold Meat Industry
and placing Spirit Of Rebellion among the best albums for 2020.
As for the negatives i must say that you do not replace your amazing old logo with this smudge, that's unacceptable.
(1) Occultas,
Jan 18 2020, 12:58:27 Deathwards - Towards Death [demo] (2018)


*Artist: Deathwards
*Album: Towards Death [demo]
*Year: 2018
*Genre: Death/Thrash Metal
*Country: Chile
*Format: mp3@CBR320kbps
*Size: 58MB

Tracklist:
1. In Death I Become 04:19
2. The Hierarchist 03:46
3. Epitaph From The Underworld 04:44
4. Impending Prophecies 04:11
5. Overlord (Infernal Majesty Cover) 05:59
******************************
Total playing time: 22:59




[more=Technical info]
Input File: 02 - The Hierarchist.mp3
Channels : 2
Sample Rate : 44100
Precision : 16-bit
Duration : 00:03:47.07 = 10013875 samples = 17030.4 CDDA sectors
File Size : 9.19M
Bit Rate : 324k
Sample Encoding: MPEG audio (layer I, II or III)
Comments :
Title=The Hierarchist
Artist=Deathwards
Album=Towards Death
Tracknumber=2
Year=2018
Genre=Death/Thrash Metal

[/more]

Register
(7) infiltrator, Olethros, Rosen, stumpheavyrock, Wail, wanderer73, wgs73,
Jan 12 2020, 22:55:25 Ordeals & Daethorn - Ordeals/Daethorn [split] (2018)


*Artist: Ordeals & Daethorn
*Album: Ordeals/Daethorn [split]
*Year: 2018
*Genre: Black/Death Metal | Black Metal
*Country: United States | France
*Format: mp3@CBR320kbps
*Size: 43MB

Tracklist:
Ordeals:
1. Intro / Night Of The Ghoul / Deadly Slumber (Daethorn Cover) / Bereft (Outro) 10:00
Daethorn:
2. Pervasive Corruption / Beyond The Shroud / Inevitable Demise 09:03
******************************
Total playing time: 19:03




[more=Technical info]
Input File: 02 - Daethorn - Pervasive Corruption-Beyond The Shroud-Inevitable Demise.mp3
Channels : 2
Sample Rate : 44100
Precision : 16-bit
Duration : 00:09:03.17 = 23953665 samples = 40737.5 CDDA sectors
File Size : 21.7M
Bit Rate : 320k
Sample Encoding: MPEG audio (layer I, II or III)
Comments :
Title=Pervasive Corruption / Beyond The Shroud / Inevitable Demise
Artist=Daethorn
Album=Ordeals / Daethorn
Tracknumber=2
Year=2018
Genre=Black Metal

[/more]

Register
(16) ASkyThatBurns, Hell_Is_Here, Ildjarn, infiltrator, kim666, morbidangelo, Ostinato, Rosen, satanist666, SilentNidhogg, stub888, thenecromancer, VALERY, varlam4, vasiljev_sergej, Wail,
Jan 12 2020, 22:04:52 Seventh Circle - Cycle Of Violence [demo] (2019)


*Artist: Seventh Circle
*Album: Cycle Of Violence [demo]
*Year: 2019
*Genre: Doom/Black/Death Metal
*Country: United States
*Format: mp3@CBR320kbps
*Size: 30MB

Tracklist:
1. Death Mask 04:14
2. Dwelling Lucifer 06:00
3. Babalon 02:51
******************************
Total playing time: 13:05



[more=Extended info]CD and cassette editions of "Cycle Of Violence" released through Caligari Records.[/more]

[more=Technical info]
Input File: 03 - Babalon.mp3
Channels : 2
Sample Rate : 44100
Precision : 16-bit
Duration : 00:02:51.09 = 7544981 samples = 12831.6 CDDA sectors
File Size : 6.92M
Bit Rate : 324k
Sample Encoding: MPEG audio (layer I, II or III)
Comments :
Title=Babalon
Artist=Seventh Circle
Album=Cycle Of Violence
Tracknumber=3/3
Year=2019
Genre=Black/Death Metal
Discnumber=1/1

[/more]

Register
(16) ASkyThatBurns, Doooomed, fallen, Hell_Is_Here, infiltrator, marilin, morbidangelo, Olethros, Ostinato, Rosen, satanist666, SilentNidhogg, VALERY, varlam4, vasiljev_sergej, Wail,
Jan 11 2020, 00:10:00 Prisoner Of War - Rot [ep] (2016)


*Artist: Prisoner Of War
*Album: Rot [ep]
*Year: 2016
*Genre: Death Metal
*Country: New Zealand
*Format: mp3@CBR320kbps
*Size: 61MB

Tracklist:
1. Slow And Painful Death By Gas 04:54
2. Evil Sky 04:31
3. Purgatorial Shadow 03:44
4. Twisted Mass Of Burnt Decay 02:07
5. Rot 05:45
******************************
Total playing time: 21:01



[more=Technical info]
Input File: 03 - Purgatorial Shadow.mp3
Channels : 2
Sample Rate : 44100
Precision : 16-bit
Duration : 00:03:44.36 = 9894056 samples = 16826.6 CDDA sectors
File Size : 12.5M
Bit Rate : 447k
Sample Encoding: MPEG audio (layer I, II or III)
Comments :
Title=Purgatorial Shadow
Artist=Prisoner Of War
Album=Rot
Tracknumber=3
Year=2016
Genre=Death Metal

[/more]

Register
(9) ASkyThatBurns, infiltrator, Olethros, Rosen, VALERY, varlam4, vyacheslav, wanderer73, wreak,
Jan 11 2020, 00:05:17 Temple Koludra - Tooth And Nail [ep] (2019)


*Artist: Temple Koludra
*Album: Tooth And Nail [ep]
*Year: 2019
*Genre: Black Metal
*Country: Germany
*Format: mp3@CBR320kbps
*Size: 49MB

Tracklist:
1. Tooth And Nail 05:56
2. Annutara 07:48
3. Unhallowed (Dissection Cover) 07:49
******************************
Total playing time: 21:33



[more=Technical info]
Input File: 01 - Tooth And Nail.mp3
Channels : 2
Sample Rate : 44100
Precision : 16-bit
Duration : 00:05:56.62 = 15726942 samples = 26746.5 CDDA sectors
File Size : 14.3M
Bit Rate : 322k
Sample Encoding: MPEG audio (layer I, II or III)
Comments :
Title=Tooth And Nail
Artist=Temple Koludra
Album=Tooth And Nail
Tracknumber=1
Year=2019
Genre=Black Metal

[/more]

Register
(20) 1968_janeart, ASkyThatBurns, Doooomed, Frozenkult, Hell_Is_Here, infiltrator, kim666, Olethros, Ostinato, peppuzzo, robertho777, Rosen, satanist666, SilentNidhogg, stub888, VALERY, varlam4, vasiljev_sergej, wreak, yuratroll,
Jan 11 2020, 00:00:06 Burnt Decay - Demo 2019 [demo] (2019)


*Artist: Burnt Decay
*Album: Demo 2019 [demo]
*Year: 2019
*Genre: Death Metal/Grindcore
*Country: United States
*Format: mp3@CBR320kbps
*Size: 14MB

Tracklist:
1. Endless War 00:59
2. Rotten Corpse Of Humanity 00:50
3. Life Of Suffering 01:06
4. Deceiver 01:04
5. Total Genocide 00:52
******************************
Total playing time: 4:51



[more=Extended info]Pro dubbed cassette tape released by Headsplit Records.[/more]

[more=Technical info]
Input File: 03 - Life Of Suffering.mp3
Channels : 2
Sample Rate : 44100
Precision : 16-bit
Duration : 00:01:06.62 = 2937898 samples = 4996.43 CDDA sectors
File Size : 2.85M
Bit Rate : 342k
Sample Encoding: MPEG audio (layer I, II or III)
Comments :
Title=Life Of Suffering
Artist=Burnt Decay
Album=Demo 2019
Tracknumber=3
Year=2019
Genre=Death Metal/Grindcore

[/more]

Register
(8) FUDEDOR, Hell_Is_Here, infiltrator, Olethros, Rosen, satanist666, varlam4, wreak,
Jan 7 2020, 23:26:17 Distant Fear - Mortal Column [demo] (2019)


*Artist: Distant Fear
*Album: Mortal Column [demo]
*Year: 2019
*Genre: Black Metal/Crust
*Country: New Zealand
*Format: mp3@CBR320kbps
*Size: 38MB

Tracklist:
1. Crude Sanctum 05:56
2. Mortal Column 04:14
3. Fatal Displeasure 05:56
******************************
Total playing time: 16:06



[more=Extended info]Professionally duplicated cassette tapes with hand printed, cut, triple stamped and folded/assembled j-cards and labels.[/more]

[more=Technical info]
Input File: 02 - Mortal Column.mp3
Channels : 2
Sample Rate : 44100
Precision : 16-bit
Duration : 00:04:14.32 = 11215468 samples = 19073.9 CDDA sectors
File Size : 10.4M
Bit Rate : 326k
Sample Encoding: MPEG audio (layer I, II or III)
Comments :
Title=Mortal Column
Artist=Distant Fear
Album=Mortal Column
Tracknumber=2
Year=2019
Genre=Black Metal

[/more]

Register
(12) 1968_janeart, ASkyThatBurns, EvgeniusLongus, infiltrator, Ludwig Hagen, marilin, morbidangelo, Olethros, Rosen, sludge666, vasiljev_sergej, Авел,
Jan 7 2020, 22:41:33 Encoffinate - Cimmerian Corpse Dungeon [demo] (2019)


*Artist: Encoffinate
*Album: Cimmerian Corpse Dungeon [demo]
*Year: 2019
*Genre: Death Metal
*Country: Canada
*Format: mp3@CBR320kbps
*Size: 55MB

Tracklist:
1. Man Eater 06:52
2. Autointerment 04:41
3. Black Skies Of Terror 05:49
4. Beneath The Wheels Of Blades 05:22
******************************
Total playing time: 22:44




[more=Extended info]Physical Copies Out by Caligari Records.
Limited to 200 copies. Pro Tapes / Pro Covers.[/more]

[more=Technical info]
Input File: 03 - Black Skies Of Terror.mp3
Channels : 2
Sample Rate : 44100
Precision : 16-bit
Duration : 00:05:49.59 = 15417051 samples = 26219.5 CDDA sectors
File Size : 14.3M
Bit Rate : 327k
Sample Encoding: MPEG audio (layer I, II or III)
Comments :
Title=Black Skies Of Terror
Artist=Encoffinate
Album=Cimmerian Corpse Dungeon
Tracknumber=3/4
Year=2019
Genre=Death Metal

[/more]

Register
(15) ASkyThatBurns, FUDEDOR, fuoco, Hell_Is_Here, infiltrator, Ludwig Hagen, marilin, morbidangelo, multizwilling, nord6666, Olethros, Ostinato, Rosen, vyacheslav, wanderer73,

27 Pages V   1 2 3 > » 
- Lo-Fi Version Support form
Copyrights and abuse reports form
Time is now: 28th February 2020 - 10:58:26