Welcome Guest ( Log In | Register )

История благодарностей участнику Panacea ::: Спасибо сказали: 12608 раз(а)
Дата поста: В теме: За сообщение: Спасибо сказали:
Aug 11 2022, 20:28:44 Heads For The Dead - The Great Conjuration (2022)


*Artist: Heads For The Dead
*Album: The Great Conjuration
*Year: 2022
*Genre: Death Metal
*Country: International
*Format: mp3@CBR320kbps
*Size: 104MB

Tracklist:
1. The Jewel Of The Seven Stars 04:35
2. The Beast 02:24
3. The Covenant 05:52
4. Rotten Bastard 03:18
5. The Breaking Wheel 03:09
6. The Bloodline 05:06
7. World Serpent Dominion 06:44
8. The Curse 06:02
9. Bloody Hammer 04:46
10. The Fog 04:55
******************************
Total playing time: 46:51



[more=Extended info]Horror-fixated death metal supergroup Heads For The Dead are back with their third full length to transport you once again to the realm of classic horror movies and they do it most convincingly this time around, with a sound that has been suffused with all the necessary elements, including spine-chilling atmospheric parts and truly terrifying vocals. They have mastered the art of giving the listener a complete experience, elevating their songwriting skills and making the music far more expressive and multi-faceted without disowning their thrash/punk inclination, and bringing onboard another guitarist to enhance the appeal by way of scintillating solos. The album is an exercise in alternating faster, crushing sections with slower, moodier ones, while retaining the ominous horror sound, and given the constant variations, it makes for a compelling experience from start to finish. Clearly, ‘The Great Conjuration’ is where Heads For The Dead have come into their own. They’ve crafted an album that is unparalleled in the line for its kind of intent, approach and execution.

For fans of - Wombbath, Revel In Flesh, Entombed, Grave, Bloodbath, Gatecreeper, Dismember, Sentient Horror

credits

releases September 2, 2022

Line up -
Ralf Hauber (Revel In Flesh) - Vocals / Lyrics and Concept
Jonny Pettersson (Wombbath) - Guitar / Bass / Keyboards and FX
Matt Moliti (Sentient Horror) - Guitar solos
Jon Rudin (Wombbath) - Drums

Cover photo artist Cory DeAn Cowley
Illustrational work and layout by The art of Badic Art


2022 Transcending Obscurity Records.[/more]

[more=Technical info]
Input File: 10 - The Fog.mp3
Channels : 2
Sample Rate : 44100
Precision : 16-bit
Duration : 00:04:55.36 = 13025332 samples = 22151.9 CDDA sectors
File Size : 11.9M
Bit Rate : 321k
Sample Encoding: MPEG audio (layer I, II or III)
Comments :
Title=The Fog
Artist=Heads For The Dead
Album=The Great Conjuration
Tracknumber=10
Year=2022
Genre=Death Metal

[/more]

Register
(19) alikkon, andreikun, artscald, autumnwood, Bardo, chipsgott, DarkHorde, GorAtheist, guidanner, Ignativs, judaz, madera, Marek, megam, metala, Samaritianin, stumpheavyrock, VALERY, Vladimir,
Jul 24 2022, 11:52:48 Arud - 2001...the Saturnus Mission [ep] (1999)
VBR 193 kbps
Register
(1) thenecromancer,
Jul 24 2022, 10:11:58 The Howling Wind - Oak [ep] (2022)


*Artist: The Howling Wind
*Album: Oak [ep]
*Year: 2022
*Genre: Black Metal
*Country: United States
*Format: mp3@VBR263kbps
*Size: 29MB

Tracklist:
1. Cursed Machines Of Catastrophic Failure 03:57
2. Oak 05:02
3. Time Erosion Weapon 03:13
4. Lost Dark Mountain 02:51
******************************
Total playing time: 15:03



[more=Extended info]2022 Self Recorded EP
Mastered by Colin Marston
Released February 4, 2022

Ryan Lipynsky - Guitar, Bass, Vocals, Synth & Noise
Tim Call - Drums, Vocals & Noise
All Music written and performed by The Howling Wind 2010-2022[/more]

[more=Technical info]
Input File: 01 - Cursed Machines Of Catastrophic Failure.mp3
Channels : 2
Sample Rate : 44100
Precision : 16-bit
Duration : 00:03:57.92 = 10492404 samples = 17844.2 CDDA sectors
File Size : 7.96M
Bit Rate : 268k
Sample Encoding: MPEG audio (layer I, II or III)
Comments :
Title=Cursed Machines Of Catastrophic Failure
Artist=The Howling Wind
Album=OAK
Tracknumber=1
Year=2022
Genre=Black Metal

[/more]

Register
(23) andivi, artscald, Boozer, caro, DeathDragon, dermarsoran, Hell_Is_Here, IncendiaryMight, kim666, Mencae77, metaljosue, Ostinato, Pornokrator, Reducer, Reverend, SilentNidhogg, stormhatt, stub888, VALERY, vasiljev_sergej, Vidder242, vovenom, V_H_H_V,
Jul 22 2022, 00:36:19 Triumvir Foul - Onslaught To Seraphim (2022)


*Artist: Triumvir Foul
*Album: Onslaught To Seraphim
*Year: 2022
*Genre: Death Metal
*Country: United States
*Format: mp3@CBR320kbps
*Size: 78MB

Tracklist:
1. Presage 04:40
2. Flesh Diocese 02:39
3. Domini Befallen (To Doom) 05:30
4. Bašmu Enthralled, Horned Creations 05:53
5. Serpents' Gnash For War 03:49
6. Slither Of Corruption (The Demise Of The Three Serpents) 04:01
7. Infected Virtue 02:50
8. Onslaught To Seraphim 05:09
******************************
Total playing time: 34:31




[more=Extended info]Triumvir Foul releases their third laceration of foul emanations - Onslaught to Seraphim. Co-manifested by Vrasubatlat and Invictus Productions, this final release of the cabal showcases Triumvir Foul's most violent offering to date. Tying in the theme of the three serpents of their first album, Onslaught of Seraphim tells the demise of the beasts in the waged war upon the heavens and the slaughtering of angels in their carnal demise. Onslaught to Seraphim is to be released on cassette by Vrasubatlat and CD by Invictus Productions on July 29th, with a co-released vinyl version to come soon after.

My phallic carnage and creations
Into angel's death
Skies morose with the perpetual drain
They writhe in dread
As I tear them from their wings
They pathetically squirming
The apocalyptic triumph over Jehovah
And the onslaught of Seraphim

This is VT-XXVI.
credits
releases July 29, 2022

TRIUMVIR FOUL IS:
Ad Infinitum - Perpetual Gnashing of Teeth Against Virtue and Carnal Sawing of Skins
Cedentibus - Flaying Hammers of Desecration and Doom

Cover painting and drawings by Abomination Hammer
Additional drawings by T. Grieco
Recorded and Mixed at Red Lantern Studio by Andrew Oswald
Mastered by Dan Lowndes

Onslaught to Seraphim is dedicated to T. Ketola.[/more]

[more=Technical info]
Input File: 06 - Slither Of Corruption (The Demise Of The Three Serpents).mp3
Channels : 2
Sample Rate : 44100
Precision : 16-bit
Duration : 00:04:01.69 = 10658441 samples = 18126.6 CDDA sectors
File Size : 9.66M
Bit Rate : 320k
Sample Encoding: MPEG audio (layer I, II or III)
Comments :
Title=Slither Of Corruption (The Demise Of The Three Serpents)
Artist=Triumvir Foul
Album=Onslaught To Seraphim
Tracknumber=6
Year=2022
Genre=Death Metal

[/more]

Register
(40) Ambercandle, andreikun, anotherandomofo, artscald, Boozer, caro, chipsgott, deatholocaust, DFaust, Doooomed, Evilded, greenock, hell_armageddon, Hell_Is_Here, helvetestoner, igore2911, infozahist, jollo, judaz, madera, MAPhilosopher, Marek, marilin, Mist13Signifier, MMMMM, Occultas, sacrut, SaintVitus, Scorpi, Shadechaser, smysl, supremo, troll_swamp, VALERY, Vitner, vyacheslav, wanderer73, wreak, wtk.412, WX419,
Jul 16 2022, 19:58:25 The Gloomy Radiance Of The Moon - When The Nameless Stars Serenade Your Ravenous Usurpation Of The Blackness (2022)
FLAC 236MB
Register


[youtube]Fsi3d1lkvUU[/youtube]
(5) Ildjarn, isvili, Occultas, smysl, wreak,
Jul 16 2022, 17:55:46 The Gloomy Radiance Of The Moon - When The Nameless Stars Serenade Your Ravenous Usurpation Of The Blackness (2022)


*Artist: The Gloomy Radiance Of The Moon
*Album: When The Nameless Stars Serenade Your Ravenous Usurpation Of The Blackness
*Year: 2022
*Genre: Symphonic Black Metal
*Country: Netherlands
*Format: mp3@CBR320kbps
*Size: 88MB

Tracklist:
1. The Rising Black Flames And The Shadow Of The Tower 01:29
2. The Burning Chariot Of Divinity Shall Bring Me To Algol 05:25
3. When the Dragonstorm Clouds Brake, Woe Betide The Worlds 05:36
4. Dreamer In The Constellation Of The Maltheistic Dreamlords 05:17
5. When The Nameless Stars Serenade Your Ravenous Usurpation Of The Blackness 04:46
6. The Severed Disharmony Of The Coiling Dimensions 04:58
7. As Quelling Light Devours All 04:43
8. The Tempestuous Temptation Of The Apotheoses Of Filth 04:13
******************************
Total playing time: 36:27



[more=Technical info]
Input File: 05 - When The Nameless Stars Serenade Your Ravenous Usurpation Of The Blackness.mp3
Channels : 2
Sample Rate : 44100
Precision : 16-bit
Duration : 00:04:59.58 = 13211258 samples = 22468.1 CDDA sectors
File Size : 12.0M
Bit Rate : 320k
Sample Encoding: MPEG audio (layer I, II or III)
Comments :
Title=When the Nameless Stars Serenade Your Ravenous Usurpation of the Blackness
Artist=The Gloomy Radiance Of The Moon
Album=When The Nameless Stars Serenade Your Ravenous Usurpation Of The Blackness
Tracknumber=5
Year=2022
Genre=Symphonic Black Metal

[/more]

Register
(29) AlexSmith, alikkon, Altkiller, artscald, Boozer, Carcharoth, caro, dermarsoran, Fallen Soul, grimoir, Hexenmeister, infozahist, kim666, kimkayoung, legion01, Mogozoz, Narasimha, Occultas, Sanctus, Shadechaser, SilentNidhogg, stormhatt, supremo, VALERY, vasiljev_sergej, wreak, yuratroll, zhol, Сварог Барг,
Jul 3 2022, 14:55:32 Burden Man & Othrs - Grievance [split] (2021)


*Artist: Burden Man & Othrs
*Album: Grievance [split]
*Year: 2021
*Genre: Post-Black Metal | Post-Black Metal
*Country: Australia | Australia
*Format: mp3@CBR320kbps
*Size: 73MB

Tracklist:
Burden Man:
1. Hours of Emptiness 07:53
2. Desire for Silence 09:00
Othrs:
3. Concrete Graveyard 07:25
4. Invisible Mountain 07:39
******************************
Total playing time: 31:57




[more=Technical info]
Input File: 03 - OTHRS - Concrete Graveyard.mp3
Channels : 2
Sample Rate : 44100
Precision : 16-bit
Duration : 00:07:25.62 = 19651666 samples = 33421.2 CDDA sectors
File Size : 17.8M
Bit Rate : 320k
Sample Encoding: MPEG audio (layer I, II or III)
Comments :
Title=Concrete Graveyard
Artist=OTHRS
Album=Grievance
Tracknumber=3
Year=2021
Genre=Post-Black Metal

[/more]

Register
(15) aleon, artscald, caro, ctulhudagon, Dante_D, dermarsoran, gena, kim666, Mencae77, SilentNidhogg, stormhatt, supremo, VALERY, vasiljev_sergej, wreak,
Jul 3 2022, 13:28:57 Condescendance - Chao Wampirii [demo] (2021)


*Artist: Condescendance
*Album: Chao Wampirii [demo]
*Year: 2021
*Genre: Raw Black Metal
*Country: France
*Format: mp3@CBR192kbps
*Size: 40MB

Tracklist:
1. Trepidatio I - Chao Wampirii 07:04
2. Trepidatio II - Le Fantôme Des Brumes 08:11
3. Trepidatio III - Le Mal (Rimbaud 1870) 08:33
4. Trepidatio IV 04:33
******************************
Total playing time: 28:21



[more=Extended info]"Raw & Sinister Black Metal from France, part of the Garde Noire circle.
Garde Noire is a prolific and interesting occult French circle, taking inspiration from the legendary LLN and Portuguese Black Metal circles, conjuring raw and tormented music in the styles of Raw Black Metal, Noise and Dark Ambient."

Cassette by Asylum Tenebris.
Digipak CD by Lunar Apparitions.[/more]

[more=Technical info]
Input File: 04 - Trepidatio IV.mp3
Channels : 2
Sample Rate : 44100
Precision : 16-bit
Duration : 00:04:33.39 = 12056631 samples = 20504.5 CDDA sectors
File Size : 6.56M
Bit Rate : 192k
Sample Encoding: MPEG audio (layer I, II or III)
Comments :
Title=Trepidatio IV
Artist=Condescendance
Album=Chao Wampirii
Tracknumber=4
Year=2021
Genre=Raw Black Metal

[/more]

Register
(10) artscald, caro, dermarsoran, Hell_Is_Here, kim666, Olethros, SilentNidhogg, stormhatt, vasiljev_sergej, wreak,
Jul 3 2022, 13:03:04 Twilight - Apocryphal Souls [compilation] (2014)


*Artist: Twilight
*Album: Apocryphal Souls [compilation]
*Year: 2014
*Genre: Black Metal
*Country: Greece
*Format: flac
*Size: 233MB

Tracklist:
1. In Nocturnal Gates 03:21
2. Summoning the Sixth Angels (Calling from the North) 02:55
3. Kingdom of Wrath 02:51
4. Sign from the Underworld 03:24
5. Outro (The End) 01:07
6. Demonical Image (Intro) 01:56
7. A Tale from the Ancient War 02:52
8. In Wisdom of Darkness 04:15
9. Consequence of the Ghosts (Through the Eye of the Evil) 01:40
10. Cry for Him 03:08
11. The Fall of Soul (Outro) 02:02
12. Intro 00:43
13. The Fall (Reclamation of Thy Throne) 03:52
14. Intro 01:08
15. Walking Under the Frozen Land 05:00
16. Arising Thy Horned One (htao terces eht) 06:57
17. Intro 00:53
18. Lycanthropic Cult 04:00
19. Anthem for the Initiation of Black Magician 03:46
20. Outro 00:38
******************************
Total playing time: 56:28

[more=Extended info]"Another bloody testimony of the ancient Hellenic Black metal scene,the entire demography,plus exclusive unreleased material of TWILIGHT is now exhumed from the dark past and destined to haunt the living.
The master for these releases was FULLY approved by the band.It was sourced by Archfiend Devilpig’s tapes & got digitally transferred by Herald of Demonic Pestilence(EMBRACE OF THORNS) this material sure doesn’t sound perfect but carries the authentic Black metal spirit of the early 90ies intact.
The booklets include ancient bios,flyers,interviews from legendary zines of the past like:BLASPHEMOUS,STREGOICA,BLOKONG,UNHOLINESS plus a very in depth interview with Odes from Absu & Chords from Hell conducted by Archfiend Devilpig exclusively for these releases."[/more]

Register
(19) artscald, avather, caro, dermarsoran, Hell_Is_Here, igore2911, Ildjarn, kim666, Mencae77, Olethros, princeshr, SilentNidhogg, stormhatt, supremo, Svafrlami, thenecromancer, VALERY, Wail, wreak,
Jul 3 2022, 12:01:11 Old Nick - Ghost O' Clock [ep] (2022)


*Artist: Old Nick
*Album: Ghost O' Clock [ep]
*Year: 2022
*Genre: Raw Black Metal/Dungeon Synth
*Country: United States
*Format: mp3@CBR320kbps
*Size: 62MB

Tracklist:
1. Ghost O' Clock 04:38
2. Curse of the Vampire's Fedora 03:48
3. A Witch's Bike In The Forest 03:17
4. Wrinkling Crinkling Sounds In Your Room 01:05
5. Spooky Wicker Basket 1994 (yes, a Witch!) 03:18
6. Weeping Mystery Trench Coat 03:02
7. Ghost of Sourdough Bread and 2% Milk 07:48
******************************
Total playing time: 26:56



[more=Technical info]
Input File: 02 - Curse of the Vampire\'s Fedora.mp3
Channels : 2
Sample Rate : 44100
Precision : 16-bit
Duration : 00:03:48.30 = 10067986 samples = 17122.4 CDDA sectors
File Size : 9.26M
Bit Rate : 324k
Sample Encoding: MPEG audio (layer I, II or III)
Comments :
Title=Curse of the Vampire's Fedora
Artist=Old Nick
Album=Ghost O' Clock
Tracknumber=2
Year=2022
Genre=Black Metal

[/more]

Register
(18) Adremelech, Alexis The Best, apries, artscald, Boozer, caro, dan22, Hell_Is_Here, Ignativs, kolar666, madera, Narasimha, Olethros, Reducer, SilentNidhogg, stormhatt, Vitald, wreak,
Jul 3 2022, 11:57:30 Old Nick - Crisp Winter Dawn Of My Night Moon [ep] (2021)


*Artist: Old Nick
*Album: Crisp Winter Dawn Of My Night Moon [ep]
*Year: 2021
*Genre: Raw Black Metal/Dungeon Synth
*Country: United States
*Format: mp3@CBR320kbps
*Size: 44MB

Tracklist:
1. Crisp Winter Dawn of My Night Moon 04:41
2. The Worst Vampire 01:49
3. Haunted Broom 03:11
4. A Towering Ghost of Nightmares 02:22
5. A Witch Cries in Massachusetts 02:41
6. Shepard of the Rats 2 03:43
******************************
Total playing time: 18:27



[more=Technical info]
Input File: 05 - A Witch Cries in Massachusetts.mp3
Channels : 2
Sample Rate : 44100
Precision : 16-bit
Duration : 00:02:41.66 = 7129074 samples = 12124.3 CDDA sectors
File Size : 6.83M
Bit Rate : 338k
Sample Encoding: MPEG audio (layer I, II or III)
Comments :
Title=A Witch Cries in Massachusetts
Artist=Old Nick
Album=Crisp Winter Dawn of My Night Moon
Tracknumber=5
Year=2021

[/more]

Register
(15) Adremelech, Alexis The Best, artscald, Boozer, caro, Hell_Is_Here, Ignativs, kim666, kolar666, madera, Occultas, Olethros, SilentNidhogg, stormhatt, wreak,
Jul 3 2022, 11:54:30 Bloody Keep - Bloody Keep [ep] (2021)


*Artist: Bloody Keep
*Album: Bloody Keep [ep]
*Year: 2021
*Genre: Raw Black Metal/Dungeon Synth
*Country: United States
*Format: flac
*Size: 44MB

Tracklist:
1. Max Schreck's Dead 02:37
2. Unbelievable Face Of Evil 04:08
3. O Vampire Of The Night 05:11
******************************
Total playing time: 11:56



Register
(4) Alexis The Best, artscald, dermarsoran, kim666,
Jul 1 2022, 23:20:55 Μνήμα - Gathering Sorcery To The Eternal Portals Of The Past PT III [ep] (2022)


*Artist: Μνήμα
*Album: Gathering Sorcery To The Eternal Portals Of The Past PT III [ep]
*Year: 2022
*Genre: Raw Black Metal/Noise
*Country: Greece
*Format: mp3@CBR320kbps
*Size: 53MB

Tracklist:
1. Gathering Sorcery To The Eternal Portals Of The Past V 05:37
2. Gathering Sorcery To The Eternal Portals Of The Past VI 03:58
3. Gathering Sorcery To The Eternal Portals Of The Past VII 08:00
4. Gathering Sorcery To The Eternal Portals Of The Past VIII 02:56
******************************
Total playing time: 20:31




[more=Technical info]
Input File: 02 - Gathering Sorcery To The Eternal Portals Of The Past VI.mp3
Channels : 2
Sample Rate : 44100
Precision : 16-bit
Duration : 00:03:58.72 = 10527684 samples = 17904.2 CDDA sectors
File Size : 9.75M
Bit Rate : 327k
Sample Encoding: MPEG audio (layer I, II or III)
Comments :
Title=Gathering Sorcery to the Eternal Portals of the Past VI
Artist=ÌíÞìá
Album=Gathering Sorcery To The Eternal Portals Of The Past PT III
Tracknumber=2
Year=2022
Genre=Raw Black Metal/Noise

[/more]

Register
(14) artscald, caro, Hell_Is_Here, kim666, Olethros, sacrut, SilentNidhogg, stormhatt, Styx, the_cleanser, Tyrone, vasiljev_sergej, wreak, Абигор,
Jun 30 2022, 22:07:49 Nergal - Symbol Of Zadkiel [demo] (1992)


*Artist: Nergal
*Album: Symbol Of Zadkiel [demo]
*Year: 1992
*Genre: Black/Death Metal
*Country: Switzerland
*Format: mp3@CBR320kbps
*Size: 38MB

Tracklist:
1. Rite Of Beltane 04:41
2. Symbol Of Zadkiel 04:28
3. The Winter Soltice Black Mass (Cosmic Brain Surgery) 04:14
4. Fountain (In Eternal Falls) 03:02
******************************
Total playing time: 16:25

[more=Technical info]
Input File: 03 - The Winter Solstice Black Mass (Cosmic Brain Surgery).mp3
Channels : 2
Sample Rate : 44100
Precision : 16-bit
Duration : 00:04:14.95 = 11243119 samples = 19121 CDDA sectors
File Size : 10.2M
Bit Rate : 320k
Sample Encoding: MPEG audio (layer I, II or III)
Comments :
Title=The Winter Solstice Black Mass (Cosmic Brain Surgery)
Artist=Nergal
Album=Symbol Of Zadkiel
Tracknumber=3
Year=1992
Genre=Black/Death Metal

[/more]

Register
(17) artscald, Carcharoth, caro, EvgeniusLongus, fuoco, MP101M, Olethros, Reverend, SilentNidhogg, Spork, Storky, stormhatt, stumpheavyrock, Svafrlami, VALERY, vasiljev_sergej, wreak,
Jun 28 2022, 13:15:06 Manowar - Highlights From The Revenge Of Odysseus [ep] (2022)
[youtube]jinb69SwOpQ[/youtube]
[youtube]ezCzSjL82Uw[/youtube]
[youtube]emCvnSLJCWw[/youtube]
[youtube]hKANWCGqBpY[/youtube]
(2) CTPEMLEHIE, rominow,
Jun 27 2022, 20:26:22 Manowar - Highlights From The Revenge Of Odysseus [ep] (2022)


*Artist: Manowar
*Album: Highlights From The Revenge Of Odysseus [ep]
*Year: 2022
*Genre: Heavy/Power Metal
*Country: United States
*Format: mp3@CBR320kbps
*Size: 32MB

Tracklist:
1. Athena's Theme 00:57
2. Telemachus - Part I 02:42
3. Where Eagles Fly 03:27
4. Odysseus And Calypso - The Island Of Ogygia 00:45
5. Immortal 06:26
******************************
Total playing time: 14:17

[more=Extended info]"Highlights From The Revenge Of Odysseus" is based on «The Odyssey», Homer‘s tale of the great hero Odysseus and his long and perilous quest to return to his wife and son.
Bassist/leader Joey DeMaio traveled to Athens to record a narration with father-and-son team Kostas and Konstantinos Kazakos. Kostas, hailed in Greece for his participation in many movies and as an accomplished theater actor and writer, and his son Kostantinos, who is also a talented actor, narrated a touching dialogue between Odysseus and his son Telemachus. And to honor the historic source material, they did so in Ancient Greek, translated from English by Sakis Tolis of Rotting Christ.

The tracks worldwide premiere was in the "Release Athens" festival in Athens Greece on 22 June 2022.
That concert was also the start of the "The Revenge of Odysseus" anniversary tour 2022 - 2023.[/more]

[more=Technical info]
Input File: 5 - Immortal.mp3
Channels : 2
Sample Rate : 44100
Precision : 16-bit
Duration : 00:06:27.04 = 17068464 samples = 29028 CDDA sectors
File Size : 15.6M
Bit Rate : 322k
Sample Encoding: MPEG audio (layer I, II or III)
Comments :
Title=Immortal
Artist=Manowar
Album=Highlights From The Revenge Of Odysseus
Tracknumber=5
Year=2022
Genre=Heavy Power Metal

[/more]

Register
(62) after21allD, apostol_13, Aresson, artscald, Bannkreis, Bardo, Bloodline Christian, boby9052, Boozer, caro, Cartman223, cesar, chipsgott, dcatagua, DTGB, dulak, Emhyr var Emreis, Femto, gwar, gwynnbleid, Herrant, HMHamster, infozahist, John Beak, Kasper969, kimkayoung, Konst, kostja, lafuma, lucifix, Luminous, Lux, m4r, Melusinara, MercedesSchenz, METALHUNTER, metalwoman, Mogozoz, morrom, nekrokilldozer, nikolay81, Old Vyaine, older68, Olethros, princeshr, rammmirez, recber, Reverend, robertho777, Rover, sepultura39, stumpheavyrock, TeamatSE, thenecromancer, v.v.m, VALERY, Vladimir, Wail, WarmasterChorus, wreak, Yarri, Сварог Барг,
Jun 26 2022, 11:15:13 King Dude - Songs Of The 1940's - Part Two [ep] (2022)


*Artist: King Dude
*Album: Songs Of The 1940's - Part Two [ep]
*Year: 2022
*Genre: Americana/Folk Rock/Blues/Country
*Country: United States
*Format: mp3@CBR320kbps
*Size: 25MB

Tracklist:
1. Don't Fence Me In 02:36
2. Sixteen Tons 02:34
3. Pistol Packin Mama 02:37
4. I Saw The Light 02:56
******************************
Total playing time: 10:43



[more=Technical info]
Input File: 01 - Don’t Fence Me In.mp3
Channels : 2
Sample Rate : 44100
Precision : 16-bit
Duration : 00:02:36.60 = 6906104 samples = 11745.1 CDDA sectors
File Size : 6.53M
Bit Rate : 334k
Sample Encoding: MPEG audio (layer I, II or III)
Comments :
Title=Don't Fence Me In
Artist=King Dude
Album=Songs Of The 1940's - Part Two
Tracknumber=1/4
Year=2022
Genre=Americana/Folk Rock/Blues/Country
Discnumber=1/1

[/more]

Register
(7) Boozer, Emhyr var Emreis, gwar, Konst, nemx, Shub, Vitner,
Jun 26 2022, 11:06:17 King Dude & Der Blutharsch And The Infinite Church Of The Leading Hand - Black Rider On The Storm [collaboration] (2022)


*Artist: King Dude & Der Blutharsch And The Infinite Church Of The Leading Hand
*Album: Black Rider On The Storm [collaboration]
*Year: 2022
*Genre: Folk Rock/Dark Folk/Americana/Blues | Psychedelic Rock/Krautrock
*Country: United States | Austria
*Format: mp3@CBR320kbps
*Size: 105MB

Tracklist:
1. Hell's Canyon 03:08
2. Black Rider On The Storm 03:53
3. All I See Is You 04:10
4. The Drifter And The Dog 05:05
5. Bury The Knife 02:26
6. Holy Congregation 04:11
7. Strange Visions 04:34
8. Spiritual Vampire 04:22
9. Dead Man 04:11
10. The Bitter Cup 05:55
11. Going To The Sun 03:23
******************************
Total playing time: 45:18



[more=Extended info]Black Rider On The Storm tells the story of a civil war veteran who must travel far and wide to find the men who murdered his family and burned down his homestead.
credits
released April 20, 2022

Lyrics and album concept by King Dude. Music by King Dude and Der Blutharsch. Recorded in many places and many months between 2020-2021.[/more]

[more=Technical info]
Input File: 08 - Spiritual Vampire.mp3
Channels : 2
Sample Rate : 44100
Precision : 16-bit
Duration : 00:04:22.37 = 11570605 samples = 19677.9 CDDA sectors
File Size : 10.7M
Bit Rate : 325k
Sample Encoding: MPEG audio (layer I, II or III)
Comments :
Title=Spiritual Vampire
Artist=King Dude & Der Blutharsch And The Infinite Church Of The Leading Hand
Album=Black Rider On The Storm
Tracknumber=8
Year=2022
Genre=Folk Rock/Dark Folk/Americana/Blues

[/more]

Register
(8) Boozer, DHS, ent404, gwar, Konst, nemx, Shub, sludge666,
Jun 25 2022, 07:15:52 Lythany & Vrkolak - Lythany/Vrkolak [split] (2022)
[youtube]QwpsyyGZQ4k[/youtube]
(1) Storky,
Jun 25 2022, 00:16:27 Sadness - Tortuga (2022)


*Artist: Sadness
*Album: Tortuga
*Year: 2022
*Genre: Depressive/Shoegaze/Post-Black Metal
*Country: United States
*Format: mp3@CBR320kbps
*Size: 135MB

Tracklist:
1. August Flower 04:19
2. Attention To Detail Bloom Mayflowers 05:48
3. Falling In Love With You 09:26
4. Rana 09:39
5. Ausente 07:43
6. Your Hand Melts Into Mine 09:25
7. Dream Of Me 12:58
******************************
Total playing time: 59:18



[more=Technical info]
Input File: 04 - Rana.mp3
Channels : 2
Sample Rate : 44100
Precision : 16-bit
Duration : 00:09:39.95 = 25575927 samples = 43496.5 CDDA sectors
File Size : 23.7M
Bit Rate : 326k
Sample Encoding: MPEG audio (layer I, II or III)
Comments :
Title=Rana
Artist=Tortuga
Album=Sadness
Tracknumber=4/7
Year=2022
Genre=Depressive/Post-Black Metal

[/more]

Register
(26) aleon, AlexSmith, artscald, Carcharoth, caro, Dante_D, JantoHadez, kim666, KVRT, Lamby90, nemx, Olethros, Ostinato, princeshr, Reducer, robertho777, SatanicPanzer, Shadechaser, SilentNidhogg, stormhatt, supremo, Torop, Velmi, wreak, Yorker, ___NIHIL___,
Jun 24 2022, 22:22:55 Lythany & Vrkolak - Lythany/Vrkolak [split] (2022)


*Artist: Lythany & Vrkolak
*Album: Lythany/Vrkolak [split]
*Year: 2022
*Genre: Black Metal | Black Metal
*Country: Portugal | Bosnia and Herzegovina
*Format: mp3@VBR274kbps
*Size: 57MB

Tracklist:
Lythany:
1. Behold The Seed Of Ordeal 07:03
2. Suffused With Twilight Spells 07:09
Vrkolak:
3. Cursed Flesh Burns 06:22
4. Night Of Suffering 08:07
******************************
Total playing time: 28:41

[more=Extended info]Black Gangrene Productions.[/more]

[more=Technical info]
Input File: 01 - Lythany - Behold The Seed Of Ordeal.mp3
Channels : 2
Sample Rate : 44100
Precision : 16-bit
Duration : 00:07:03.31 = 18668147 samples = 31748.5 CDDA sectors
File Size : 13.8M
Bit Rate : 260k
Sample Encoding: MPEG audio (layer I, II or III)
Comments :
Title=Behold The Seed Of Ordeal
Artist=Lythany
Album=Lythany / Vrkolak
Tracknumber=01/4
Year=2022
Genre=Black Metal
Discnumber=1/1

[/more]

Register
(18) Alexis The Best, artscald, Boozer, Carcharoth, caro, ChaosArcana, Hell_Is_Here, Ildjarn, kim666, Lanceatum, murian, SilentNidhogg, Storky, stormhatt, supremo, VALERY, vasiljev_sergej, wreak,
Jun 20 2022, 21:30:33 Fortress Of The Pearl - The Shore [ep] (2022)


*Artist: Fortress Of The Pearl
*Album: The Shore [ep]
*Year: 2022
*Genre: Experimental/Psychedelic Black Metal
*Country: Greece
*Format: mp3@CBR320kbps
*Size: 36MB

Tracklist:
1. The Shore 15:40
******************************
Total playing time: 15:40



[more=Technical info]
Input File: 01 - The Shore.mp3
Channels : 2
Sample Rate : 44100
Precision : 16-bit
Duration : 00:15:40.86 = 41491706 samples = 70564.1 CDDA sectors
File Size : 37.8M
Bit Rate : 321k
Sample Encoding: MPEG audio (layer I, II or III)
Comments :
Title=The Shore
Artist=Fortress Of The Pearl
Album=The Shore
Tracknumber=1
Year=2022

[/more]

Register
(10) artscald, caro, judaz, Mencae77, Olethros, recber, Rikardo90, stormhatt, vasiljev_sergej, wreak,
Jun 20 2022, 21:13:51 Fortress Of The Pearl - Fortress Of The Pearl [ep] (2022)


*Artist: Fortress Of The Pearl
*Album: Fortress Of The Pearl [ep]
*Year: 2022
*Genre: Experimental/Psychedelic Black Metal
*Country: Greece
*Format: mp3@CBR320kbps
*Size: 59MB

Tracklist:
1. Dancing Steel 10:01
2. The Dreamthieves 11:19
3. Engulfed In A Tide Of Sand 04:40
******************************
Total playing time: 26:00



[more=Technical info]
Input File: 02 - The Dreamthieves.mp3
Channels : 2
Sample Rate : 44100
Precision : 16-bit
Duration : 00:11:19.83 = 29980283 samples = 50986.9 CDDA sectors
File Size : 27.4M
Bit Rate : 322k
Sample Encoding: MPEG audio (layer I, II or III)
Comments :
Title=The Dreamthieves
Artist=Fortress Of The Pearl
Album=Fortress Of The Pearl
Tracknumber=2
Year=2022

[/more]

Register
(12) artscald, caro, Mencae77, Olethros, recber, Rikardo90, SilentNidhogg, stormhatt, VALERY, vasiljev_sergej, Vitald, wreak,
Jun 19 2022, 16:26:09 Brendan Perry - Songs Of Disenchantment (Music From The Greek Underground) (2020)


*Artist: Brendan Perry
*Album: Songs Of Disenchantment (Music From The Greek Underground)
*Year: 2020
*Genre: Folk/Rebetiko
*Country: United Kingdom
*Format: mp3@CBR320kbps
*Size: 96MB

Tracklist:
1. Bring Me A Cup Of Wine 04:45
2. Gypsy Girl 03:26
3. In The Basement 04:46
4. The Hash-Den Owner 03:27
5. O Memetis 04:16
6. In The City's Hammam 03:23
7. Tonight In Your Neighbourhood 03:49
8. You Were Barefoot 03:43
9. The Pickpockets 03:37
10. Christos, Play The Bouzouki 04:22
******************************
Total playing time: 39:34



[more=Extended info]"I first heard, what only many years later I finally came to know as Rebetiko music, in the Greek cafes and tavernas of suburban Melbourne in the late seventies.These places were predominantly the local social hubs of Greek migrants who had been coming in successive waves to Australia since the late 19th century and during the day were often populated by groups of old men playing backgammon and sipping ouzo whilst listening to laika and rebetiko music.
As it happens I too had been a migrant to these southern climes from England some years earlier and as good fortune would have it our means of conveyance for the six week long voyage was an old Greek ship called the ‘Ellinis’. It was on board this ship that my own personal musical odyssey began when I first learnt to play the guitar.
Over the years my love for ‘all things Greek’ has run somewhat unabated and especially with regard to Rebetiko music. I have amassed a considerable collection of recorded music, traditional instruments and memorabilia over the years that would eventually give me the inspiration and valued education required to be able to record some of these wonderful songs.
The fact that there has been virtually no recorded versions of Rebetiko songs sung in English was also a great surprise to me and was ultimately the prime motivator for me to share these songs with an English speaking audience as well as pique the curiosity of the die hard traditionalist."

Brendan Perry
Bretagne, France.

Dedicated to all Refugees Past, Present and Future.[/more]

[more=Technical info]
Input File: 09 - The Pickpockets.mp3
Channels : 2
Sample Rate : 44100
Precision : 16-bit
Duration : 00:03:37.50 = 9591838 samples = 16312.6 CDDA sectors
File Size : 8.97M
Bit Rate : 330k
Sample Encoding: MPEG audio (layer I, II or III)
Comments :
Title=The Pickpockets
Artist=Brendan Perry
Album=Songs Of Disenchantment (Music From The Greek Underground)
Tracknumber=09/10
Year=2020
Genre=Folk/Rebetiko

[/more]

Register
(7) A.L.Rapsod, Dante_D, DJAHAN, gwar, Olethros, princeshr, xska,
Jun 15 2022, 18:58:01 Pilori - Quand Bien Même L'enfer Et Le Déluge S'abattraient Sur Nous (2022)


*Artist: Pilori
*Album: Quand Bien Même L'enfer Et Le Déluge S'abattraient Sur Nous
*Year: 2022
*Genre: Blackened Crust/Punk/Grindcore/Hardcore
*Country: France
*Format: mp3@VBR275kbps
*Size: 65MB

Tracklist:
1. De Guerre Lasse 03:36
2. Meurtrière 01:43
3. Entre Chien Et Loup 03:05
4. Maelström 00:47
5. Quand Bien Même L'Enfer... 04:40
6. Une Livre De Chair 02:57
7. Où Gisent Les Ancres 01:35
8. Au Prix De Tous Les Sacrifices 01:16
9. En Haut Des Cimes 03:29
10. ...Et Le Déluge 05:56
******************************
Total playing time: 29:04







[more=Technical info]
Input File: 07 - Ou Gisent Les Ancres.mp3
Channels : 2
Sample Rate : 44100
Precision : 16-bit
Duration : 00:01:35.27 = 4201319 samples = 7145.1 CDDA sectors
File Size : 3.53M
Bit Rate : 297k
Sample Encoding: MPEG audio (layer I, II or III)
Comments :
Title=Ou Gisent Les Ancres
Artist=Pilori
Album=Quand Bien Meme L'Enfer Et Le Deluge S'abattraient Sur Nous
Tracknumber=7
Year=2022
Genre=Blackened Crust/Punk/Grindcore/Hardcore

[/more]

Register
(11) artscald, caro, Hell_Is_Here, nemx, Olethros, SadistikSlayer, sludge666, spazm, supremo, wreak, yuratroll,

38 Pages V   1 2 3 > » 
- Lo-Fi Version Support form
Copyrights and abuse reports form
Time is now: 16th August 2022 - 11:25:00