Welcome Guest ( Log In | Register )

История благодарностей участнику Panacea ::: Спасибо сказали: 8293 раз(а)
Дата поста: В теме: За сообщение: Спасибо сказали:
Aug 1 2020, 17:08:55 Ifernach - The Green Enchanted Forest Of The Druid Wizard (2020)


*Artist: Ifernach
*Album: The Green Enchanted Forest Of The Druid Wizard
*Year: 2020
*Genre: Black Metal
*Country: Canada
*Format: mp3@CBR320kbps
*Size: 93MB

Tracklist:
1. The Green Enchanted Forest Of The Druid Wizard 01:40
2. The Passage Of Dithreabhach 05:33
3. A Cursed Spear 08:37
4. In The Hollow Of The Togharmach 04:44
5. Teinm Laida I 05:02
6. Teinm Laida II 06:00
7. A Winter Tree Clad In Black Frost 04:34
8. Hidden Palaces Under The Green Hills 06:17
******************************
Total playing time: 42:27

[more=Extended info]Cassette version released by Tour de Garde.
12" vinyl version released by GoatowaRex.[/more]

[more=Technical info]
Input File: 04 - In The Hollow Of The Togharmach.mp3
Channels : 2
Sample Rate : 44100
Precision : 16-bit
Duration : 00:04:44.73 = 12556461 samples = 21354.5 CDDA sectors
File Size : 11.4M
Bit Rate : 320k
Sample Encoding: MPEG audio (layer I, II or III)
Comments :
Title=In The Hollow Of The Togharmach
Artist=Ifernach
Album=The Green Enchanted Forest Of The Druid Wizard
Tracknumber=4
Year=2020
Genre=Black Metal

[/more]

Register
(39) 1968_janeart, acerbus, alikkon, atavist, craP_cillA, garmonbozia, grimoir, Hell_Is_Here, INDARKNESS, infiltrator, kim666, LEGION69, Mares, MMMMM, multizwilling, murian, nemx, Olethros, Ostinato, pahail, rammmirez, randumbum, robertho777, Rosen, satanist666, scorpionmk, sethurius, SilentNidhogg, stub888, supremo, thenecromancer, tim47, toly1917, VALERY, vasiljev_sergej, Vraithee, Wail, xska, Абигор,
Aug 1 2020, 15:44:16 Pan-Amerikan Native Front - Tecumseh's War (2016)


*Artist: Pan-Amerikan Native Front
*Album: Tecumseh's War
*Year: 2016
*Genre: Black Metal
*Country: United States
*Format: mp3@CBR320kbps
*Size: 91MB

Tracklist:
1. Woodlands Warfare 02:36
2. Indigenous Blood Revival 05:50
3. Raising The War Club 04:37
4. Tenskwatawa 05:53
5. Tecumseh's Confederacy 06:39
6. Anti-Expansionist Diplomacy 04:43
7. Battle Of The Thames 08:08
8. Panther In The Sky 01:24
******************************
Total playing time: 39:50



[more=Technical info]
Input File: 03 - Raising The War Club.mp3
Channels : 2
Sample Rate : 44100
Precision : 16-bit
Duration : 00:04:37.66 = 12244894 samples = 20824.6 CDDA sectors
File Size : 11.1M
Bit Rate : 320k
Sample Encoding: MPEG audio (layer I, II or III)
Comments :
Title=Raising The War Club
Artist=Pan-Amerikan Native Front
Album=Tecumseh's War
Tracknumber=03
Year=2016
Genre=Black Metal

[/more]

Register
(18) 1968_janeart, ahp, atavist, craP_cillA, infiltrator, kim666, Kodel, lordbathor, Olethros, randumbum, robertho777, satanist666, SilentNidhogg, stub888, supremo, VALERY, vasiljev_sergej, Vraithee,
Jul 27 2020, 19:23:43 Yxxan - Inverterat Korståg [demo] (2019)
CBR 320 kbps
Register
(5) craP_cillA, Daale, sacramentary, satanist666, Wail,
Jul 27 2020, 19:23:02 Yxxan - Satanic Fortification Overbalance [demo] (2020)


*Artist: Yxxan
*Album: Satanic Fortification Overbalance [demo]
*Year: 2020
*Genre: Black/Death Metal
*Country: Sweden
*Format: mp3@CBR320kbps
*Size: 39MB

Tracklist:
1. Eradication Initiation (Intro) & Holy Father - Dethroned and Desecrated 03:29
2. Eternal Adversary 02:08
3. Black Sun Stillborn 03:07
4. Kärnvapen Över Kärnfamiljen 03:29
5. Crucifix Grinder 01:48
6. Lead Me To War (Mother Satan) & Back In The Stone Age (Outro) 03:22
******************************
Total playing time: 17:23




[more=Technical info]
Input File: 03 - Black Sun Stillborn.mp3
Channels : 2
Sample Rate : 44100
Precision : 16-bit
Duration : 00:03:07.68 = 8276556 samples = 14075.8 CDDA sectors
File Size : 7.57M
Bit Rate : 323k
Sample Encoding: MPEG audio (layer I, II or III)
Comments :
Title=Black Sun Stillborn
Artist=Yxxan
Album=Satanic Fortification Overbalance
Tracknumber=3/6
Year=2020
Genre=Black/Death Metal
Discnumber=1/1

[/more]

Register
(20) Bzth, craP_cillA, Daale, FUDEDOR, fuoco, grimoir, Hell_Is_Here, infiltrator, multizwilling, Olethros, randumbum, Rosen, satanist666, Shadechaser, SilentNidhogg, stumpheavyrock, Styx, VALERY, vasiljev_sergej, wolverine,
Jul 25 2020, 17:47:23 Desire - There Where Candles Fade (1998)
CBR 320 kbps
Register
(1) thenecromancer,
Jul 23 2020, 20:58:07 Puro Odio - Demo 2018 [demo] (2018)


*Artist: Puro Odio
*Album: Demo 2018 [demo]
*Year: 2018
*Genre: Hardcore/Punk/Black Metal
*Country: Spain
*Format: mp3@CBR320kbps
*Size: 25MB

Tracklist:
1. Condena 01:45
2. Caos 01:27
3. Darby Crash 01:52
4. Descanse En Paz 01:22
5. Venganza 02:10
6. Puro Odio 02:59
******************************
Total playing time: 11:35



[more=Technical info]
Input File: 01 - Condena.mp3
Channels : 1
Sample Rate : 44100
Precision : 16-bit
Duration : 00:01:47.21 = 4727873 samples = 8040.6 CDDA sectors
File Size : 4.36M
Bit Rate : 325k
Sample Encoding: MPEG audio (layer I, II or III)
Comments :
Title=Condena
Artist=Puro Odio
Album=Demo 2018
Tracknumber=1
Year=2020
Genre=Hardcore/Punk/Black Metal

[/more]

Register
(10) dabiz, infiltrator, kauyumari, Leolomb, Olethros, randumbum, Rosen, vasiljev_sergej, Wail, wgs73,
Jul 18 2020, 19:43:48 Exorcist - Chossing The Exorcist [ep] (2004)


*Artist: Exorcist
*Album: Chossing The Exorcist [ep]
*Year: 2004
*Genre: Black/Death/Thrash Metal
*Country: Poland
*Format: mp3@CBR256kbps
*Size: 29MB

Tracklist:
1. Chossing The Exorcist 03:48
2. The Trancial Mesmerism 04:13
3. Chossing The Exorcist (Unmixed Version) 03:51
4. The Trancial Mesmerism (Unmixed Version) 04:15
******************************
Total playing time: 16:07

[more=Extended info]Iuvenes members side project. Not to be confused with Exorcist from Warsaw.
Limited to 666 hand-numbered copies and released by No Colours Records.[/more]

[more=Technical info]
Input File: 01 - Chossing The Exorcist.mp3
Channels : 2
Sample Rate : 44100
Precision : 16-bit
Duration : 00:03:47.15 = 10017271 samples = 17036.2 CDDA sectors
File Size : 7.27M
Bit Rate : 256k
Sample Encoding: MPEG audio (layer I, II or III)
Comments :
Title=Chossing The Exorcist
Artist=Exorcist
Album=Chossing The Devil
Tracknumber=1
Year=2004
Genre=Black/Death/Thrash Metal

[/more]

Register
(15) infiltrator, Lukittaz, Olethros, randumbum, Rosen, Sanctus, satanist666, sergsazan, SilentNidhogg, stumpheavyrock, Svafrlami, vasiljev_sergej, Wail, wgs73, wolverine,
Jul 18 2020, 14:57:30 Vacivus - Rite Of Ascension [ep] (2015)


*Artist: Vacivus
*Album: Rite Of Ascension [ep]
*Year: 2015
*Genre: Death Metal
*Country: United Kingdom
*Format: mp3@CBR320kbps
*Size: 54MB

Tracklist:
1. Dark Apotheosis 03:51
2. Rite Of Ascension 03:57
3. Ageless, Nameless 05:24
4. Hostis Rei 04:37
5. Vacivum Aeternum 05:31
******************************
Total playing time: 23:20



[more=Extended info]Officially released on tape via Goatprayer Records (04/07/15),
and on CD via Hellthrasher Productions (25/09/15).[/more]

[more=Technical info]
Input File: 01 - Dark Apotheosis.mp3
Channels : 2
Sample Rate : 44100
Precision : 16-bit
Duration : 00:03:51.59 = 10213163 samples = 17369.3 CDDA sectors
File Size : 9.41M
Bit Rate : 325k
Sample Encoding: MPEG audio (layer I, II or III)
Comments :
Title=Dark Apotheosis
Artist=Vacivus
Album=Rite Of Ascension
Tracknumber=1/5
Year=2015
Genre=22

[/more]

Register
(9) Bzth, grimoir, Hell_Is_Here, infiltrator, Lukittaz, Metalass, Olethros, Rosen, Wail,
Jul 18 2020, 14:38:10 Puro Odio - Puro Odio [ep] (2020)


*Artist: Puro Odio
*Album: Puro Odio [ep]
*Year: 2020
*Genre: Hardcore/Punk/Black Metal
*Country: Spain
*Format: mp3@CBR320kbps
*Size: 10MB

Tracklist:
1. No Es Un Juego 02:37
2. Pesadilla 02:20
******************************
Total playing time: 4:57



[more=Technical info]
Input File: 01 - No Es Un Juego.mp3
Channels : 2
Sample Rate : 44100
Precision : 16-bit
Duration : 00:02:37.18 = 6931550 samples = 11788.4 CDDA sectors
File Size : 6.35M
Bit Rate : 323k
Sample Encoding: MPEG audio (layer I, II or III)
Comments :
Title=No Es Un Juego
Artist=Puro Odio
Album=Puro Odio
Tracknumber=01
Year=2020
Genre=Hardcore/Punk/Black Metal
Discnumber=1/1

[/more]

Register
(9) grimoir, infiltrator, Leolomb, Lukittaz, Olethros, randumbum, Rosen, vasiljev_sergej, Wail,
Jul 18 2020, 14:22:12 Mystras - Castles Conquered And Reclaimed (2020)
Another Mirror, CBR 320 kbps
Register
(1) Leolomb,
Jul 12 2020, 13:20:48 Abigail & Vulcan Tyrant - Abigail/Vulcan Tyrant [split] (2020)


*Artist: Abigail & Vulcan Tyrant
*Album: Abigail/Vulcan Tyrant [split]
*Year: 2020
*Genre: Black/Thrash Metal | Black/Thrash/Speed Metal
*Country: Japan | Netherlands
*Format: mp3@CBR320kbps
*Size: 32MB

Tracklist:
Abigail:
1. Satanik For Slaughter 03:36
2. Rock 'N' Roll Sluts Forever 04:29
Vulcan Tyrant:
3. Never Stop The Tyranny 02:54
4. Infernal State Of Terror 03:01
******************************
Total playing time: 14:00




[more=Technical info]
Input File: 03 - Vulcan Tyrant - Never Stop The Tyranny.mp3
Channels : 2
Sample Rate : 44100
Precision : 16-bit
Duration : 00:02:54.35 = 7689011 samples = 13076.5 CDDA sectors
File Size : 7.09M
Bit Rate : 325k
Sample Encoding: MPEG audio (layer I, II or III)
Comments :
Title=Never Stop The Tyranny
Artist=Vulcan Tyrant
Album=Abigail - Vulcan Tyrant Split
Tracknumber=3
Year=2020-04-10
Genre=Black/Thrash/Speed Metal

[/more]

Register
(19) Asketto, grimoir, Hell_Is_Here, Hierophant, infiltrator, killingod, Lanceatum, Lukittaz, marilin, Oldskulthrasher, randumbum, Reverend, Rosen, stumpheavyrock, Styx, supremo, Unsanctified, vasiljev_sergej, Wail,
Jul 5 2020, 21:47:13 Inferno Requiem & Czarnobog - Fear Of Tartarus/Remembrance Of The Blood Moon [split] (2020)


*Artist: Inferno Requiem & Czarnobog
*Album: Fear Of Tartarus/Remembrance Of The Blood Moon [split]
*Year: 2020
*Genre: Black Metal | Atmospheric/Pagan Black Metal
*Country: Taiwan | Germany
*Format: mp3@CBR320kbps
*Size: 85MB

Tracklist:
Inferno Requiem:
1. Invincible Kingdom Of Tartarus 08:05
2. Khan's Quest Of Enigma 08:34
Czarnobog:
3. Remembrance Of The Blood Moon 09:56
4. Transylvanian Blasphemy 11:02
******************************
Total playing time: 37:37



[more=Technical info]
Input File: 01 - Inferno Requiem - Invincible Kingdom Of Tartarus.mp3
Channels : 2
Sample Rate : 44100
Precision : 16-bit
Duration : 00:08:05.59 = 21414695 samples = 36419.5 CDDA sectors
File Size : 19.5M
Bit Rate : 321k
Sample Encoding: MPEG audio (layer I, II or III)
Comments :
Title=Invincible Kingdom Of Tartarus
Artist=Inferno Requiem
Album=Fear Of Tartarus - Remembrance Of The Blood Moon
Tracknumber=1
Year=2020
Genre=Black Metal

[/more]

Register
(20) 1968_janeart, grimoir, Hell_Is_Here, Ildjarn, infiltrator, kim666, Lanceatum, Lucju, Lukittaz, multizwilling, raaf, randumbum, Rosen, satanist666, sethurius, SilentNidhogg, VALERY, vasiljev_sergej, Wail, Абигор,
Jul 5 2020, 14:10:53 Devouring Serpent - Devouring Serpent [demo] (2020)


*Artist: Devouring Serpent
*Album: Devouring Serpent [demo]
*Year: 2020
*Genre: Black/Death Metal
*Country: United States
*Format: mp3@CBR320kbps
*Size: 40MB

Tracklist:
1. Plague Of Modern Times 03:32
2. Thermobaric Weapon 03:17
3. Human Shit 03:05
4. As The Chaos 02:52
5. Bunkers Full Of Dead Bodies 03:12
******************************
Total playing time: 15:58



[more=Technical info]
Input File: 04 - As The Chaos.mp3
Channels : 2
Sample Rate : 44100
Precision : 16-bit
Duration : 00:02:52.45 = 7604913 samples = 12933.5 CDDA sectors
File Size : 7.02M
Bit Rate : 326k
Sample Encoding: MPEG audio (layer I, II or III)
Comments :
Title=As The Chaos
Artist=Devouring Serpent
Album=Devouring Serpent
Tracknumber=4
Year=2020
Genre=Black/Death Metal

[/more]

Register
(16) grimoir, Hell_Is_Here, infiltrator, killingod, Mares, Mist13Signifier, Olethros, randumbum, Rosen, sacrut, Sanctus, satanist666, SilentNidhogg, VALERY, vasiljev_sergej, Wail,
Jul 5 2020, 14:08:00 Omnikinetic - Invoking Apollo [demo] (2020)


*Artist: Omnikinetic
*Album: Invoking Apollo [demo]
*Year: 2020
*Genre: Black/Death Metal
*Country: United States
*Format: mp3@CBR320kbps
*Size: 25MB

Tracklist:
1. God Of Disease 03:52
2. Oracle 03:37
******************************
Total playing time: 7:29



[more=Technical info]
Input File: 02 - Oracle.mp3
Channels : 2
Sample Rate : 44100
Precision : 16-bit
Duration : 00:03:37.28 = 9581828 samples = 16295.6 CDDA sectors
File Size : 8.76M
Bit Rate : 323k
Sample Encoding: MPEG audio (layer I, II or III)
Comments :
Title=Oracle
Artist=Omnikinetic
Album=Invoking Apollo
Tracknumber=2
Year=2020
Genre=Black/Death Metal

[/more]

Register
(14) Boozer, grimoir, Hell_Is_Here, infiltrator, killingod, Olethros, randumbum, Rosen, sacrut, Sanctus, satanist666, SilentNidhogg, vasiljev_sergej, Wail,
Jul 5 2020, 14:03:36 Omnikinetic - Submerged [demo] (2020)


*Artist: Omnikinetic
*Album: Submerged [demo]
*Year: 2020
*Genre: Black/Death Metal
*Country: United States
*Format: mp3@CBR320kbps
*Size: 37MB

Tracklist:
1. The Fear Of Death Is Certain 03:01
2. Living Deeply 05:55
3. The Drowning Of Edna Pontellier 06:50
******************************
Total playing time: 15:46



[more=Technical info]
Input File: 01 - The Fear Of Death Is Certain.mp3
Channels : 2
Sample Rate : 44100
Precision : 16-bit
Duration : 00:03:01.17 = 7989685 samples = 13587.9 CDDA sectors
File Size : 7.29M
Bit Rate : 322k
Sample Encoding: MPEG audio (layer I, II or III)
Comments :
Title=The Fear Of Death Is Certain
Artist=Omnikinetic
Album=Submerged
Tracknumber=1
Year=2020
Genre=Black/Death Metal

[/more]

Register
(14) Boozer, grimoir, Hell_Is_Here, infiltrator, killingod, Olethros, randumbum, Rosen, Sanctus, satanist666, SilentNidhogg, VALERY, vasiljev_sergej, Wail,
Jul 5 2020, 13:56:55 Phthisis - Embodiment Of Decay [demo] (2020)


*Artist: Phthisis
*Album: Embodiment Of Decay [demo]
*Year: 2020
*Genre: Death Metal
*Country: United States
*Format: mp3@CBR320kbps
*Size: 57MB

Tracklist:
1. Detestable Putrescence 06:40
2. Septic Transmutation 03:28
3. Embodiment Of Decay 07:17
4. Rotting Vermin Flesh 05:34
******************************
Total playing time: 22:59



[more=Technical info]
Input File: 02 - Septic Transmutation.mp3
Channels : 2
Sample Rate : 44100
Precision : 16-bit
Duration : 00:03:28.08 = 9176328 samples = 15606 CDDA sectors
File Size : 8.45M
Bit Rate : 325k
Sample Encoding: MPEG audio (layer I, II or III)
Comments :
Title=Septic Transmutation
Artist=Phthisis
Album=Embodiment Of Decay
Tracknumber=2
Year=2020
Genre=22

[/more]

Register
(11) Evilded, grimoir, Hell_Is_Here, infiltrator, killingod, Mares, Olethros, randumbum, Rosen, VALERY, vyacheslav,
Jul 5 2020, 13:02:37 Pilori - À Nos Morts (2020)
[youtube]TXbcbNAXbVg[/youtube]

[youtube]KWZQWpXR09Q[/youtube]
(1) 555,
Jul 4 2020, 15:42:13 Byrhtnoth - Brethren To The Fire Trumpets (2018)


*Artist: Byrhtnoth
*Album: Brethren To The Fire Trumpets
*Year: 2018
*Genre: Atmospheric Black Metal/Dungeon Synth/Ambient
*Country: Australia
*Format: mp3@CBR320kbps
*Size: 89MB

Tracklist:
1. The Trumpets Of Fire 04:16
2. In The Nightside Battle For Helms Deep 07:08
3. Vratyas Vakyas 07:45
4. Cair Andros 09:55
5. Between The Dawn Of Faerie And The Dominion Of Men 07:30
6. The Dominion Of Men 02:17
******************************
Total playing time: 38:51



[more=Technical info]
Input File: 03 - Vratyas Vakyas.mp3
Channels : 2
Sample Rate : 44100
Precision : 16-bit
Duration : 00:07:45.95 = 20548351 samples = 34946.2 CDDA sectors
File Size : 18.8M
Bit Rate : 322k
Sample Encoding: MPEG audio (layer I, II or III)
Comments :
Title=Vratyas Vakyas
Artist=Byrhtnoth
Album=Brethren To The Fire Trumpets
Tracknumber=3
Year=2018
Genre=Atmospheric Black Metal/Dungeon Synth/Ambient

[/more]

Register
(16) 1968_janeart, autumnwood, grimoir, Ildjarn, infiltrator, kim666, Lukittaz, Olethros, randumbum, Raw1488, Rosen, senecazm, stub888, vasiljev_sergej, Winterdark, ZA670,
Jul 4 2020, 10:55:47 Pilori - À Nos Morts (2020)


*Artist: Pilori
*Album: À Nos Morts
*Year: 2020
*Genre: Blackened Crust/Grindcore/Hardcore/Death Metal
*Country: France
*Format: mp3@CBR320kbps
*Size: 54MB

Tracklist:
1. Que La Bête Meure (avec Dylan Walker) 03:21
2. Apnée 01:28
3. La Grande Terreur 01:07
4. Poursuite Du Vent (avec Matthias Jungbluth) 02:16
5. Roi Des Rats 00:39
6. À Nos Morts 02:19
7. Lorsque Viendra La Nuit 02:03
8. Divine Comédie 01:31
9. Sous Mes Mains 02:13
10. À La Recherche Du Temps Perdu 03:20
11. Danse Macabre 03:35
******************************
Total playing time: 23:52




[more=Extended info]-Classic edition with a 12" black LP - Outer cardboard sleeve 300g with glossy finish and double-sided printed insert.

-Collector and limited edition (100 copies) with a 12" transparent LP colored in "beer" - Outer cardboard sleeve 300g with glossy finish and double-sided printed insert.

-Colored cassette "vintage bronze" with clear case and two-sided printed J-card.Collector edition ultra-limited to 20 copies.

-Digisleeve CD 2 parts - Cardboard sleeve with glossy finish and golden print.[/more]

[more=Technical info]
Input File: 02 - Apnee.mp3
Channels : 2
Sample Rate : 44100
Precision : 16-bit
Duration : 00:01:28.40 = 3898484 samples = 6630.07 CDDA sectors
File Size : 3.53M
Bit Rate : 320k
Sample Encoding: MPEG audio (layer I, II or III)
Comments :
Title=Apn“©e
Artist=Pilori
Album=“¬ Nos Morts
Tracknumber=2
Year=2020
Genre=Blackened Crust/Grindcore/Hardcore/Death Metal

[/more]

Register
(18) 555, atavist, Doooomed, grimoir, infiltrator, judaz, killingod, Lukittaz, nemx, Olethros, randumbum, Rosen, scrollbar, sludge666, terron, VALERY, vasiljev_sergej, yuratroll,
Jun 28 2020, 11:35:47 Svartsyn - A Night Created By The Shadows... And The Resuscitation Of Unspoken Rituals [compilation] (2019)


*Artist: Svartsyn
*Album: A Night Created By The Shadows... And The Resuscitation Of Unspoken Rituals [compilation]
*Year: 2019
*Genre: Black Metal
*Country: Sweden
*Format: mp3@CBR320kbps
*Size: 106MB

Tracklist:
1. Intro 01:19
2. Upon The Throne 05:34
3. A Cursed Blaze From The Castle 05:05
4. The Great Mysteriis Of Death 05:58
5. A Night Created By The Shadows 05:28
6. Under The Devil's Moon 05:56
7. Digerdöden 05:03
8. One Star (Starcursed And Dead) 05:04
9. Dark Kingdom 04:42
10. Blakullaförbannelsen 01:34
11. Outro 01:14
******************************
Total playing time: 46:57



[more=Extended info]“A Night Created By The Shadows” 1995 demo plus an exclusive bonus material from the same recording session, that was once supposed to be released as a full-length album together with these demo tracks.

-Limited edition 1st press (300, handnumbered) 12" black vinyl.
-Limited edition 2nd press (250 copies) on grey splatter vinyl.
-Limited edition CD (350 copies) with different cover and fold-out booklet, collaboration release Nomad Snakepit Productions with New Era Productions.[/more]

[more=Technical info]
Input File: 09 - Dark Kingdom.mp3
Channels : 2
Sample Rate : 44100
Precision : 16-bit
Duration : 00:04:44.08 = 12528104 samples = 21306.3 CDDA sectors
File Size : 11.4M
Bit Rate : 320k
Sample Encoding: MPEG audio (layer I, II or III)
Comments :
Title=Dark Kingdom
Artist=Svartsyn
Album=A Night Created By The Shadows... And The Resuscitation Of Unspoken Rituals
Tracknumber=9
Year=2019
Genre=Black Metal

[/more]

Register
(35) 1968_janeart, andivi, Boozer, canadaspaceman, craP_cillA, frostdomain, gena, Hell_Is_Here, Ildjarn, infiltrator, kim666, lestllk, Lucju, Mares, milosdjor, mondblut, nadin85, Olethros, Qliphoth, randumbum, Reverend, rickzammuto, rimfrost, Rosen, satanist666, SilentNidhogg, Sjelekval, stub888, supremo, thenecromancer, VALERY, varlam4, vasiljev_sergej, Wail, wolverine,
Jun 25 2020, 21:41:10 Yawning Void - Streams Within (2019)


*Artist: Yawning Void
*Album: Streams Within
*Year: 2019
*Genre: Doom/Black/Death Metal
*Country: Finland
*Format: mp3@CBR320kbps
*Size: 112MB

Tracklist:
1. Hearts Like Abyss 07:10
2. Melaina Kholee 07:36
3. Ouroborean 07:57
4. Kalmoranta 09:27
5. Aequor - The Benthic Bodies 16:17
******************************
Total playing time: 48:27




[more=Technical info]
Input File: 01 - Hearts Like Abyss.mp3
Channels : 2
Sample Rate : 44100
Precision : 16-bit
Duration : 00:07:24.42 = 19599010 samples = 33331.6 CDDA sectors
File Size : 17.8M
Bit Rate : 320k
Sample Encoding: MPEG audio (layer I, II or III)
Comments :
Title=Hearts Like Abyss
Artist=Yawning Void
Album=Streams Within
Tracknumber=1
Year=2019
Genre=Doom/Black/Death Metal

[/more]

Register
(23) ahp, Borya_Tvorogov, Bzth, HMHamster, infiltrator, infozahist, KVRT, lacrimoza, marilin, metala, Phlebotomized, randumbum, robertho777, Rosen, Sanctus, sergsazan, Shadechaser, Surt, troll_swamp, VALERY, varlam4, vasiljev_sergej, vyacheslav,
Jun 23 2020, 21:35:14 The Path Of Memory - Hell Is Other People (2020)


*Artist: The Path Of Memory
*Album: Hell Is Other People
*Year: 2020
*Genre: Gothic Rock/Death Rock
*Country: Switzerland
*Format: mp3@CBR320kbps
*Size: 79MB

Tracklist:
1. Don't Worry About Me 04:11
2. Rancid Song 02:47
3. Let Me Write A Song 02:53
4. Truth 01:48
5. I Tried And I Failed 03:03
6. It Hurts Me 03:16
7. A Thousand Days And Nights 03:32
8. Alone, Alive 03:36
9. Oppressé De Rentrer 03:16
10. Locked Away 04:10
11. I Skulled The World 02:17
******************************
Total playing time: 34:49



[more=Extended info]Gothrock/Deathrock/Darkrock side project of Bornyhake (Ancient Moon, Astral Silence, Borgne, Cakewet, Cryfemal, Diurnal, Excreta, Lypektomy, Manii, Porifice, Pure, ex-Gerbophilia, ex-Haine, ex-Krigar, ex-Organ Trails, Decomposition, Snorre, The Two Boys Sandwich Club, ex-ChokingOnBile, ex-Kawir, ex-Oculus, ex-Ravnkald, ex-Serpens Luminis, ex-Darvaza (live), ex-Deathrow (live), ex-Schammasch (live), ex-Ass of Spades, ex-Jante Alu).
Released by Iron Bonehead Productions.[/more]

[more=Technical info]
Input File: 03 - Let Me Write A Song.mp3
Channels : 2
Sample Rate : 44100
Precision : 16-bit
Duration : 00:02:53.91 = 7669387 samples = 13043.2 CDDA sectors
File Size : 7.04M
Bit Rate : 324k
Sample Encoding: MPEG audio (layer I, II or III)
Comments :
Title=Let Me Write A Song
Artist=The Path Of Memory
Album=Hell Is Other People
Tracknumber=3
Year=2020
Genre=Gothic Rock/Death Rock
Discnumber=1

[/more]

Register
(11) Angry_Chair, BladeOvDarkness, Buregon, Cartman223, emogrinder, infiltrator, marilin, Olethros, sludge666, VALERY, yuratroll,
Jun 23 2020, 18:34:16 Sadistikum - Barbaric Ceremony [ep] (2018)


*Artist: Sadistikum
*Album: Barbaric Ceremony [ep]
*Year: 2018
*Genre: Black/Death Metal
*Country: United States
*Format: mp3@VBR279kbps
*Size: 28MB

Tracklist:
1. Phlegethon Baptism 01:20
2. Iron Gates Of Hades 01:48
3. The Seven Terraces Of Purgatory 02:39
4. Sacrificial Immolation 04:01
5. Conquering Holy Ground 04:09
******************************
Total playing time: 13:57




[more=Technical info]
Input File: 02 - Iron Gates Of Hades.mp3
Channels : 2
Sample Rate : 44100
Precision : 16-bit
Duration : 00:01:48.28 = 4775016 samples = 8120.78 CDDA sectors
File Size : 3.85M
Bit Rate : 284k
Sample Encoding: MPEG audio (layer I, II or III)
Comments :
Title=Iron Gates Of Hades
Artist=Sadistikum
Album=Barbaric Ceremony
Tracknumber=2
Year=2018
Genre=Black/Death Metal

[/more]

Register
(15) infiltrator, killingod, lestllk, Olethros, Ostinato, pwoods, randumbum, Rosen, satanist666, SilentNidhogg, VALERY, varlam4, vasiljev_sergej, Wail, wolverine,
Jun 19 2020, 20:29:22 King Dude - Full Virgo Moon (2020)


*Artist: King Dude
*Album: Full Virgo Moon
*Year: 2020
*Genre: Folk Rock/Dark Folk/Alternative Rock
*Country: United States
*Format: mp3@CBR320kbps
*Size: 70MB

Tracklist:
1. Intro (A Shadow's Theme) 02:25
2. My Rose By The Sea / Satyr Boy 03:59
3. Full Virgo Moon 04:39
4. Forty Fives Say Six Six Six 02:47
5. The Satanic Temple 02:07
6. Forgive My Sins 05:35
7. Make Me Blind 02:04
8. A Funeral Song For Atheists 03:19
9. Something About You 03:41
******************************
Total playing time: 30:36



[more=Technical info]
Input File: 02 - My Rose By The Sea (Satyr Boy).mp3
Channels : 2
Sample Rate : 44100
Precision : 16-bit
Duration : 00:03:59.14 = 10546118 samples = 17935.6 CDDA sectors
File Size : 9.57M
Bit Rate : 320k
Sample Encoding: MPEG audio (layer I, II or III)
Comments :
Title=My Rose By The Sea (Satyr Boy)
Artist=King Dude
Album=Full Virgo Moon
Tracknumber=2
Year=2020-03-13
Genre=Folk Rock/Dark Folk/Alternative Rock
Discnumber=1

[/more]

Register
(23) Angry_Chair, BladeOvDarkness, Cartman223, Der_Hexer, DMIYUR, fylopaloma, gwar, infiltrator, judaz, Krosis, marilin, MEmethuselah, multizwilling, Nattfodd, oldvarg, Olethros, Shub, smes, soulskinner681, tOmV, VALERY, Xor, xska,
Jun 19 2020, 20:10:43 Blood Stronghold - Spectres Of Bloodshed (2020)


*Artist: Blood Stronghold
*Album: Spectres Of Bloodshed
*Year: 2020
*Genre: Black Metal
*Country: Australia | Poland
*Format: mp3@CBR320kbps
*Size: 98MB

Tracklist:
1. Edict Of Conflict 01:37
2. Unbowed Wolves 05:21
3. From The Depths Of Veles Sea 05:58
4. Blood Dawn 05:31
5. Forests Dark Eyes 08:47
6. Crowned Virtue 05:59
7. Sunder 08:09
******************************
Total playing time: 41:22




[more=Extended info]Limited edition CD to 500 copies, released by Putrid Cult.[/more]

[more=Technical info]
Input File: 02 - Unbowed Wolves.mp3
Channels : 2
Sample Rate : 44100
Precision : 16-bit
Duration : 00:05:21.81 = 14191865 samples = 24135.8 CDDA sectors
File Size : 12.9M
Bit Rate : 320k
Sample Encoding: MPEG audio (layer I, II or III)
Comments :
Title=Unbowed Wolves
Artist=Blood Stronghold
Album=Spectres Of Bloodshed
Tracknumber=2
Year=2020
Genre=Black Metal

[/more]

Register
(50) 1968_janeart, AlexSmith, alikkon, atavist, Boozer, Der_Hexer, Doooomed, Druidir, El_Chibo, gena, grimoir, igore2911, Ildjarn, infiltrator, judaz, kim666, kolgrim2015, Korpse, Lamby90, laTERNentrager, lestllk, LordOvDarkness, MMMMM, Moonshtook, Mortuusinfernus, multizwilling, murian, nemx, Occultas, oldvarg, Olethros, rammmirez, randumbum, robertho777, Rosen, sacrut, satanist666, SilentNidhogg, Slavas, supremo, tim47, Tino, toly1917, varlam4, vasiljev_sergej, Wail, wolverine, Zaephar, Абигор, Авел,

30 Pages V   1 2 3 > » 
- Lo-Fi Version Support form
Copyrights and abuse reports form
Time is now: 13th August 2020 - 21:14:49