Welcome Guest ( Log In | Register )

История благодарностей участнику Panacea ::: Спасибо сказали: 10250 раз(а)
Дата поста: В теме: За сообщение: Спасибо сказали:
Oct 12 2021, 21:19:07 Waldgeflüster - Dahoam (2021)


*Artist: Waldgeflüster
*Album: Dahoam
*Year: 2021
*Genre: Atmospheric Black Metal
*Country: Germany
*Format: mp3@CBR320kbps
*Size: 114MB

Tracklist:
1. A Taglachinger Morgen 02:42
2. Im Ebersberger Forst 10:14
3. Am Stoa 04:09
4. Am Tatzelwurm 10:47
5. In Da Fuizn 04:41
6. Mim Blick Aufn Kaiser 11:10
7. Am Wendelstoa 05:37
******************************
Total playing time: 49:20




[more=Technical info]
Input File: 05 - In Da Fuizn.mp3
Channels : 2
Sample Rate : 44100
Precision : 16-bit
Duration : 00:04:41.98 = 12435494 samples = 21148.8 CDDA sectors
File Size : 11.5M
Bit Rate : 325k
Sample Encoding: MPEG audio (layer I, II or III)
Comments :
Title=In Da Fuizn
Artist=Waldgeflüster
Album=Dahoam
Tracknumber=5
Year=2021
Genre=Atmospheric Black Metal

[/more]

Register
(27) aleon, ALEXSATHANAS, AlexSmith, artscald, Carcharoth, caro, doomTemplar, grimoir, julianotidre, kim666, Korpse, madera, Marek, murian, Olrak, Ostinato, robertho777, sergsazan, smes, stormhatt, Taakeferd, vasiljev_sergej, Velemysl, witchfinder, ZamanFu, дивин, Сварог Барг,
Oct 10 2021, 15:27:09 Zmarłym - Ziemie Jałowe [ep] (2020)


*Artist: Zmarłym
*Album: Ziemie Jałowe [ep]
*Year: 2020
*Genre: Post-Black Metal
*Country: Poland
*Format: mp3@CBR320kbps
*Size: 51MB

Tracklist:
1. Gdzie Mieszkasz? 06:08
2. Szuflady 09:19
3. Wędrowcy 08:07
******************************
Total playing time: 23:34



[more=Technical info]
Input File: 03 - Wedrowcy.mp3
Channels : 2
Sample Rate : 44100
Precision : 16-bit
Duration : 00:08:07.77 = 21510613 samples = 36582.7 CDDA sectors
File Size : 19.5M
Bit Rate : 320k
Sample Encoding: MPEG audio (layer I, II or III)
Comments :
Title=Wedrowcy
Artist=Zmarlym
Album=Ziemie Jalowe
Tracknumber=3
Year=2020
Genre=Post-Black Metal

[/more]

Register
(11) aleon, artscald, caro, kim666, murian, Olethros, SyncestrA, Taakeferd, vasiljev_sergej, yuratroll, дивин,
Sep 14 2021, 15:09:13 Stheno - Wardance (2021)
[youtube]ubWv6fEF-Iw[/youtube]
(1) rominow,
Sep 13 2021, 22:12:12 Stheno - Liberty Crawls In Waste (2016)


*Artist: Stheno
*Album: Liberty Crawls In Waste
*Year: 2016
*Genre: Death/Black Metal/Grindcore/Crust
*Country: Greece
*Format: mp3@CBR320kbps
*Size: 47MB

Tracklist:
1. Intro-Deathbed Confessions 01:17
2. Hail Nothing 02:08
3. Truth To Be A Liar 01:16
4. Let The Mask Slip 01:21
5. Sounds Of Ruined Temples 01:12
6. Under The Black Rain 01:21
7. Into Neverending Struggle 01:39
8. Preachers Of The Fall 01:46
9. Liberty Crawls In Waste 01:22
10. Burn With Pure Light 01:42
11. The Instep Borer 01:00
12. Between Man And God 00:53
13. Poisoned Tears Of The Blessed (Ireland 1972) 02:57
******************************
Total playing time: 19:54



[more=Technical info]
Input File: 02 - Hail Nothing.mp3
Channels : 2
Sample Rate : 44100
Precision : 16-bit
Duration : 00:02:08.48 = 5665968 samples = 9636 CDDA sectors
File Size : 5.25M
Bit Rate : 327k
Sample Encoding: MPEG audio (layer I, II or III)
Comments :
Title=Hail Nothing
Artist=Stheno
Album=Liberty Crawls In Waste
Tracknumber=2
Year=2016
Genre=Death/Black Metal/Grindcore/Crust

[/more]

Register
(11) caro, Hell_Is_Here, Kaotik, METALHUNTER, murayne, Olethros, SilentNidhogg, supremo, Taakeferd, Wail, wreak,
Sep 13 2021, 21:45:47 Stheno - Wardance (2021)


*Artist: Stheno
*Album: Wardance
*Year: 2021
*Genre: Black Metal/Grindcore
*Country: Greece
*Format: mp3@CBR320kbps
*Size: 60MB

Tracklist:
1. Bestial Batallion 02:25
2. RPG 01:24
3. Deadly Camouflage 03:05
4. Fire! 01:26
5. Snake Eater 03:11
6. Zulu Time 02:36
7. Snafu (This Time... We Die!!) 02:09
8. Dishonored Bodybag 01:23
9. Military Discharge 02:00
10. Bite The Bullet 02:33
11. Bellum Internecinum 02:05
******************************
Total playing time: 24:17




[more=Technical info]
Input File: 01 - Bestial Batallion.mp3
Channels : 2
Sample Rate : 44100
Precision : 16-bit
Duration : 00:02:25.17 = 6401777 samples = 10887.4 CDDA sectors
File Size : 6.58M
Bit Rate : 363k
Sample Encoding: MPEG audio (layer I, II or III)
Comments :
Title=Bestial Batallion
Artist=Stheno
Album=Wardance
Tracknumber=1
Year=2021
Genre=Black Metal/Grindcore

[/more]

Register
(16) AlexSmith, caro, dcatagua, Hell_Is_Here, Kaotik, kefka, Metalass, METALHUNTER, murayne, Olethros, supremo, Taakeferd, Trelledorn, Wail, wreak, WX419,
Sep 11 2021, 21:54:13 Gloriam - Gateways To The Black Absolute [ep] (2021)


*Artist: Gloriam
*Album: Gateways To The Black Absolute [ep]
*Year: 2021
*Genre: Black Metal
*Country: Germany | United States | France
*Format: mp3@CBR320kbps
*Size: 22MB

Tracklist:
1. Gateways To Multidimensional Chaos 04:28
2. Glorification Of The Black Absolute 04:32
******************************
Total playing time: 9:00



[more=Extended info]Debut 7'' vinyl EP of this allstar Black Metal horde.

Members:
Scorpios Androctonus (Bass)
See also: Crimson Moon, Possession Ritual, Sabnack, Akrabu, Behind Your Fear, E. V. P.
Blastum (Drums)
See also: Crimson Moon, Dawohl, Grist, Merrimack, Nihïlanth, Ritualization, VI, Antaeus (live), Osculum Infame (live).
Ex Ipsis-Mors (Guitars, Lyrics)
See also: Corona Mortis, Lunar Chalice, Sacrilegious Rite.
The Hermit (Guitars, Lyrics)
See also: Ancient Blood, Astral Evocation, Precaria, Desesperanza, Qliphomantia.
Principivm Angvis (Vocals)
See also: Funeral of God, Sivad, Stilbau.

Released by Narbentage Produktionen as a limited edition of 150 copies.[/more]

[more=Technical info]
Input File: 01 - Gateways To Multidimensional Chaos.mp3
Channels : 2
Sample Rate : 44100
Precision : 16-bit
Duration : 00:04:27.94 = 11816198 samples = 20095.6 CDDA sectors
File Size : 10.7M
Bit Rate : 320k
Sample Encoding: MPEG audio (layer I, II or III)
Comments :
Title=Gateways To Multidimensional Chaos
Artist=Gloriam
Album=Gateways To The Black Absolute
Tracknumber=1
Year=2020
Genre=Black Meal

[/more]

Register
(18) Carcharoth, caro, gena, Hell_Is_Here, Ildjarn, kim666, korovakaska, Krosis, Marek, nemx, Olethros, Ostinato, Storky, Taakeferd, VALERY, vasiljev_sergej, Wail, wreak,
Sep 5 2021, 14:01:32 Belzazel - Sword Of Satan (2020)
[youtube]Yd00kemMr3w[/youtube]
(3) rominow, Storky, WOLAND,
Sep 5 2021, 13:09:50 Belzazel - Sword Of Satan (2020)


*Artist: Belzazel
*Album: Sword Of Satan
*Year: 2020
*Genre: Black Metal
*Country: Germany | Finland
*Format: mp3@CBR320kbps
*Size: 68MB

Tracklist:
1. Intro 01:17
2. Sword Of Satan 06:37
3. Worship Of Death 04:50
4. Darkest Oath 06:38
5. Thy Infernal Kingdom 05:14
6. In The Name Of The Ancient Ones 06:53
******************************
Total playing time: 31:29




[more=Extended info]A project featuring members from German/Finland bands like:
Necrogoat, Winterfullmoon, Akolyytti, Ancestors Blood, Mørketida, Lunar Chalice, Malefica, Nightwalker, Sacrilegious Rite, Todesweihe, Cosmic Isolation, Czarnobog, Krigsvinter, Moorgeist, Necro Forest, Ruins of Unlight, Sturmfolk, Weligor and Winterfullmoon.

Limited to 300 handnumbered copies.
Issued in standard clear tray jewel CD case with 2 panel booklet.
Released on CD by Astral Nightmare, Vinyl by Amor Fati and on cassette by Worship Tapes.[/more]

[more=Technical info]
Input File: 03 - Worship Of Death.mp3
Channels : 2
Sample Rate : 44100
Precision : 16-bit
Duration : 00:04:50.37 = 12805493 samples = 21778 CDDA sectors
File Size : 11.6M
Bit Rate : 320k
Sample Encoding: MPEG audio (layer I, II or III)
Comments :
Title=Worship Of Death
Artist=Belzazel
Album=Sword Of Satan
Tracknumber=3
Year=2020
Genre=Black Metal

[/more]

Register
(24) AlexSmith, caro, dan22, Ildjarn, Kaotik, kim666, korovakaska, Marek, multizwilling, NachtWulf, Olethros, rimfrost, Skog1349, Storky, stormhatt, supremo, Taakeferd, thenecromancer, varlam4, vasiljev_sergej, Velmi, Wail, WOLAND, wreak,
Aug 12 2021, 13:35:55 Forlorn - Opus III: Ad Caelestis Res (1999)
CBR 320 kbps
Register
(3) Deni, kimkayoung, Козлотролль,
Aug 12 2021, 13:35:03 Carpe Tenebrum - Mirrored Hate Painting (1999)
CBR 320 kbps
Register
(2) Deni, Jackyl,
Jul 31 2021, 21:43:48 Mortiis - Spirit Of Rebellion (2020)
CBR 320 kbps
Register
(2) NachtWulf, Occultas,
Jul 16 2021, 22:05:06 Nigrum Ignis Circuli - Contra Mundum [demo] (2021)


*Artist: Nigrum Ignis Circuli
*Album: Contra Mundum [demo]
*Year: 2021
*Genre: Black Metal
*Country: Bosnia and Herzegovina
*Format: mp3@VBR247kbps
*Size: 22MB

Tracklist:
1. A Paradigm Of Flesh 06:31
2. Blood Of The World 06:33
******************************
Total playing time: 13:04

[more=Technical info]
Input File: 01 - A Paradigm Of Flesh.mp3
Channels : 2
Sample Rate : 44100
Precision : 16-bit
Duration : 00:06:23.11 = 16895195 samples = 28733.3 CDDA sectors
File Size : 11.9M
Bit Rate : 248k
Sample Encoding: MPEG audio (layer I, II or III)
Comments :
Title=A Paradigm Of Flesh
Artist=Nigrum Ignis Circuli
Album=Contra Mundum
Tracknumber=1/2
Year=2021
Genre=Black Metal
Discnumber=1/1

[/more]

Register
(11) Carcharoth, infiltrator, kim666, Lanceatum, murian, Occultas, Olethros, stormhatt, thenecromancer, vasiljev_sergej, Wail,
Jul 16 2021, 21:59:31 Deathly Scythe - Celestial Darkness [ep] (2018)


*Artist: Deathly Scythe
*Album: Celestial Darkness [ep]
*Year: 2018
*Genre: Death/Thrash Metal
*Country: Chile
*Format: mp3@VBR252kbps
*Size: 47MB

Tracklist:
1. The Opposites 05:03
2. Evil Magick 03:41
3. Lucifer's Manifestation 06:12
4. Black Conquest 05:55
5. Rite Of Cthulhu (Samael Cover) 01:38
6. Abysmal Kingdom Of Stars 03:18
******************************
Total playing time: 25:47

[more=Technical info]
Input File: 02 - Evil Magick.mp3
Channels : 2
Sample Rate : 44100
Precision : 16-bit
Duration : 00:03:39.25 = 9668705 samples = 16443.4 CDDA sectors
File Size : 6.76M
Bit Rate : 246k
Sample Encoding: MPEG audio (layer I, II or III)
Comments :
Title=Evil Magick
Artist=Deathly Scythe
Album=Celestial Darkness
Tracknumber=02/6
Year=2018
Genre=Death/Thrash Metal
Discnumber=1/1

[/more]

Register
(22) boby9052, bOOLty, caro, chipsgott, Corpuscul, dermarsoran, Diflock, infiltrator, METALHUNTER, nord6666, Olethros, sergsazan, smysl, stumpheavyrock, Taakeferd, thenecromancer, varlam4, vyacheslav, Wail, wanderer73, wgs73, wreak,
Jul 11 2021, 00:33:30 African Imperial Wizard - Isandhlwana (2021)


*Artist: African Imperial Wizard
*Album: Isandhlwana
*Year: 2021
*Genre: Modern Classical/Tribal/Martial Industrial/Darkwave/Experimental
*Country: Angola
*Format: mp3@CBR320kbps
*Size: 103MB

Tracklist:
1. Opoku Waré 03:58 video
2. Hanni-Baal Barca 05:07
3. Almamy Suluku 05:27
4. Hangbè 07:00
5. Béhanzin Hossu Bowelle 05:04
6. N’Nonmiton 06:45
7. Ezana Of Aksum 05:01
8. Zulu kaMalandela 06:12
******************************
Total playing time: 44:34



[more=Technical info]
Input File: 02 - Hanni-Baal Barca.mp3
Channels : 2
Sample Rate : 44100
Precision : 16-bit
Duration : 00:05:07.38 = 13555282 samples = 23053.2 CDDA sectors
File Size : 12.5M
Bit Rate : 326k
Sample Encoding: MPEG audio (layer I, II or III)
Comments :
Title=Hanni-Baal Barca
Artist=African Imperial Wizard
Album=Isandhlwana
Tracknumber=02
Year=2021
Genre=Modern Classical/Tribal/Martial Industrial/Darkwave/Experimental
Discnumber=1

[/more]

Register
(4) as71, mirotvorets, Olethros, thenecromancer,
Jul 10 2021, 17:22:27 Vulture Lord - Desecration Rite (2021)


*Artist: Vulture Lord
*Album: Desecration Rite
*Year: 2021
*Genre: Black/Thrash Metal
*Country: Norway
*Format: mp3@CBR256kbps
*Size: 77MB

Tracklist:
1. Glorification Of The Dethronation 00:59
2. Bloodbound Militia 03:14
3. Stillborn Messiah 05:07
4. The Vulture Lord 04:47
5. Diabolical Intervention 03:53
6. Prepare The Coffin 04:02
7. Beneficial Martyrdom 04:32
8. Burning The Kingdom Of God 05:23
9. Perverting The Bible 06:15
******************************
Total playing time: 38:12



[more=Technical info]
Input File: 02 - Bloodbound Militia.mp3
Channels : 2
Sample Rate : 44100
Precision : 16-bit
Duration : 00:03:15.15 = 8605983 samples = 14636 CDDA sectors
File Size : 7.14M
Bit Rate : 293k
Sample Encoding: MPEG audio (layer I, II or III)
Comments :
Title=Bloodbound Militia
Artist=Vulture Lord
Album=Desecration Rite
Tracknumber=02
Year=2021
Genre=Black/Thrash Metal

[/more]

Register
(34) AlexSmith, Antichrist, ARHITECTOR, azarath111, babanguida, biroutios, boby9052, cacicandriera, cancer1974, Carcharoth, Diflock, Ext, Ildjarn, infiltrator, judaz, kim666, madera, Marek, metala, Moonshtook, multizwilling, Neath, Occultas, older68, Olethros, recber, RUSP73, sergsazan, stumpheavyrock, Unknown, vasiljev_sergej, Vidder242, wgs73, Варяг,
Jul 8 2021, 22:05:24 Essence Of Blasphemers - Calyx Of Black Metal Blood (2020)


*Artist: Essence Of Blasphemers
*Album: Calyx Of Black Metal Blood
*Year: 2020
*Genre: Black Metal
*Country: International
*Format: mp3@CBR320kbps
*Size: 114MB

Tracklist:
1. Act Of Blasphemy 01:14
2. Ritual (feat. Rafn) 06:18
3. Blessed By Black Candles 03:59
4. Nazarene 03:56
5. The Conflict Of I 04:18
6. Exalted Blasphemer 03:20
7. Calyx Of Black Metal Blood 04:37
8. Massacre 04:32
9. Essence Of Hate 04:07
10. The Satan Pest 04:14
11. Kill The Masses 03:41
12. The Flames 04:13
******************************
Total playing time: 48:29



[more=Technical info]
Input File: 03 - Blessed By Black Candles.mp3
Channels : 2
Sample Rate : 44100
Precision : 16-bit
Duration : 00:03:59.59 = 10565699 samples = 17968.9 CDDA sectors
File Size : 9.91M
Bit Rate : 331k
Sample Encoding: MPEG audio (layer I, II or III)
Comments :
Title=Blessed By Black Candles
Artist=Essence Of Blasphemers
Album=Calyx Of Black Metal Blood
Tracknumber=3
Year=2020
Genre=Black Metal

[/more]

Register
(17) AlexSmith, Carcharoth, caro, cist, Hell_Is_Here, Ildjarn, kim666, Olethros, SilentNidhogg, smysl, stormhatt, supremo, Taakeferd, VALERY, varlam4, vasiljev_sergej, wreak,
Jul 8 2021, 21:09:55 Jess And The Ancient Ones - Vertigo (2021)


*Artist: Jess And The Ancient Ones
*Album: Vertigo
*Year: 2021
*Genre: Psychedelic Rock
*Country: Finland
*Format: mp3@CBR320kbps
*Size: 92MB

Tracklist:
1. Burning Of The Velvet Fires 04:39
2. World Paranormal 03:30
3. Talking Board 05:01
4. Love Zombi 04:39
5. Summer Tripping Man 02:56
6. Born To Kill 04:07
7. What's On Your Mind 03:54
8. Strange Earth Illusion 11:34
******************************
Total playing time: 40:20



[more=Technical info]
Input File: 02 - World Paranormal.mp3
Channels : 2
Sample Rate : 44100
Precision : 16-bit
Duration : 00:03:30.00 = 9261000 samples = 15750 CDDA sectors
File Size : 8.41M
Bit Rate : 320k
Sample Encoding: MPEG audio (layer I, II or III)
Comments :
Title=World Paranormal
Artist=Jess And The Ancient Ones
Album=Vertigo
Tracknumber=2
Year=2021
Genre=Psychedelic Rock

[/more]

Register
(23) Amadeus, BERZERK, Black Cat, Boozer, ENDSMOUTH, helvetestoner, JantoHadez, madera, marilin, multizwilling, Old Vyaine, oldvarg, Olethros, smes, stub888, tOmV, tormoz, VALERY, veselchak_u, vosmidesijatye, Wail, whitebros, Xtohar,
Jul 8 2021, 20:26:44 Moonknight - Discernment [ep] (2019)


*Artist: Moonknight
*Album: Discernment [ep]
*Year: 2019
*Genre: Atmospheric Black Metal/Ambient
*Country: United States
*Format: mp3@CBR320kbps
*Size: 58MB

Tracklist:
1. Part I 13:01
2. Part II 12:15
******************************
Total playing time: 25:16



[more=Technical info]
Input File: 02 - Part II.mp3
Channels : 2
Sample Rate : 44100
Precision : 16-bit
Duration : 00:12:15.57 = 32438769 samples = 55168 CDDA sectors
File Size : 29.6M
Bit Rate : 321k
Sample Encoding: MPEG audio (layer I, II or III)
Comments :
Title=Part II
Artist=Moonknight
Album=Discernment
Tracknumber=2
Year=2019
Genre=Atmospheric Black Metal/Ambient

[/more]

Register
(10) aleon, caro, kim666, Olethros, SilentNidhogg, smysl, Taakeferd, varlam4, vasiljev_sergej, wreak,
Jun 10 2021, 14:41:57 Ravnkald - Ancestral Steel (2016)


*Artist: Ravnkald
*Album: Ancestral Steel
*Year: 2016
*Genre: Pagan Black Metal
*Country: International
*Format: mp3@CBR320kbps
*Size: 77MB

Tracklist:
1. Prelude To The Storm 01:20
2. Ancestral Steel 05:47
3. Free Like The wind 06:14
4. Pagan Witchery 04:31
5. Blood Of My Ancestors 04:24
6. Wolves From The South 04:57
7. Strong As A Mountain 05:08
8. Outro 01:16
******************************
Total playing time: 33:37



[more=Technical info]
Input File: 02 - Ancestral Steel.mp3
Channels : 2
Sample Rate : 44100
Precision : 16-bit
Duration : 00:05:41.05 = 15040305 samples = 25578.8 CDDA sectors
File Size : 14.1M
Bit Rate : 330k
Sample Encoding: MPEG audio (layer I, II or III)
Comments :
Title=Ancestral Steel
Artist=Ravnkald
Album=Ancestral Steel
Tracknumber=2
Year=2016
Genre=Pagan Black Metal

[/more]

Register
(20) AlexSmith, caro, Ildjarn, infiltrator, kim666, Marek, metala, noel666, NSGM, Olethros, Rover, SilentNidhogg, supremo, Taakeferd, varlam4, vasiljev_sergej, Vitald, Wail, wreak, Сварог Барг,
Jun 10 2021, 14:38:57 Ravnkald - Pagan Warriors United (2017)


*Artist: Ravnkald
*Album: Pagan Warriors United
*Year: 2017
*Genre: Pagan Black Metal
*Country: International
*Format: mp3@CBR320kbps
*Size: 89MB

Tracklist:
1. The Kings Hall 02:24
2. With Pride Towards The Battle 05:22
3. Legacy 06:27
4. Ancestral Spirit 05:18
5. Pagan Woods 04:18
6. Soldiers Of Eternity 04:35
7. Pagan Fury 03:13
8. Marchando Como Gigantes 05:20
9. The Last Journey 02:57
******************************
Total playing time: 39:54



[more=Technical info]
Input File: 04 - Pagan Witchery.mp3
Channels : 2
Sample Rate : 44100
Precision : 16-bit
Duration : 00:04:28.01 = 11819373 samples = 20101 CDDA sectors
File Size : 11.1M
Bit Rate : 333k
Sample Encoding: MPEG audio (layer I, II or III)
Comments :
Title=Pagan Witchery
Artist=Ravnkald
Album=Ancestral Steel
Tracknumber=4
Year=2016
Genre=Pagan Black Metal

[/more]

Register
(20) AlexSmith, caro, Ildjarn, infiltrator, kim666, Marek, noel666, NSGM, Olethros, Rover, SilentNidhogg, smysl, supremo, Taakeferd, varlam4, vasiljev_sergej, Vitald, Wail, wreak, Сварог Барг,
Jun 10 2021, 12:53:55 Radon Trench - Gods Of Decimation [ep] (2019)


*Artist: Radon Trench
*Album: Gods Of Decimation [ep]
*Year: 2019
*Genre: Black/Death Metal/Noise
*Country: Italy
*Format: mp3@CBR192kbps
*Size: 21MB

Tracklist:
1. Not A Step Back! 05:52
2. CN- 02:03
3. Death Before Dishonour (Bushido) 04:18
4. Decimation 03:08
******************************
Total playing time: 15:21

[more=Extended info]Cassette released by Pagan Infantry Records.
MCD edition released by Demented Omen of Masochism.[/more]

[more=Technical info]
Input File: 04 - Decimation.mp3
Channels : 2
Sample Rate : 44100
Precision : 16-bit
Duration : 00:03:08.94 = 8332386 samples = 14170.7 CDDA sectors
File Size : 4.53M
Bit Rate : 192k
Sample Encoding: MPEG audio (layer I, II or III)
Comments :
Title=Decimation
Artist=Radon Trench
Album=Gods Of Decimation
Tracknumber=4
Year=2019
Genre=Black/Death Metal/Noise

[/more]

Register
(9) Hell_Is_Here, infiltrator, Olethros, SilentNidhogg, Taakeferd, varlam4, vasiljev_sergej, Wail, wreak,
May 19 2021, 23:29:01 Grinning Death's Head - Cataclysm [ep] (2021)


*Artist: Grinning Death's Head
*Album: Cataclysm [ep]
*Year: 2021
*Genre: Black Metal
*Country: United States
*Format: mp3@CBR320kbps
*Size: 20MB

Tracklist:
1. Purveyors Of Pestilence 04:24
2. Acrid Damnation 04:36
******************************
Total playing time: 9:00



[more=Technical info]
Input File: 01 - Purveyors Of Pestilence.mp3
Channels : 2
Sample Rate : 44100
Precision : 16-bit
Duration : 00:04:24.18 = 11650338 samples = 19813.5 CDDA sectors
File Size : 10.6M
Bit Rate : 322k
Sample Encoding: MPEG audio (layer I, II or III)
Comments :
Title=Purveyors of Pestilence
Artist=Grinning Death's Head
Album=Cataclysm
Tracknumber=1
Year=2021
Genre=Black Metal

[/more]

Register
(22) Bzth, caro, Darkthronefoad, FUDEDOR, Grogro, Hell_Is_Here, infiltrator, kim666, nemx, Occultas, Olethros, Ostinato, satanist666, SilentNidhogg, Storky, sunkilmoon, VALERY, varlam4, vasiljev_sergej, vragh, Wail, wreak,
May 9 2021, 16:23:10 Spectral Wound - A Diabolic Thirst (2021)
FLAC 304MB
Register
(2) FlammenTod666, isvili,
May 4 2021, 16:21:30 Vampyric Tyrant - Das Schwert Der Sterne [ep] (2021)
FLAC 254MB
Register
(8) infiltrator, korovakaska, nemx, Olethros, smysl, thenecromancer, Velmi, wreak,
May 4 2021, 15:36:22 Vampyric Tyrant - Das Schwert Der Sterne [ep] (2021)


*Artist: Vampyric Tyrant
*Album: Das Schwert Der Sterne [ep]
*Year: 2021
*Genre: Black Metal
*Country: Germany
*Format: mp3@CBR320kbps
*Size: 49MB

Tracklist:
1. 1000 Winter 06:43
2. Das Schwert Der Sterne 05:34
3. In Den Hallen Des Nachtkönigs 03:18
4. Unter Der Mondzitadelle 05:20
******************************
Total playing time: 20:55



[more=Extended info]Cassette limited to 100 hand numbered copies.[/more]

[more=Technical info]
Input File: 04 - Unter Der Mondzitadelle.mp3
Channels : 2
Sample Rate : 44100
Precision : 16-bit
Duration : 00:05:20.33 = 14126729 samples = 24025 CDDA sectors
File Size : 12.9M
Bit Rate : 323k
Sample Encoding: MPEG audio (layer I, II or III)
Comments :
Title=Unter Der Mondzitadelle
Artist=Vampyric Tyrant
Album=Das Schwert Der Sterne
Tracknumber=4
Year=2021
Genre=Black Metal

[/more]

Register
(29) caro, Cramloth, ent404, Hell_Is_Here, Ildjarn, infiltrator, kim666, korovakaska, Marek, Moonshtook, murian, nemx, Olethros, Orkkh, rimfrost, robertho777, satanist666, SilentNidhogg, smysl, thenecromancer, undeadlich, VALERY, varlam4, vasiljev_sergej, Velmi, Wail, Waldemar666, wreak, Абигор,

34 Pages V   1 2 3 > » 
- Lo-Fi Version Support form
Copyrights and abuse reports form
Time is now: 16th October 2021 - 19:17:50