Welcome Guest ( Log In | Register )

История благодарностей участнику Black Cat ::: Спасибо сказали: 3046 раз(а)
Дата поста: В теме: За сообщение: Спасибо сказали:
Feb 7 2020, 13:28:05 Исихия - Орисия (2003)


*Artist: Исихия
*Album: Орисия
*Year: 2003
*Genre: Bulgarian Folk/Ambient
*Country: Bulgaria
*Format: mp3@CBR320kbps
*Size: 153MB

Tracklist:
01. Ключ
02. Родопа
03. Угар
04. Кости
05. Турски Танц
06. Проклятието
07. Чакрък
08. Въведение
09. Арамии
10. Господи Возвах
11. Ветре
******************************
Total playing time: 1:11:04



[more=Technical info]
Input File: 02 - Родопа.mp3
Channels : 2
Sample Rate : 44100
Precision : 16-bit
Duration : 00:10:33.72 = 27946876 samples = 47528.7 CDDA sectors
File Size : 25.3M
Bit Rate : 320k
Sample Encoding: MPEG audio (layer I, II or III)
Comments :
Title=Родопа
Artist=Исихия
Album=Орисия
Tracknumber=02
Year=2003
Genre=Bulgarian Folk/Ambient

[/more]

Register
(2) Cartman223, Lord_Hip,
Feb 7 2020, 13:23:56 Исихия - Исихия (2001)


*Artist: Исихия
*Album: Исихия
*Year: 2001
*Genre: Bulgarian Folk/Ambient
*Country: Bulgaria
*Format: mp3@CBR320kbps
*Size: 135MB

Tracklist:
01. Преображение
02. Господи Возвах
03. Царя Фружина
04. Черномен
05. 1393
06. Ветре
07. Саруяр
******************************
Total playing time: 59:27



[more=Technical info]
Input File: 02 - Господи Возвах.mp3
Channels : 2
Sample Rate : 44100
Precision : 16-bit
Duration : 00:09:15.74 = 24508002 samples = 41680.3 CDDA sectors
File Size : 22.2M
Bit Rate : 320k
Sample Encoding: MPEG audio (layer I, II or III)
Comments :
Title=Господи Возвах
Artist=Исихия
Album=Исихия
Tracknumber=02
Year=2001
Genre=Bulgarian Folk/Ambient

[/more]

Register
(2) Cartman223, Lord_Hip,
Feb 6 2020, 15:01:10 Ygg - The Last Scald (2020)
ЦИТАТА(russ777 @ Feb 6 2020, 10:31:39) *
Там слово "Виса " ,а не виза . nono.gif

Это еще хорошо, что не упомянута вёльва, так бы тут вообще пиршество петросянсва началось.
(7) Antiscum, Ash_1980, Baudolino, comradEnemy, Kwaad, russ777, templ,
Feb 2 2020, 10:59:44 Лучший советчик МА - Часть 5 (Прог) - Тур 2, Рейтингование
ЦИТАТА(Emm Human @ Feb 1 2020, 19:57:25) *
[youtube]IMXtgTa-F20[/youtube]

Я на момент клика по кнопке цитирования не видел, что Дазе уже ответил. 10 минут разницы же, не 10 дней, и даже не часов.
(3) Deze, Emm Human, infiltrator,
Feb 1 2020, 18:47:20 Лучший советчик МА - Часть 5 (Прог) - Тур 2, Рейтингование
ЦИТАТА(Emm Human @ Feb 1 2020, 17:57:25) *
ОК, предлагаю компромисс. Я в своём посте с оценками убрал оценки у альбомов с оценкой "0" и "1" - будем считать, что я их не слушал и слушать не буду. Остальные, где оценка "2" и выше, прослушаны всецело и всеобъемлюще.
.
Но это же не компромисс никакой, а скорей полная капитуляция по тому поводу, по какому к тебе все приколупались, разве нет?
(6) 6666666, infiltrator, Nemez, Old Vyaine, plfan93, Tular,
Jan 30 2020, 23:32:52 Hela - Vegvísir (2019)


*Artist: Hela
*Album: Vegvísir
*Year: 2019
*Genre: Stoner/Doom Metal
*Country: Spain
*Format: mp3@CBR320kbps
*Size: 101MB

Tracklist:
1 Holy Hell 07:34
2 Drowned By Myself 08:16
3 Golden Snake 09:06
4 Decaying Sky 11:02
5 Sleepless Nights 10:50
******************************
Total playing time: 46:48



[more=Technical info]
Input File: 02 - Drowned by Myself.mp3
Channels : 2
Sample Rate : 44100
Precision : 16-bit
Duration : 00:08:16.48 = 21894944 samples = 37236.3 CDDA sectors
File Size : 19.9M
Bit Rate : 320k
Sample Encoding: MPEG audio (layer I, II or III)
Comments :
Title=Drowned by Myself
Artist=Hela
Album=Vegvísir
Tracknumber=02
Year=2019
Genre=Stoner/Doom Metal

[/more]

Register
(14) ASkyThatBurns, caro, craP_cillA, DrStan, Fryz, infiltrator, LEGION69, marilin, Moonlover, Olethros, Rosen, stub888, VALERY, varlam4,
Jan 15 2020, 18:54:18 Лучший советчик МА - Часть 5 (Прог) - Тур 1, Общий сбор
JANVS - Vega
(2) Daale, infiltrator,
Jan 13 2020, 12:03:07 Лучший советчик МА - Часть 4 (Блэк) - Тур 2, Рейтингование
ЦИТАТА(Un4given @ Jan 12 2020, 20:22:56) *
так в том-то и дело, что сразу понимаешь, что это блэк по характерным признакам.

Ну так а про дум по характерным признакам не сразу понимаешь, что ли? headcrab.png
(2) Deze, infiltrator,
Dec 26 2019, 15:06:20 Arkhangelsk - Advent (2019)
ЦИТАТА(Fryz @ Dec 25 2019, 20:52:14) *
мне глубоко по боку.

Непонятно, почему тебе при этом не побоку какие-то греческие ноунеймы. bye.gif
(2) 6666666, infiltrator,
Dec 25 2019, 19:31:30 Arkhangelsk - Advent (2019)
ЦИТАТА(Fryz @ Dec 25 2019, 18:56:49) *
Архангельск от чуваков, которые снега никогда не видели. Я, конечно, утрирую, но совесть-то надо иметь.

Лол. 1488.gif
А вот чуваки из Мастодона никогда мастодонтов не видели, а участники Слеера (вроде) никого не убивали, и тд. и тп. Это ж сколько бессовестных музыкантов кругов. crazy.gif
(10) 6666666, DarkHorde, Darkwood, Emhyr var Emreis, garmonbozia, infiltrator, Nattfodd, Phlebotomized, russ777, Варонъ,
Dec 12 2019, 18:08:19 Arkona - Age Of Capricorn (2019)
ЦИТАТА(garmonbozia @ Dec 12 2019, 18:47:57) *
почему это не нужны

Нашел кому подобный вопрос задавать. 1488.gif
(5) infiltrator, Kazoth, suseka, VerminGhost, vosmidesijatye,
Dec 12 2019, 14:53:06 Лучший советчик МА - Часть 4 (Блэк) - Тур 2, Рейтингование
ЦИТАТА(vosmidesijatye @ Dec 12 2019, 15:48:14) *
А Конверж и не металкор, тебе на заметку.

Тебя щас пруфами можно до вечера закидывать. 21.gif
(2) atom72, infiltrator,
Dec 12 2019, 14:45:51 Лучший советчик МА - Часть 4 (Блэк) - Тур 2, Рейтингование
ЦИТАТА(Daale @ Dec 12 2019, 15:40:46) *
Black Cat, Как по мне, Selbst записали один из самых недооцененных альбомов последних лет пяти как минимум.
Согласен. Вполне заслуживают хайпа на уровне самых успешных посонов исландской сцены, как по мне.
ЦИТАТА(Daale @ Dec 12 2019, 15:41:51) *
Забавно, но факт. Встречал огромное кол-во людей, кто блэк десятилетиями слушает, но кто не знаком с творчеством Weakling.
По ходу это персонажи, типа местного Волка1488, или как его там точно. 1488.gif
(2) Daale, infiltrator,
Dec 11 2019, 14:03:54 Лучший советчик МА - Часть 4 (Блэк) - Тур 2, Рейтингование
ЦИТАТА(garmonbozia @ Dec 11 2019, 13:23:29) *
бомбануло.

Ой, да было бы из-за чего бомбить. smile3.gif
(2) Exorcist, vosmidesijatye,
Dec 10 2019, 19:21:32 Fen - The Dead Light (2019)
Бонусный диск, 320 kbps:
Register
(1) Aresson,
Dec 6 2019, 19:15:17 Новости Experimental/Progressive Metal
ЦИТАТА
Ещё одни легенды возвращаются из небытия. PSYCHOTIC WALTZ выпустят первый за 23 года новый альбом, получивший название "The God-Shaped Void", 14 февраля.

Альбом записан в оригинальном составе. Над звуком работал культовый звукорежисёр Йенс Богрен, над обложкой - не менее культовый Трэвис Смит.
(3) atom72, Deze, Yarri,
Dec 2 2019, 19:44:07 Лучший советчик МА - Часть 4 (Блэк) - Тур 1, Общий сбор (1) Alexis The Best,
Nov 26 2019, 21:38:47 The Flower Kings - Waiting For Miracles (2019)
Облога мимими.
ЦИТАТА(vosmidesijatye @ Nov 26 2019, 20:21:30) *
Ручлан стабильность признак мастерствп bye.gif

Ты в слове "призрак" опечатался.
(1) mirotvorets,
Nov 26 2019, 21:17:03 Cattle Decapitation - Death Atlas (2019)
ЦИТАТА(6666666 @ Nov 26 2019, 13:12:18) *
Никогда топом не были

Фаната Абортеда ответ! smile4.gif
(4) judaz, neoatheist, plfan93, vosmidesijatye,
Nov 18 2019, 23:31:40 Nile - Vile Nilotic Rites (2019)
ЦИТАТА(Lux @ Nov 18 2019, 20:42:19) *
Кто то ахинею написал, кто то отспасибил... так и живём.
Забавно, одни и те же люди многократно повторяют, что альбом "ненужен, неалё, не понял, никогданелюбилгруппу, кака, дрэг" и т.д., как будто одного раза недостаточно и кто то не постиг эту аксиому.
Плюс миллион просто.
Я вообще человек простой, вижу комменты в теме о новом Найле - захожу читать. А тут в сотый раз повторение и передергивание одного и того же от одних и тех же. Это ж насколько нечем больше заняться людям. 21.gif
(3) BleedingSun, infiltrator, plfan93,
Nov 1 2019, 20:25:30 Nile - Vile Nilotic Rites (2019)
Дослушал тут. Господи Осирисе, "не то что, зашло, а прям залетело" (с) pray.gif
Пока ни один новый для меня альбом Найла так не заходил с первого раза (2007-ой не в счет, он вышел почти сразу после моего знакомства с группой).
Звук самый годный минимум со времен 2009-го. Действительно чуть тише, чем на прошлых, но это скорей от того, что высокие приглушили.
Новый вокалист (вокалисты? на архивах указано, что и новый гитарист и басила вокалят) хороший, под Далласа явно работает, часто даже забываешь, что он свалил.
Немного по первой прослушке смутили некоторые нехарактерные ранее атмосферности не то под Септифлеш, не то вообще, не знаю, под КОФ, прости господи.
В целом, думаю, изменения в составе на пользу и пошли. Либо новый гитарист чего внес, либо Карл без Далласа так расстарался. Вроде по частям и все как всегда, а в целом куда симпатичнее смотрится, чем было в последнее время.
Единственное, что я бы автора облог сменил бы наконец. Не ужасно конечно, но на ранних альбомах куда более душевно смотрелось. Хотя, не исключаю, что это в полномочиях лейбла вообще.
ЦИТАТА(6666666 @ Nov 1 2019, 21:04:57) *
Нет, они субъективны
Пофиксил, не благодари.
(8) BleedingSun, Exorcist, infiltrator, Lux, mirotvorets, Old Vyaine, plfan93, Thiarnan,
Nov 1 2019, 18:48:55 Nile - Vile Nilotic Rites (2019)
ЦИТАТА(6666666 @ Nov 1 2019, 20:36:26) *
Нет, прошлый лучше позапрошлого и звуком, и материалом.
smile4.gif
ЦИТАТА(Black Cat @ Nov 1 2019, 20:34:22) *
все эти "сильные отличия" ты себе сам напридумывал. [2]
(2) Deze, infiltrator,
Oct 22 2019, 12:54:12 Логос - Что Наша Жизнь? (2019)
ЦИТАТА(plfan93 @ Oct 22 2019, 11:35:49) *
Игра.

Капитан.
(1) Old Vyaine,
Oct 13 2019, 12:23:12 Aklash - Aklash (2013)
Пожалуйста:
Register
(1) kimkayoung,
Oct 9 2019, 19:26:45 Wolcensmen - Fire In The White Stone (2019)


*Artist: Wolcensmen
*Album: Fire In The White Stone
*Year: 2019
*Genre: Neofolk
*Country: United Kingdom
*Format: mp3@CBR320kbps
*Size: 111MB

Tracklist:
1 Foreboden & a Gainsaying 5:23
2 Lorn and Loath 7:35
3 Hunted 4:21
4 The Woodwose 0:50
5 Of Thralls and Throes 5:12
6 The Swans of Gar's Edge 6:32
7 Maidens of the Rimeland 3:47
8 Fellowship 1:47
9 Sprig to Spear 5:42
10 Fire in the White Stone 8:26
******************************
Total playing time: 49:35



[more=Technical info]
Input File: 01 - Foreboden & A Gainsaying.mp3
Channels : 2
Sample Rate : 44100
Precision : 16-bit
Duration : 00:05:23.75 = 14277507 samples = 24281.5 CDDA sectors
File Size : 13.0M
Bit Rate : 320k
Sample Encoding: MPEG audio (layer I, II or III)
Comments :
Title=Foreboden & A Gainsaying
Artist=Wolcensmen
Album=Fire In The White Stone
Tracknumber=01
Year=2019
Genre=Neofolk

[/more]

Register
(11) ahp, Boozer, Cartman223, fylopaloma, garml2, Konst, NordicSaga, Olethros, Raw1488, rocesid, tOmV,

31 Pages V   1 2 3 > » 
- Lo-Fi Version Support form
Copyrights and abuse reports form
Time is now: 16th February 2020 - 20:14:34