Welcome Guest ( Log In | Register )

История благодарностей участнику Black Cat ::: Спасибо сказали: 3128 раз(а)
Дата поста: В теме: За сообщение: Спасибо сказали:
Yesterday, 12:02:51 Лучший советчик МА - Часть 666 (Тру-блэк)
Даешь голосовалку на "смотрящего"!
ЦИТАТА(Deze @ Apr 1 2020, 12:49:18) *
Давайте Black Catа поставим пятым. Лично я его считаю очень авторитетным в блэке.

Какой же ты КОЗЕЛ!111!1 (с)
(3) Deze, plfan93, Фо,
Mar 31 2020, 21:41:36 Soulfly - Conquer (2008)
ЦИТАТА(vosmidesijatye @ Mar 31 2020, 23:11:21) *
Отдыхай)

Даже для тебя слабый слив.
(1) plfan93,
Mar 31 2020, 21:38:06 Ville Valo - Gothica Fennica Vol. 1 [ep] (2020)
ЦИТАТА(vosmidesijatye @ Mar 31 2020, 14:39:25) *
По крайней мере первые ее три релиза - это уже классика мировой поп музыки.

Тём, ну не мне же тебе объяснять, это ж все сугубо баблишко рубить. Удобно-комфортная ниша, в которой можно годами вариться. А народец то глупый, народец ведётся, налетает и так, баблишко в кассу заносит за повторение пройденного. Шоубизнес, господа, шоубизнес. bye.gif 25.gif

Запырил облоги первых трех альбомов меж тем - ну банальный и скушный попс двадцатилетней давности...

Но имя себе наработала - и то хорошечно.

Кароч не ожидал от тебя, Тёмыч, канеш, прям расстроил. 6.gif
(1) plfan93,
Mar 31 2020, 21:14:42 Satyricon - Deep Calleth Upon Deep (2017)
ЦИТАТА(FullofHate @ Mar 31 2020, 18:23:51) *
Поздний Satyricon периода 2006 - 2017

Ладно Экстраваганза - переходный, уже не то, но еще и не это. Но Вулкан разве не из этого периода плоть от плоти? hmm.gif
(2) Exorcist, infiltrator,
Mar 31 2020, 21:09:06 Soulfly - Conquer (2008)
ЦИТАТА(vosmidesijatye @ Jan 25 2017, 23:45:57) *
высшей пробы.
ЦИТАТА(vosmidesijatye @ Mar 31 2020, 21:02:37) *
просто факультатив.
Впрочем, ничего необычного. [2]
И ведь ничего постыдного нет в том, что бы за три года разочароваться в степени этой самой "пробы". Ну перенравился, надоел, мало ли.
Или вообще, по чесноку признаться, что про высшую пробу для красного словца писанул, не составив взвешенного мнения об альбоме, как обычно (понимаю конечно, тут наивно с моей стороны).
Но нет, ты все продолжаешь вертеться аки уж на сковородке. 21.gif
(1) plfan93,
Mar 31 2020, 18:53:23 Soulfly - Conquer (2008)
ЦИТАТА(vosmidesijatye @ Mar 31 2020, 18:26:02) *
распустить бандос
ЦИТАТА(vosmidesijatye @ Mar 31 2020, 18:26:02) *
в идеале после 2005
ЦИТАТА(vosmidesijatye @ Jan 25 2017, 23:45:57) *
здесь качевый при-олдскуленный трэш-дэт высшей пробы.
Яснопонятно.
Впрочем, ничего необычного.
(1) plfan93,
Mar 31 2020, 17:51:43 Nightwish - Hvman. :||: Natvre. (2020)
Это они сразу уже в названии предупреждают, типа проходите мимо, тут опять баян?
(3) infiltrator, Old Vyaine, Thiarnan,
Mar 28 2020, 19:50:27 Новости Black-направления
Дордедух наконец-то записывают новый альбом. pray.gif
(3) infiltrator, thenecromancer, yuratroll,
Mar 28 2020, 19:35:40 Лучший советчик МА - Часть 6 (Хеви) - Тур 2, Рейтингование
15.gif
(2) infiltrator, Tular,
Mar 25 2020, 16:32:10 Avenged Sevenfold - The Stage (2016)
ЦИТАТА(vosmidesijatye @ Mar 25 2020, 17:25:08) *
Здесь я опростоволосился, отрицать не стану.

Добавь себе в подпись, так честнее будет. 15.gif
(3) atom72, Deze, plfan93,
Mar 25 2020, 16:23:13 Wishdoomdark - Blood Of The Black God (2018)
ЦИТАТА(vosmidesijatye @ Mar 25 2020, 14:50:54) *
Бог с большой буквы пишется.

ЦИТАТА(vosmidesijatye @ Mar 25 2020, 16:57:13) *
патриот своей родины, кстати.

Не, ну ты же сам себя закапываешь просто.
(1) plfan93,
Mar 25 2020, 16:06:58 Wishdoomdark - Blood Of The Black God (2018)
ЦИТАТА(atom72 @ Mar 25 2020, 14:22:20) *
Рано или поздно тебе надоест позориться и перестанешь.
Охохо. 1488.gif
Не, это все прям реально еще НАДОЛГО. popcorn.gif
ЦИТАТА(vosmidesijatye @ Mar 25 2020, 14:50:54) *
Если ты такой умный - промолчи, мимо пройди. Но нет, ты же не можешь.
Блинский, ну ты же сам себе опять противоречишь. Тебе нравится писать поверхностную хероту в больших количествах - проходите мимо, это форум, каждый может писать что хочет. Чуваку нравится подъeбывать тебя за часть этой хероты на форуме, где каждый может писать что хочет - тебе не нравится, но ты почему-то по своим заветам мимо не проходишь.
(5) BleedingSun, infiltrator, plfan93, randyhermit, Tular,
Mar 24 2020, 16:07:27 Nytt Land - Cvlt (2020)


*Artist: Nytt Land
*Album: Cvlt
*Year: 2020
*Genre: Nordic Folk/Dark Ambient
*Country: Russian Federation
*Format: mp3@CBR320kbps
*Size: 126MB

Tracklist:
1. Valhalla Rising 07:00
2. Song of the Kazym Goddess 06:27 video
3. Rígsþula 04:15
4. Ar Hotan Imi (feat. Tuomas Rounakari) 05:09
5. Seven Spirits in White Coats 03:46
6. Pusel ov Aki’s song 05:15
7. Niðavellir 04:43
8. Sólarljóð 05:25
9. Sigrdriva spell 04:17
10. Sortunut ääni (feat. Jonne Järvelä) 04:15
11. Hanum 01:53
12. Song of the Goddess Keeper (feat. Maria “Scream” Arkhipova)
******************************
Total playing time: 52:25



[more=Technical info]
Input File: 02 - Song of the Kazym Goddess.mp3
Channels : 2
Sample Rate : 44100
Precision : 16-bit
Duration : 00:06:27.31 = 17080459 samples = 29048.4 CDDA sectors
File Size : 15.5M
Bit Rate : 320k
Sample Encoding: MPEG audio (layer I, II or III)
Comments :
Title=Song of the Kazym Goddess
Artist=Nytt Land
Album=Cvlt
Tracknumber=02
Year=2020
Genre=Nordic Folk/Dark Ambient

[/more]

Register
(8) Angry_Chair, Cartman223, DMIYUR, Druidir, goatkvlt, Infidel, infiltrator, Olethros,
Mar 23 2020, 12:00:10 Covid-19 - We All Die (2020)
ЦИТАТА(Kwaad @ Mar 22 2020, 17:46:36) *
Щас на эту хайповую тему появится много альбомов от говноблэкеров-в-изоляции, у которых уроки отменили из-за карантина.

Не, мне кажется это даже для говноблекеров слишком зашкварная тема, чтоб прям много альбомов появилось.
(3) Deze, infiltrator, Kwaad,
Mar 19 2020, 23:44:22 Rawrorr - Cynism (2020)
ЦИТАТА(Tular @ Mar 19 2020, 11:48:27) *
Фоhuism

Вот, кстати, уже не первый раз такое. Листаю тему, вижу такой отличную возможность зашутить офигительную шутеечку, долистываю, а Тулар ее уже зашутил. 6.gif
(5) 6666666, Deze, DMIYUR, garmonbozia, infiltrator,
Mar 18 2020, 12:35:19 Wolves In The Throne Room - Two Hunters (2007)
CD rip 320 kbps:
Register

Vinyl rip with bonus track 320 kbps:
Register
(1) Moonlover,
Mar 11 2020, 18:22:18 Nile - Black Seeds Of Vengeance (2000)
Не понимаю, чего бомбить от отзывов людей, которые в принципе почти всегда всем недовольны.
(2) Emm Human, infiltrator,
Feb 26 2020, 21:57:23 Night Viper - Exterminator (2017)
320 кбит/сек:
Register
(2) infiltrator, quicksand,
Feb 7 2020, 13:28:05 Исихия - Орисия (2003)


*Artist: Исихия
*Album: Орисия
*Year: 2003
*Genre: Bulgarian Folk/Ambient
*Country: Bulgaria
*Format: mp3@CBR320kbps
*Size: 153MB

Tracklist:
01. Ключ
02. Родопа
03. Угар
04. Кости
05. Турски Танц
06. Проклятието
07. Чакрък
08. Въведение
09. Арамии
10. Господи Возвах
11. Ветре
******************************
Total playing time: 1:11:04



[more=Technical info]
Input File: 02 - Родопа.mp3
Channels : 2
Sample Rate : 44100
Precision : 16-bit
Duration : 00:10:33.72 = 27946876 samples = 47528.7 CDDA sectors
File Size : 25.3M
Bit Rate : 320k
Sample Encoding: MPEG audio (layer I, II or III)
Comments :
Title=Родопа
Artist=Исихия
Album=Орисия
Tracknumber=02
Year=2003
Genre=Bulgarian Folk/Ambient

[/more]

Register
(3) Cartman223, infiltrator, Lord_Hip,
Feb 7 2020, 13:23:56 Исихия - Исихия (2001)


*Artist: Исихия
*Album: Исихия
*Year: 2001
*Genre: Bulgarian Folk/Ambient
*Country: Bulgaria
*Format: mp3@CBR320kbps
*Size: 135MB

Tracklist:
01. Преображение
02. Господи Возвах
03. Царя Фружина
04. Черномен
05. 1393
06. Ветре
07. Саруяр
******************************
Total playing time: 59:27



[more=Technical info]
Input File: 02 - Господи Возвах.mp3
Channels : 2
Sample Rate : 44100
Precision : 16-bit
Duration : 00:09:15.74 = 24508002 samples = 41680.3 CDDA sectors
File Size : 22.2M
Bit Rate : 320k
Sample Encoding: MPEG audio (layer I, II or III)
Comments :
Title=Господи Возвах
Artist=Исихия
Album=Исихия
Tracknumber=02
Year=2001
Genre=Bulgarian Folk/Ambient

[/more]

Register
(3) Cartman223, infiltrator, Lord_Hip,
Feb 6 2020, 15:01:10 Ygg - The Last Scald (2020)
ЦИТАТА(russ777 @ Feb 6 2020, 10:31:39) *
Там слово "Виса " ,а не виза . nono.gif

Это еще хорошо, что не упомянута вёльва, так бы тут вообще пиршество петросянсва началось.
(7) Antiscum, Ash_1980, Baudolino, comradEnemy, Kwaad, russ777, templ,
Feb 2 2020, 10:59:44 Лучший советчик МА - Часть 5 (Прог) - Тур 2, Рейтингование
ЦИТАТА(Emm Human @ Feb 1 2020, 19:57:25) *
[youtube]IMXtgTa-F20[/youtube]

Я на момент клика по кнопке цитирования не видел, что Дазе уже ответил. 10 минут разницы же, не 10 дней, и даже не часов.
(3) Deze, Emm Human, infiltrator,
Feb 1 2020, 18:47:20 Лучший советчик МА - Часть 5 (Прог) - Тур 2, Рейтингование
ЦИТАТА(Emm Human @ Feb 1 2020, 17:57:25) *
ОК, предлагаю компромисс. Я в своём посте с оценками убрал оценки у альбомов с оценкой "0" и "1" - будем считать, что я их не слушал и слушать не буду. Остальные, где оценка "2" и выше, прослушаны всецело и всеобъемлюще.
.
Но это же не компромисс никакой, а скорей полная капитуляция по тому поводу, по какому к тебе все приколупались, разве нет?
(6) 6666666, infiltrator, Nemez, Old Vyaine, plfan93, Tular,
Jan 30 2020, 23:32:52 Hela - Vegvísir (2019)


*Artist: Hela
*Album: Vegvísir
*Year: 2019
*Genre: Stoner/Doom Metal
*Country: Spain
*Format: mp3@CBR320kbps
*Size: 101MB

Tracklist:
1 Holy Hell 07:34
2 Drowned By Myself 08:16
3 Golden Snake 09:06
4 Decaying Sky 11:02
5 Sleepless Nights 10:50
******************************
Total playing time: 46:48



[more=Technical info]
Input File: 02 - Drowned by Myself.mp3
Channels : 2
Sample Rate : 44100
Precision : 16-bit
Duration : 00:08:16.48 = 21894944 samples = 37236.3 CDDA sectors
File Size : 19.9M
Bit Rate : 320k
Sample Encoding: MPEG audio (layer I, II or III)
Comments :
Title=Drowned by Myself
Artist=Hela
Album=Vegvísir
Tracknumber=02
Year=2019
Genre=Stoner/Doom Metal

[/more]

Register
(16) ASkyThatBurns, caro, craP_cillA, DrStan, Fryz, infiltrator, LEGION69, Lyrch, marilin, Moonlover, Olethros, Rosen, stub888, VALERY, varlam4, wreak,
Jan 15 2020, 18:54:18 Лучший советчик МА - Часть 5 (Прог) - Тур 1, Общий сбор
JANVS - Vega
(2) Daale, infiltrator,

31 Pages V   1 2 3 > » 
- Lo-Fi Version Support form
Copyrights and abuse reports form
Time is now: 2nd April 2020 - 04:52:25