Welcome Guest ( Log In | Register )

История благодарностей участнику Black Cat ::: Спасибо сказали: 3484 раз(а)
Дата поста: В теме: За сообщение: Спасибо сказали:
Yesterday, 10:43:57 Any Post-Metal or Stoner with Death Metal Vocals?
Acid Witch
(1) Borderline1991,
Apr 29 2021, 14:19:58 __________, или Голосовалка за лучший альбом 2020 года, Тур 2
"Попса":
Abigor - Totschläger (A Saintslayer's Songbook) +1
Benediction - Scriptures +1
Dark Tranquillity - Moment +1
Finntroll - Vredesvävd +2
Inquisition - Black Mass For A Mass Grave +2
My Dying Bride - The Ghost Of Orion +2
Oranssi Pazuzu - Mestarin Kynsi +3
Paradise Lost - Obsidian +2

Непопса:
Armagedda - Svindeldjup Ättestup +2
Darzamat - A Philosopher At The End Of The Universe +1
Hate Forest - Hour Of The Centaur +3
Havukruunu - Uinuos Syömein Sotaм +2
(2) infiltrator, M8R8K,
Apr 21 2021, 14:51:56 Deathspell Omega - The Furnaces Of Palingenesia (2019)
А чет я думал, этот весь вой начался от того, что какой-то хипстор после десятилетия фапанья на ДСО погуглил таки, кто такой Аспа, какие у него еще группы, и тут ВНЕЗАПНО и остальные хипсторы ОСОЗНАЛИ.
(1) Deze,
Apr 17 2021, 16:24:30 __________, или Голосовалка за лучший альбом 2020 года, Тур 2
ЦИТАТА(Exorcist @ Apr 17 2021, 17:04:00) *
Benediction - альбом года по версии альтернативно-одарённых 1488.gif
Извинись. 6.gif
(1) Visitor,
Apr 1 2021, 19:42:12 __________, или Голосовалка за лучший альбом 2020 года, Тур 1
Многого, что хотел, так и не отслушал, но оказалось, что на двадцатку изи насоберал.

Armagedda - Svindeldjup Attestup
Auðn - Vökudraumsins fangi
Draconian - Under A Godless Veil
Fellwarden - Wreathed In Mourncloud
Fluisteraars - Bloem
Grift - Budet
Hate Forest - Hour Of The Centaur
Havukruunu - Uinuos Syomein Sota
Katavasia - Magnus Venator
Khors - Де Слово Набуває Вічності
Medico Peste - The Black Bile
Nawaharjan - Lokabrenna
Odraza - Rzeczom
Paradise Lost - Obsidian
Precambrian - Tectonics
Psychonaut 4 - Beautyfall
Selbst - Relatos de angustia
Svrm - Занепад
Turia - Degen Van Licht
Ygg - The Last Scald
(2) infiltrator, neoatheist,
Mar 21 2021, 11:42:58 Леший - Поганые Сны [demo] (2021)
TRUE CAPS BLACK METAL true_black.gif
(1) Penetralia,
Mar 20 2021, 19:10:12 Paradise Lost - Gothic Live At Roadburn 2016 [live] (2021)
Register
(6) gena, legion01, Occultas, Old Vyaine, randyhermit, Synthaeon,
Mar 1 2021, 20:18:05 Eyehategod - Built Beneath The Lies [single] (2021)
ЦИТАТА(ent404 @ Mar 1 2021, 14:45:08) *
охладел к ним после того, как они стремительно рванули на родину перед пандемией.
всё конечно понимаю, но неприятный осадочек остался.
Аналогично, чет никакого желания с тех пор к ним возвращаться.
(2) ent404, infiltrator,
Mar 1 2021, 20:09:15 Kanonenfieber - Menschenmühle (2021)
Хз, не слышу никакого мдма богомерзкого, нормальный пацанский блекодет.
(1) Purestenchkvlt,
Feb 4 2021, 01:07:05 Sur Austru - Obârșie (2021)
Ого, я и не знал, что чуваки из последнего состава Негуры продолжили после смерти Негру, еще и второй альбом уже. Правда альбомы при них такое были конечно, но попробовать стоит.
(1) Boozer,
Jan 22 2021, 14:54:59 Hamferð - Támsins Likam (2018)
320 kbps
Register
(1) thenecromancer,
Jan 22 2021, 14:17:25 Wardruna - Kvitravn (2021)
Register
(17) 6666666, dromord, Faust2016, garml2, helvetestoner, infiltrator, lary_veel, marilin, Metalass, multizwilling, murayne, nikolay81, Olethros, Ostinato, SatanicPanzer, Ulfgrimm, Луч,
Jan 21 2021, 22:51:58 Wardruna - Kvitravn (2021)


*Artist: Wardruna
*Album: Kvitravn
*Year: 2021
*Genre: Nordic Folk/Dark Ambient
*Country: Norway
*Format: mp3@CBR320kbps
*Size: 147MB

Tracklist:
01. Synkverv (4:51)
02. Kvitravn (6:18)
03. Skugge (6:38)
04. Grá (3:32)
05. Fylgjutal (7:05)
06. Munin (5:26)
07. Kvit hjort (5:41)
08. Viseveiding (4:48)
09. Ni (4:29)
10. Vindavlarljod (6:40)
11. Andvevarljod (10:16)
******************************
Total playing time: 1:05:44




[more=Technical info]
Input File: 02 - Kvitravn.mp3
Channels : 2
Sample Rate : 44100
Precision : 16-bit
Duration : 00:06:17.86 = 16663582 samples = 28339.4 CDDA sectors
File Size : 15.2M
Bit Rate : 323k
Sample Encoding: MPEG audio (layer I, II or III)
Comments :
Title=Kvitravn
Artist=Wardruna
Album=Kvitravn
Tracknumber=02
Year=2021
Genre=Nordic Folk/Dark Ambient
Discnumber=1/1

[/more]

Register
(45) BlackPanda, Boozer, Borya_Tvorogov, Branis, cancer1974, Cartman223, dromord, Druidir, Faust2016, Femto, fylopaloma, Haunting, heinz88, Infidel, infiltrator, kimkayoung, Kodel, Lord Noctua, lucifix, marilin, MAYH, Metalass, mondlicht, nadin85, NappyRob, Necromag, nemx, Noxius, nugorod, oldvarg, Olethros, Phlebotomized, pulotto, QuadenThyrane, recber, RUDACHUR, sarcophagus, Sjelekval, squall8fr, thenecromancer, tOmV, ugly, veselchak_u, Vidyadharov, xska,
Dec 27 2020, 13:14:20 Gjallarhorn - Ranarop (1997)
Register
(1) Amadeus,
Dec 14 2020, 20:06:13 Новости Black-направления
ЦИТАТА(Darkwood @ Dec 14 2020, 15:46:28) *
обожаю такие предъявы, у самого друдкх и на фэйсбуке и на твиттере (что лично в моих глазах дыра еще хуже чем инстаграм), но по[мат->бан]еть все горазды

Их лейбл ведет.
Это помимо того, что, очевидно, это не предъява любой группе, у которой есть инстаграмм. Ваш капитан.
(2) Daale, infiltrator,
Oct 25 2020, 17:55:46 Лучший советчик МА - Часть 11 (Готик) - Тур 2, Рейтингование
ЦИТАТА(Deze @ Oct 25 2020, 19:32:11) *
Странный вопрос.

Ну времени нет у человека списки смотреть, почем прицепился то опять? 1488.gif
(2) infiltrator, randyhermit,
Sep 30 2020, 16:45:59 Новости Heavy/Power металла
ЦИТАТА(Deze @ Sep 30 2020, 18:01:25) *
"Вход свободный"))))))))))))))))))))))))))

По ходу за выход нужно будет забашлять. 1488.gif
(2) Foneg, infiltrator,
Sep 20 2020, 20:11:36 Lik - Misanthropic Breed (2020)
Я вот не понимаю, зачем ныть по поводу неправильных тегов, когда оно все в пару кликов за пару секунд меняется.
(2) infiltrator, vosmidesijatye,
Sep 16 2020, 10:25:07 Khors - Where The Word Acquires Eternity (2020)
ЦИТАТА(Mick Dundee @ Sep 16 2020, 00:59:54) *
ПесТня номер восемь. Это просто какой то сюр. Кого они воспевают ? Как им приходит это в голову ? Этим гордиться .Вернее - было бы кем.
Ну и кого они воспевают? Альбом посвящен этому явлению, инфа находится в гугле в два клика. ̶М̶е̶р̶з̶о̶с̶т̶ь̶ ̶к̶а̶к̶а̶я̶.̶ Да, возможно, это и не самая важная часть мировой культуры, тут уже вкусовщина. Но безусловно, чуваку с обрыганом на аватарке, поющим песенки про цунарефов и ниггеррепэтокалов, явно же лучше знать кому кого правильно воспевать, и кем гордиться.
(10) 6666666, Baudolino, Exorcist, gena, goxther, infiltrator, Nattfodd, nekrodaemon, smes, suseka,
Sep 4 2020, 10:51:51 Katavasia - Magnus Venator (2020)
Спасибо, ждал, дебют был кайф и марожено.
(2) Daale, infiltrator,
Aug 28 2020, 10:03:17 Darkwood - Twilight Garden (2020)


*Artist: Darkwood
*Album: Twilight Garden
*Year: 2020
*Genre: Neofolk
*Country: Germany
*Format: mp3@CBR320kbps
*Size: 104MB

Tracklist:
01. One-Eyed God
02. The Sixth Night
03. Cherry Blossom
04. The Last Wolf
05. Twilight
06. Lucid Dream
07. Chased by the Swans
08. Night Was Golden
09. The Wolf's Word
10. Emma in Winter
******************************
Total playing time: 45:41

[more=Technical info]
Input File: 02 - The Sixth Night.mp3
Channels : 2
Sample Rate : 44100
Precision : 16-bit
Duration : 00:05:22.19 = 14208535 samples = 24164.2 CDDA sectors
File Size : 12.9M
Bit Rate : 320k
Sample Encoding: MPEG audio (layer I, II or III)
Comments :
Title=The Sixth Night
Artist=Darkwood
Album=Twilight Garden
Tracknumber=02
Year=2020
Genre=Neofolk

[/more]

Register
(15) as71, Cartman223, comradEnemy, folker, Forest Silence, fylopaloma, gwar, HeroTarnum, infiltrator, Krosis, NappyRob, Olethros, pfk505, Strygaldwir, tOmV,
Aug 25 2020, 21:24:14 Precambrian - Tectonics (2020)
Очень крепкий альбом, как собсно всегда у Саенко с сайд-проектами.
По поводу, нафига было менять вывеску - тоже не совсем понимаю. Понятно, концепция другая, но если с Блад оф Кингу вполне оправдано, то почему про доисторическую геологию не позаливать под вывеской Хейт Форест, не совсем ясно. ХФ у меня всегда как раз с какой-то такой первобытностью ассоциировался.
ЦИТАТА(Fryz @ Aug 24 2020, 10:19:13) *
Да это стандартная практика для проектов Саенко.
Да не особо. На самом последнем ХФ, плюс на части треканов из дебютника такое было только, если не изменяет память.
(3) infiltrator, nsk2008, StabWound,
Aug 22 2020, 23:46:02 Blues Pills - Holy Moly! (2020)


*Artist: Blues Pills
*Album: Holy Moly!
*Year: 2020
*Genre: Psychedelic/Blues Rock
*Country: Sweden
*Format: mp3@CBR320kbps
*Size: 94MB

Tracklist:
01. Proud Woman 03:34
02. Low Road 03:17
03. Dreaming My Life Away 02:43
04. California 03:10
05. Rhythm In The Blood 03:49
06. Dust 03:50
07. Kiss My Past Goodbye 03:01
08. Wish I'd Known 04:27
09. Bye Bye Birdy 04:03
10. Song From A Mourning Dove 05:34
11. Longest Lasting Friend 03:57
******************************
Total playing time: 41:25




[more=Technical info]
Input File: 02 - Low Road.mp3
Channels : 2
Sample Rate : 44100
Precision : 16-bit
Duration : 00:03:17.84 = 8724700 samples = 14837.9 CDDA sectors
File Size : 8.01M
Bit Rate : 324k
Sample Encoding: MPEG audio (layer I, II or III)
Comments :
Title=Low Road
Artist=Blues Pills
Album=Holy Moly!
Tracknumber=02
Year=2020
Genre=Psychedelic/Blues Rock

[/more]

Register
(15) BladeOvDarkness, Boozer, CryptOn, Galactus, Ghostb, infiltrator, marilin, multizwilling, Olethros, Phlebotomized, rammmirez, Tular, Vastich, vosmidesijatye, xska,
Aug 17 2020, 21:04:28 Steve Von Till - No Wilderness Deep Enough (2020)
ЦИТАТА(Ghostb @ Aug 17 2020, 20:46:40) *
Волшебный альбом
+1
(1) Ghostb,
Aug 9 2020, 11:06:41 Selbst - Relatos De Angustia (2020)
ЦИТАТА(Vidyadharov @ Aug 9 2020, 12:22:31) *
Там местами даже ощущается, что парень был под впечатлением от последнего Ulcerate. smile1.gif
Дык это скорей сами Ulcerate творят "под впечатлением" от одного широкоизвестного в узких кругах французского ансамбля. Альбома с четвертого (этого самого ансамбля в смысле, не своего) smile3.gif
(2) Deze, Metalass,

34 Pages V   1 2 3 > » 
- Lo-Fi Version Support form
Copyrights and abuse reports form
Time is now: 18th May 2021 - 02:42:59