Welcome Guest ( Log In | Register )

История благодарностей участнику Black Cat ::: Спасибо сказали: 3586 раз(а)
Дата поста: В теме: За сообщение: Спасибо сказали:
Nov 24 2021, 20:59:21 Thulcandra - A Dying Wish (2021)
ЦИТАТА(FullofHate @ Nov 23 2021, 22:59:33) *
Никому не нужный альбом.
Но ведь даже судя по этой теме, минимум десятерым людям он в разной степени нужен. 15.gif
(1) tormoz,
Nov 23 2021, 21:46:12 Thulcandra - A Dying Wish (2021)
Очень приятный Диссекшн-воршип, как всегда радуют.
(2) Exorcist, sta1081,
Nov 22 2021, 23:53:25 Swallow The Sun - Moonflowers (2021)
ЦИТАТА(Aresson @ Nov 22 2021, 21:17:24) *
почему не говорить "льзя"
Я все время говорю.
(1) BleedingSun,
Nov 21 2021, 20:48:54 Cannibal Corpse - Violence Unimagined (2021)
ЦИТАТА(Slam91 @ Nov 21 2021, 18:45:43) *
По итогу, что там с уровнем громкости альбома, и где достать качественный рип, подскажите пожалуйста?
320 кбит/сек
Register
(5) Aresson, Emm Human, Occultas, Slam91, Sordes,
Nov 20 2021, 16:12:02 Addaura - Burning For The Ancient (2012)
Держи:
Register
(2) rimfrost, wreak,
Nov 20 2021, 14:54:17 Addaura - Burning For The Ancient (2012)
320 kbps
Register
(2) aleon, rimfrost,
Nov 19 2021, 21:18:18 Heidevolk - De Strijdlust Is Geboren (2005)
320 kbps
Register
(2) kimkayoung, wreak,
Nov 1 2021, 11:48:34 Новости Experimental/Progressive Metal
Тоже зобежал всех порадовать сочувствующих =)
И трек как надо воще gop_spb.gif
(1) Yarri,
Oct 26 2021, 20:37:35 Graveland - Hour Of Ragnarok (2021)
Еле дослушал, что в последний десяток лет постоянно с его релизами. Подумал было, что я просто вырос из его музла, но тут же последовавший прогон Creed Of Iron оставил совсем противоположные ощущения.
Плюс впервые, несмотря на название, веет не рагнароковалгалльными викингами, а самым что ни на есть словянскем долбославием. Мож влияние жены, хз. fear.gif
(2) Occultas, UlvhedinGrom,
Sep 12 2021, 11:03:11 Ладушка - Счастья Полон Дом (2021)
ЦИТАТА(Samaritianin @ Sep 11 2021, 03:27:29) *
2. Поднимаемся с колен

normal_Homerdisgust3s.png
(1) Skyggedans,
Sep 9 2021, 18:31:08 Wolves In The Throne Room - Primordial Arcana (2021)
ЦИТАТА(6666666 @ Sep 9 2021, 17:59:35) *
Самый лучший коммент в теме.
Да у него переоцененные все почти так же часто, как у тебя ударные плохие.
(4) 6666666, gena, Old Vyaine, plfan93,
Aug 20 2021, 12:11:21 Nytt Land - Ritual (2021)


*Artist: Nytt Land
*Album: Ritual
*Year: 2021
*Genre: Nordic Folk/Dark Ambient
*Country: Russian Federation
*Format: mp3@CBR320kbps
*Size: 108MB

Tracklist:
01 Ritual
02 The Fires of Ragnarok
03 The Birth of a Shaman
04 Dead Man’s Dance
05 U-Gra
06 Gróttasöngr
07 Svartravn
08 Blood of the North
******************************
Total playing time: 47:46



[more=Technical info]
Input File: 01 - Ritual.mp3
Channels : 2
Sample Rate : 44100
Precision : 16-bit
Duration : 00:07:10.34 = 18978082 samples = 32275.6 CDDA sectors
File Size : 17.3M
Bit Rate : 321k
Sample Encoding: MPEG audio (layer I, II or III)
Comments :
Title=Ritual
Artist=Nytt Land
Album=Ritual
Tracknumber=01
Year=2021-08-06
Genre=Nordic Folk/Dark Ambient
Discnumber=1

[/more]

Register
(8) A.L.Rapsod, Cartman223, gwar, Immolator, Infidel, oldvarg, Olethros, Phlebotomized,
Aug 13 2021, 09:24:24 Wolves In The Throne Room - Primordial Arcana (2021)
Новый главный мой претендент на альбом года. 20.gif
Mirors:
Register
(7) 666days, blackdeath, ErikGoth, metamfer, Narasimha, troll_swamp, vasiljev_sergej,
Jul 30 2021, 14:59:54 Panopticon - Revisions Of The Past [compilation] (2016)
Офкорс! gop_spb.gif
320 kbps
Register
(4) carla667, kim666, thenecromancer, Yorker,
Jul 25 2021, 22:02:47 Darkestrah - Epos (2007)
320 kbps
Register
(3) MEmethuselah, varlam4, wreak,
Jul 12 2021, 15:31:17 Новости Black-направления
[youtube]IvuINAekJVI[/youtube]
(2) infiltrator, suseka,
Jun 26 2021, 23:14:29 Amenra - De Doorn (2021)
Че не так то? Подсказоньки хоть какие давали бы, а то еще ребусы решать какие-то.
(1) ent404,
Jun 26 2021, 11:40:59 Бастион - Когда Римского Папу Трахнет Козёл [demo] (1999)
Название - это условие, при котором посоны запишут что-то относительно съедобное?
(5) Deze, infiltrator, plfan93, UlvhedinGrom, Wail,
Jun 26 2021, 09:41:38 Amenra - De Doorn (2021)


*Artist: Amenra
*Album: De Doorn
*Year: 2021
*Genre: Sludge/Post-Metal
*Country: Belgium
*Format: mp3@CBR320kbps
*Size: 104MB

Tracklist:
01. Ogentroost (10:01)
02. De Dood In Bloei (04:39)
03. De Evenmens (08:02)
04. Het Gloren (11:31)
05. Voor Immer (12:43)
******************************
Total playing time: 46:56




[more=Technical info]
Input File: 02. De Dood In Bloei.mp3
Channels : 2
Sample Rate : 44100
Precision : 16-bit
Duration : 00:04:38.72 = 12291508 samples = 20903.9 CDDA sectors
File Size : 11.2M
Bit Rate : 321k
Sample Encoding: MPEG audio (layer I, II or III)
Comments :
Title=De Dood In Bloei
Artist=Amenra
Album=De Doorn
Tracknumber=02
Year=2021
Genre=Metal

[/more]

Register

Register
(4) gena, sacredserenity, Spritznkarli, Wail,
Jun 18 2021, 20:31:27 Sieta - Novgorod (2021)
ЦИТАТА(rembocoder @ Jun 17 2021, 22:58:50) *
При этом непонятно, откуда ты взял, что там было полное отсутствие национального самосознания.
ЦИТАТА(rembocoder @ Jun 17 2021, 23:17:50) *
Ты сам приводишь примеры, где субъектом является знать, а не народ. Я допускаю, что в Новгороде знать сговорилась с норманнами, но народ вряд ли кто-то спрашивал.
Ой все. Национальное самосознание и прямая демократия у словяней в IX-ом веке. Если это не задорновщина, то что вообще задорновщина?
Ну камон, на серьезных щщах доказывать, что в раннем средневековье "простой норот" сам в обход знати не звал кого-то собой править - это же еще круче антинорманизма. 16.gif
ЦИТАТА(6666666 @ Jun 17 2021, 22:24:23) *
Да, Кот переиграл и уничтожил.
Да только, учитывая аргументы "разгромленной" стороны, толку то. Реально, Понасенковым себя чувствую.
(1) Zyozic_Bandutto,
Jun 17 2021, 20:13:10 Sieta - Novgorod (2021)
ЦИТАТА(rembocoder @ Jun 17 2021, 18:59:31) *
«приглашение» иноземцев править собой, лол, это даже звучит бредово
Добрый вечер. Стопитсот таких примеров, от призвания норвежскими бондами датчан во главе с Кнутом Великим после свержения Олафа II, или призвания английской знатью Филиппа Августа при правлении Иоанна Безземельного, до приглашения теми же англичанами уже в новое время протестанта голландца Вильгельма Оранского на замену богомерзому католику Якову II. Моментально вспоминаются такие примеры, если интересоваться историей чуть дальше чтения задорнообразного фолк-хистори.
ОК, тут нужно уточнить - если вопрос именно в факте "добровольного призвания" скандинавов, возможно таки да, какая-то дискуссия имеет место быть. Источник по этому поводу один (непонятно, правда, каким образом он заинтересован в продвижении наследия скандинавов), кишит всяческой мифологией, типа сотворения мира, и, по-хорошему, является скорей пересказом всяческих баек. Вполне возможно, пришли сами, и никто их не звал. Но все равно, для какого-то обоснованного опровержения источников нет.
Ежели вопрос в самом наличии "иноземной правящей верхушки" (что, собсно, и является главной целью атаки п̶л̶о̶с̶к̶о̶з̶е̶м̶е̶л̶ь̶щ̶и̶к̶о̶в̶ антинорманистов), то да, типичнейшая задорновщина. Источников, подтверждающих скандинавскость правящей верхушки Киевской Руси до Владимира включительно выше крыши. Как и примеров иностранной правящей верхушки других странах (франки в латинизированной Галлии, остготы и лангобарды в Италии, вестготы в Испании, скандинавы во французской Нормандии, они же офранцуженные в Сицилии и Англии и тд. и тп.).
(5) 6666666, Hexer, mirotvorets, randyhermit, Zyozic_Bandutto,
May 31 2021, 15:46:30 Cannibal Corpse - Violence Unimagined (2021)
ЦИТАТА(vosmidesijatye @ May 31 2021, 17:26:12) *
Как будто Килл не третьеклассная
Килл указан исключительно потому, что чел его выделяет как последний, который он сколько-нибудь котирует, и обложки тогда ему не мешали.
Хотя таки да, там наименее дурацкая обложка.
(2) Deze, mittal,
May 31 2021, 15:18:12 Cannibal Corpse - Violence Unimagined (2021)
ЦИТАТА(mittal @ May 31 2021, 16:08:52) *
О, боже, в третьем классе я вырос с таких обложек normal_Homerdisgust3.png
Никогда такого не было, и вот опять.
ЦИТАТА(mittal @ May 31 2021, 17:10:38) *
Уточнение: с бывшими большими именами. Это имя для меня уже стало миниатюрным. Слишком давно я не слышал от них ничего толкового. Кажется, Kill был последним таким.
Обложки до Килл были не менее третьеклассными. Меня самого они всегда забавляли, но как-то тупо предъявлять за это аж на 15-ом альбоме. Это уже своего рода фича.
(5) 6666666, Deze, Exorcist, mirotvorets, plfan93,
May 17 2021, 10:43:57 Any Post-Metal or Stoner with Death Metal Vocals?
Acid Witch
(1) Moldavite,
May 16 2021, 13:32:09 Dordeduh - Har (2021)
ЦИТАТА(6666666 @ May 16 2021, 00:38:09) *
В апреле.

https://i.pinimg.com/originals/ca/39/01/ca3...a7b5efe31f2.jpg
(1) WOLAND,

35 Pages V   1 2 3 > » 
- Lo-Fi Version Support form
Copyrights and abuse reports form
Time is now: 3rd December 2021 - 02:17:49