Welcome Guest ( Log In | Register )

История благодарностей участнику Bekkerev ::: Спасибо сказали: 210 раз(а)
Дата поста: В теме: За сообщение: Спасибо сказали:
Mar 12 2023, 22:35:11 Vöedtæmhtëhactått - Idolatry And Witchcraft: Your Curse For Today (2023)


*Artist: Vöedtæmhtëhactått
*Album: Idolatry And Witchcraft: Your Curse For Today
*Year: 2023
*Genre: Black Metal
*Country: Ukraine
*Format: mp3@CBR320kbps
*Size: 111MB

Tracklist:
1. Idolatry and Witchcraft: Your Curse for Today
******************************
Total playing time: 00:45:49

YouTube


[more=Technical info]
Input File: Vöedtæmhtëhactått - Idolatry and Witchcraft Your Curse for Today.mp3
Channels : 2
Sample Rate : 44100
Precision : 16-bit
Duration : 00:00:10.06 = 443514 samples = 754.276 CDDA sectors
File Size : 402k
Bit Rate : 320k
Sample Encoding: MPEG audio (layer I, II or III)

[/more]

Register
(22) AlexSmith, alikkon, Altkiller, ambre, artscald, Carcharoth, Grev, kim666, Mencae77, murian, nemx, randumbum, Razorbladeswaltz, smysl, stormhatt, supremo, thenecromancer, the_cleanser, VALERY, vasiljev_sergej, Weikai, wreak,
Feb 10 2022, 12:33:53 Temple Of Nihil - Psalms Of The Omnivorous Flame (2022)
Есть достойные композиции с отличными риффами. Понравилось
(2) Kurhan, Occultas,
Sep 25 2021, 21:40:30 Lunar Spells - Where Silence Whispers (2021)
Шикарно
(1) Storky,
Feb 6 2021, 13:21:02 Black Candle Wax - The Cinderlands [demo] (2021)
Dark Sigils из Crematorium была изумительна.
(1) Occultas,
Dec 2 2019, 22:30:47 Këkht Aräkh - Night & Love (2019)
Шикарно
(1) ent404,
Oct 18 2019, 08:30:01 Sauts Alastor - Celestial Odium Diaboli (2019)
Сильная работа, рекомендую.
(1) GorAtheist,
Jan 6 2017, 09:27:26 Niedergang - Átszellemülés (2016)
Замечательный альбом. Потрясающая музыка, качество и атмосфера.
(1) neoatheist,
Oct 20 2016, 19:44:36 Incandescence - Les Ténèbres Murmurent Mon Nom (2016)
Не слышно оваций. Шедевр! Я восхищен и обескуражен.
(1) Mencae77,
Sep 10 2016, 10:32:16 Nox - Ancestral Arte Negro [ep] (2016)
Второй трек потрясающий.
(1) ent404,
Jul 20 2015, 16:41:29 Panphage - Storm (2015)
Расстроил. Предыдущие записи запомнились, а здесь, пролистав, возникло желание выключить. Даже качество какое-то кислое. Не стал спорить с собой.
Jul 4 2015, 19:00:41 Grav - Ohelighetens Pulserande Ondska [ep] (2014)
Как всегда здорово! Панорамирование чайны в правый динамик приятно радует. Качество растет.
(1) EvilSurround,
May 26 2015, 14:32:46 Vöedtæmhtëhactått & Maquahuitl - Without Veils Of Righteousness [split] (2015)


*Artist: Vöedtæmhtëhactått & Maquahuitl
*Album: Without Veils Of Righteousness [split]
*Year: 2015
*Genre: Black Metal | Black Metal
*Country: Ukraine | United States
*Format: mp3@CBR320kbps
*Size: 64MB

Tracklist:
Vöedtæmhtëhactått:
01. The Kingdom Divided Into Three Bowl Of Grief 5:23
02. Prevent The Child's Christianization Insanity 4:10
03. Gleeful Life With Satan, Instead Of Thinking About God 4:10
04. For The Wages Of Sin Is Bliss 2:53
Maquahuitl:
05. Banner Of Blood And Sun 3:38
06. Forward With Hate 3:26
07. Esclavos De La Estrella Azul 3:11
08. The Great Betrayal 4:16
******************************
Total playing time: 31:07

Vöedtæmhtëhactått
Maquahuitl

[more=Technical info]
Input File: IV - For The Wages Of Sin Is Bliss.mp3
Channels : 2
Sample Rate : 44100
Precision : 16-bit
Duration : 00:02:53.98 = 7672298 samples = 13048.1 CDDA sectors
File Size : 6.96M
Bit Rate : 320k
Sample Encoding: MPEG audio (layer I, II or III)
Comments :
Title=For The Wages Of Sin Is Bliss
Artist=Voedtaemhtehactatt
Album=Without Veils Of Righteousness
Tracknumber=IV
Genre=Black Metal

[/more]

Register
(33) 1968_janeart, abob, andivi, artscald, Darkthronefoad, ddarkthrone, djsema4, Forrrrest, gemineye, Hell_Is_Here, kim666, Lanceatum, marilin, Moldavite, neoatheist, Ostinato, Raw1488, Razorbladeswaltz, rom666, Rosen, RUSP73, satanist666, SSBandera, TairaBlack, the_cleanser, tont, VALERY, varg-38ru, varlam4, vasiljev_sergej, wgs73, Антихрист, Спектр,
May 4 2015, 18:09:47 Luciferian Rites - When The Light Dies (2015)
Вполне интересно, под толстым налетом Sargeist.
(1) vosmidesijatye,
Mar 11 2015, 16:15:42 Aegrus - Devotion For The Devil (2015)
Восхитительно! Качественно, интересно.
(2) judaz, neoatheist,
Feb 27 2015, 16:58:10 Azaghal - Madon Sanat (2015)
Эта армагддовская ударка... настолько въелась уже 22.gif С каждым последующим альбомом все хуже, хуже, хуже. С приходом Niflungr'a, это две различные группы: до и после него.
Мне жаль что старый Azaghal умер.
(3) DarkHorde, EvilSurround, suseka,
Nov 29 2014, 17:35:34 Unhuman Disease - Glorification Of Satanas (2013)
Редкая муть, по сравнению с предыдущими.
(1) Forrrrest,
Oct 2 2014, 15:45:50 The Deathtrip - Deep Drone Master (2014)
Очень даже крепко. Вокал узнается сразу. Все круто.
(2) NachtWulf, vosmidesijatye,
Sep 4 2014, 14:53:24 Ancient Funeral Cult - Деяния Святых Апостолов (2014)
ЦИТАТА(Moonshtook @ Sep 4 2014, 13:59:04) *
Это которые с Тапком Геноцида сплит выпустили! pray.gif

Это настолько емкое и полное описание, что априори становится все ясно.
(3) Euthanasiast, Ironcast, Razorbladeswaltz,
Aug 22 2014, 08:57:49 Blood Of Kingu - Dark Star On The Right Horn Of The Crescent Moon (2014)
Превосходный шлак bye.gif
Jul 4 2014, 19:34:27 Forbidden Eye - Orthodox Path Of Worship (2012)
Да, все круто, только если бы мои глаза узрели вывеску Satanic Warmaster, Я бы без сомнений так и подумал. Аналогичное качество, аналогичная ударка, вокал на конц.
(1) Абигор,
Jun 29 2014, 10:21:17 Eshet Lot - Age Of Slaughter [demo] (2013)
ЦИТАТА
*Стиль: Raw Thrash Metal
*Страна: Israel

Чудно.
Иудеи про ударные забыли.
(1) Genuine Thrashiac,
Jun 12 2014, 06:40:46 Barshasketh - As Flesh Becomes Earth [demo] (2009)
Действительно здорово.
(1) Fess,
Jun 6 2014, 13:23:26 Ildverden - Де хмари плачуть... (2014)
Хватило 3 секунды, чтобы проникнуться материалом.
(1) mindeater,
May 27 2014, 19:34:11 Sigillum Diabolicum - Monotheisme: Le Grand Culte Mortifere (2014)
Шикарно. GBK напомнило.
(1) Forrrrest,
May 10 2014, 15:48:02 До Скону - Великое Пробуждение Среди Великого Сна (2014)
Переслушивать не буду.
(1) acerbus,

4 Pages V   1 2 3 > » 
- Lo-Fi Version Support form
Copyrights and abuse reports form
Time is now: 15th April 2024 - 16:22:07