Welcome Guest ( Log In | Register )

История благодарностей участнику rewa ::: Спасибо сказали: 3901 раз(а)
Дата поста: В теме: За сообщение: Спасибо сказали:
Oct 17 2019, 21:18:02 Profetus - The Sadness Of Time Passing (2019)


*Artist: Profetus
*Album: The Sadness Of Time Passing
*Year: 2019
*Genre: Funeral Doom Metal
*Country: Finland
*Format: mp3@CBR320kbps
*Size: 151MB

Tracklist:
1. The Sadness of Time Passing 14:33
2. Nostalgia 10:04
3. Momentary Burial 08:49
4. Northern Crown 15:15
5. Tiarnia 16:34
******************************
Total playing time: 1:05:15



[more=Extended info]Personal purchase.

One can undoubtedly say that Finland is the cradle of funeral doom metal.
From Thergothon and Skepticism to Tyranny and Shape Of Despair, the
land of the thousand lakes gave birth, shape and life to this sub-sub-genre so monolithic and impenetrable. Here at Avantgarde Music we know something about it, as Thergothon only studio album was our very first release, back in 1994, and now, a quarter of a century later we go back to the scene of the crime.
Profetus is definitely not a surprise for doom lovers, as the Tampere
collective led by guitarist and vocalist Anssi Mäkinen in thirteen years of
activity published one demo, two albums and one ep, all of which were
highly acclaimed by the followers of the funeral cult. The Sadness Of Time Passing is the third full-length studio album by the Finnish band, and is worth every single day of the five long years its creation took.
Profetus third studio album is a concept about time and mortality, a
collection of bleak compositions to raise the awareness that everything is transient, all is impermanent. To express such idea, The Sadness Of Time Passing can be linked to the Japanese concept "mono no aware", and such link to the far east is sealed by its cover. The painting by Yuka Yoshihara,
talented contemporary Japanese painter, was made using 19th century
colors and old Japanese painting techniques to resemble a Finnish
romantic, XVII century painting.
The Sadness Of Time Passing was composed along a five-year span, a
period which carried great personal losses for Mäkinen. Eventually,
Profetus locked the door of their own studio, a wooden lodge in the middle of the Finnish woods, and recorded the album as a whole during one week only, in early 2018. The studio, said to be haunted by the spirits of the woods, gave a natural sound to the recordings[/more]

[more=Technical info]
Input File: Profetus - The Sadness of Time Passing - 01 The Sadness of Time Passing.mp3
Channels : 2
Sample Rate : 44100
Precision : 16-bit
Duration : 00:14:34.11 = 38548031 samples = 65557.9 CDDA sectors
File Size : 35.1M
Bit Rate : 321k
Sample Encoding: MPEG audio (layer I, II or III)
Comments :
Title=The Sadness of Time Passing
Artist=Profetus
Album=The Sadness of Time Passing
Tracknumber=1
Year=2019

[/more]

Register
(46) Abrob, AHBAnep, ahp, andreikun, artscald, autumnwood, Beazth, BlackMirror, Bloodn Lord, Borderline1991, d0zer, doomTemplar, Doooomed, EpicDoomLord, Funeral Frost, gena, infiltrator, kauyumari, Kehl05, kolar666, Krosis, krotovich, KVRT, LEGION69, marilin, Mist13Signifier, Moonlover, obituarydark, OfDoom, older68, Olethros, paganheart, pothead, recber, Rosen, RUDACHUR, Sanctus, SatanicPanzer, Scorpi, sergsazan, Shadechaser, stub888, TeamatSE, thyrane, Tino, wtk.412,
Oct 16 2019, 17:33:59 Nurez - Sonnensterben (2019)


*Artist: Nurez
*Album: Sonnensterben
*Year: 2019
*Genre: Atmospheric Black Metal
*Country: Germany
*Format: mp3@CBR320kbps
*Size: 120MB

Tracklist:
1. Stille 08:49
2. Sonnensterben 12:58
3. Die Odyssee 11:08
4. Wyrd 08:33
5. Until the Warmth of Spring Shall Come Again 10:34
******************************
Total playing time: 52:02



[more=Extended info]Personal purchase

All Music is written,recorder,mixed and mastered by Moritz Paul
Guests:
Thorir Nyss: Saxophone
Freyja Herold: Clean Vocal (Die Odyssee)
Nada Al-Addours: Clean Vocal (Wyrd)
Philipp Sorger: Low Growls (Die Odyssee)
Tim Hull: Spoken World (UtWoSSCA)
Tudor Licurci: Spoken World (UtWoSSCA)[/more]

[more=Technical info]
Input File: Nurez - Sonnensterben - 01 Stille.mp3
Channels : 2
Sample Rate : 44100
Precision : 16-bit
Duration : 00:08:49.09 = 23332737 samples = 39681.5 CDDA sectors
File Size : 21.3M
Bit Rate : 322k
Sample Encoding: MPEG audio (layer I, II or III)
Comments :
Title=Stille
Artist=Nurez
Album=Sonnensterben
Tracknumber=1
Year=2019

[/more]

Register
(19) 1968_janeart, artscald, FuneralWolf, infiltrator, Kehl05, kim666, kimkayoung, multizwilling, Olethros, Ostinato, robertho777, Rosen, Rover, Sigue, SilentNidhogg, stub888, tim47, vasiljev_sergej, V_H_H_V,
Oct 16 2019, 17:29:22 A Flock Named Murder - An Appointed Time (2018)
Personal purchase

MP3 320CBR
Register
(1) as71,
Oct 16 2019, 17:17:01 Wampyric Rites - Reflections Of A Frostbitten Moon [demo] (2019)


*Artist: Wampyric Rites
*Album: Reflections Of A Frostbitten Moon [demo]
*Year: 2019
*Genre: Black Metal
*Country: Ecuador
*Format: mp3@CBR320kbps
*Size: 66MB

Tracklist:
1. I (Intro) 03:56
2. II (La Luna Llena De Invierno Corrompe Mi Alma) 05:00
3. III (El Melancólico Canto De Las Entidades Nocturnas) 05:28
4. IV (Orlok) 03:36
5. V (Morir Con Lealtad Y Honor) 03:20
6. VI (...En Las Catacumbas De La Miseria Y El Olvido) 03:44
7. VII (Outro) 02:35
******************************
Total playing time: 27:39



[more=Technical info]
Input File: Wampyric Rites - Reflections Of A Frostbitten Moon - 02 II (La Luna Llena De Invierno Corrompe Mi Alma).mp3
Channels : 2
Sample Rate : 44100
Precision : 16-bit
Duration : 00:05:00.09 = 13233749 samples = 22506.4 CDDA sectors
File Size : 12.1M
Bit Rate : 323k
Sample Encoding: MPEG audio (layer I, II or III)
Comments :
Title=II (La Luna Llena De Invierno Corrompe Mi Alma)
Artist=Wampyric Rites
Album=Reflections Of A Frostbitten Moon
Tracknumber=2
Year=2019

[/more]

Register
(15) 1968_janeart, ahp, artscald, craP_cillA, FUDEDOR, heinz88, infiltrator, kauyumari, kim666, Olethros, Rosen, SilentNidhogg, thenecromancer, vasiljev_sergej, vovenom,
Oct 11 2019, 04:53:45 Plateau Sigma - Symbols - The Sleeping Harmony Of The World Below (2019)


*Artist: Plateau Sigma
*Album: Symbols - The Sleeping Harmony Of The World Below
*Year: 2019
*Genre: Funeral Doom/Death Metal
*Country: Italy
*Format: mp3@CBR320kbps
*Size: 132MB

Tracklist:
1. Heterochromia 07:34
2. Ouija and the Qvantvm 08:12
3. A Parody of Medea 08:29
4. To Mnemosine's Bittersweet Fruit 02:49
5. The Moon Made Flesh 07:39
6. The White Virgin 04:06
7. She Kept the Sacred Fire Still 09:14
8. The Child and the Presence 08:02
******************************
Total playing time: 56:05



[more=Extended info]Personal purchase.

Symbols or The Sleeping Harmony of the World Below
“The imagination is not a state: it is the human existence itself”.
(William Blake)
Symbols are everywhere.
They drag their power from our imagination, weaving a web of secret correspondences between reality and the realm of ideas.
A realm, a world hidden just below the surface, where our deepest desires lie, sleeping.
Symbols represent beliefs, ideals and hopes. They are the insignia under which empires are born and die, gods are worshipped, revolutions explode, kings are consecrated or dethroned.
It has been almost ten years now.A journey which has brought us much further then we thought. We are grateful for everything we experienced along the road, but we feel it's just the beginning of greater things. Three times you've heard our voice before and this is the fourth act of our story.
In the past few years we took a break. We've been crafting sounds, hoping to find the perfect chimera made of our many influences.
We believe this album is that chimera.
These are songs about history, afterlife, revelations, sex, religion, science, magic, war, paradoxes, atoms, myths, dogmas, miracles and wonders.
As metal musicians, we believe it is our duty to inquire the darkest aspects of life, to capture a small hint of the pathos, the beauty and dread of existence.
To plunge into the shady waters of the World Below.
Nino
07/13/2019[/more]

[more=Technical info]
Input File: Plateau Sigma - Symbols - The Sleeping Harmony of the World Below - 01 Heterochromia.mp3
Channels : 2
Sample Rate : 44100
Precision : 16-bit
Duration : 00:07:34.14 = 20027442 samples = 34060.3 CDDA sectors
File Size : 18.3M
Bit Rate : 322k
Sample Encoding: MPEG audio (layer I, II or III)
Comments :
Title=Heterochromia
Artist=Plateau Sigma
Album=Symbols - The Sleeping Harmony of the World Below
Tracknumber=1
Year=2019

[/more]

Register
(35) AHBAnep, andreikun, artscald, autumnwood, Black Cat, chefo, cryptal, Dipsomaniac, doomTemplar, gena, Guns, infiltrator, infozahist, Irimias, Krosis, marilin, metala, Morgoth, nadin85, nikolay81, Old Vyaine, Olethros, Ostinato, pothead, robertho777, Rosen, sacredserenity, SatanicPanzer, sergsazan, Shadechaser, TAKATAEL, thenecromancer, tOmV, yuratroll, Герб,
Oct 7 2019, 21:31:04 Ultha - Belong [ep] (2019)


*Artist: Ultha
*Album: Belong [ep]
*Year: 2019
*Genre: Black Metal
*Country: Germany
*Format: mp3@CBR320kbps
*Size: 87MB

Tracklist:
1. no fire, only smoke 17:04
2. constructs of separation 21:07
******************************
Total playing time: 38:11



[more=Extended info]C - Bass, Vocals (ex-Goldust)
M - Drums (Atka, ex-Devil Ate My Son, End of Silence, ex-Cursed Life)
A - Electronics (Curbeaters, Ira, ex-Blindspot A.D.)
R - Guitars, Vocals (Curbeaters, ex-Planks, ex-Hellström)
R.C: - Guitars (2016-present) See also: Gorthaur's Wrath, Louis Cypher, Last One Dying, ex-Battlesword, ex-Critical Mass

ULTHA "belong" LP/CD/TAPE
vendetta records # 186[/more]

[more=Technical info]
Input File: 1 - No Fire Only Smoke.mp3
Channels : 2
Sample Rate : 44100
Precision : 16-bit
Duration : 00:17:04.50 = 45180450 samples = 76837.5 CDDA sectors
File Size : 41.0M
Bit Rate : 320k
Sample Encoding: MPEG audio (layer I, II or III)
Comments :
Title=No Fire Only Smoke
Artist=Ultha
Album=belong
Tracknumber=1
Year=2019
Genre=Alternative;Rock
Discnumber=1

[/more]

Register
(30) 1968_janeart, ahp, artscald, atavist, BandR75, Black Cat, cist, El_Chibo, Farung, garml2, infiltrator, kim666, lestllk, Moonlover, NachtWulf, Olethros, Ostinato, peppuzzo, randumbum, robertho777, Rosen, SilentNidhogg, stub888, system36, Tyrone, vasiljev_sergej, Winterkalte, Zash, Zenial, Zoloft,
Oct 4 2019, 19:40:19 Sibiir - Ropes (2019)


*Artist: Sibiir
*Album: Ropes
*Year: 2019
*Genre: Black Metal/Hardcore
*Country: Norway
*Format: mp3@CBR320kbps
*Size: 96MB

Tracklist:
1. Leeches 04:54
2. Worlds Apart 04:02
3. For The Few 03:06
4. A Trail Of Failed Attempts 04:44
5. Transparent Lives 04:03
6. The Silent Repent 04:11
7. Blurred Flickering Picture 06:02
8. Monoton 04:40
9. Old Patterns 05:34
******************************
Total playing time: 41:16



[more=Technical info]
Input File: 1 - Leeches.mp3
Channels : 2
Sample Rate : 44100
Precision : 16-bit
Duration : 00:04:54.94 = 13006766 samples = 22120.4 CDDA sectors
File Size : 12.0M
Bit Rate : 326k
Sample Encoding: MPEG audio (layer I, II or III)
Comments :
Title=Leeches
Artist=Sibiir
Album=Ropes
Tracknumber=1
Year=2019
Genre=Metal
Discnumber=1

[/more]

Register
(11) 0x13, artscald, atavist, cancer1974, nsk2008, Olethros, Ostinato, randumbum, Rosen, VALERY, vasiljev_sergej,
Oct 2 2019, 17:28:02 Ulvik - Volume One & Two [compilation] (2019)


*Artist: Ulvik
*Album: Volume One & Two [compilation]
*Year: 2019
*Genre: Atmospheric/Post Black Metal
*Country: Canada
*Format: mp3@CBR320kbps
*Size: 147MB

Tracklist:
1. V.I - Le poissonnier 02:30
2. V.I - Empress Løre 04:24
3. V.I - Borjein 04:35
4. V.I - Talons of time 03:14
5. V.I - Firstborn: Rønne 04:16
6. V.I - Snakes our emperors 05:42
7. V.I - Noirci mon sang 03:50
8. V.I - 1886 05:12
9. V.I - Light of other days II 04:48
10. V.II - They Are Near, Take Me Now And Leave My Bones Behind 04:45
11. V.II - Sunn 05:01
12. V.II - Landslides 02:06
13. V.II - Finna 03:55
14. V.II - Deesse 03:02
15. V.II - Our Children Are Ghosts 08:00
******************************
Total playing time: 1:05:20



[more=Extended info]Personal purchase.

Astonishing atmospheric, post rock / black metal mix from British Columbia (Canada) Artist ULVIK[/more]

[more=Technical info]
Input File: Ulvik - Volume One & Two - 01 V.I - Le poissonnier.mp3
Channels : 2
Sample Rate : 44100
Precision : 16-bit
Duration : 00:02:30.47 = 6635859 samples = 11285.5 CDDA sectors
File Size : 6.11M
Bit Rate : 325k
Sample Encoding: MPEG audio (layer I, II or III)
Comments :
Title=V.I - Le poissonnier
Artist=Ulvik
Album=Volume One & Two
Tracknumber=1
Year=2019

[/more]

Register
(12) 1968_janeart, artscald, infiltrator, kim666, Olethros, Ostinato, randumbum, robertho777, Rosen, VALERY, vasiljev_sergej, Волос,
Oct 1 2019, 19:15:31 Cataplexy & Miasma Death - The Goddess Ov Darkness And Sleep..../"孵/海" [split] (2019)


*Artist: Cataplexy & Miasma Death
*Album: The Goddess Ov Darkness And Sleep..../"孵/海" [split]
*Year: 2019
*Genre: Black Metal | Black Metal
*Country: Japan | Japan
*Format: mp3@CBR320kbps
*Size: 59MB

Tracklist:
Cataplexy:
1. Soul to the Legacy 05:58
2. Blaze, The Northern Flame... 07:07
Miasma Death:
3. 孵 -What sleeps in the shell- 05:31
4. 海 -Cherished under the blue- 07:10
******************************
Total playing time: 25:46



[more=Extended info]UNCHANGEABLENESS BLACK METAL SPLIT
The Melancholic Black Metal Band CATAPLEXY has been active since 1991, bring 2 new beautiful and attractive song with the melancholic melody for the first time in 7 years from the last album.
The new-comer / rising star Profound Black Metal Band MIASMA DEATH are making profund sound and a worldview by 2 dragging heavyness old school Black Metal sound. Both band engraving 4 songs to the black metal History.[/more]

[more=Technical info]
Input File: 1 - Soul to the Legacy.mp3
Channels : 2
Sample Rate : 44100
Precision : 16-bit
Duration : 00:05:58.97 = 15830489 samples = 26922.6 CDDA sectors
File Size : 14.4M
Bit Rate : 322k
Sample Encoding: MPEG audio (layer I, II or III)
Comments :
Title=Soul to the Legacy
Artist=Cataplexy
Album=Split
Tracknumber=1
Year=2019
Discnumber=1

[/more]

Register
(20) acerbus, artscald, Borderline1991, Fryz, FUDEDOR, gena, INDARKNESS, infiltrator, kim666, kimkayoung, marilin, MetalGavno, Mormo, randumbum, Rosen, SilentNidhogg, VALERY, vasiljev_sergej, Абигор, Авел,
Oct 1 2019, 18:01:05 Tulpa - Unhealed (2019)


*Artist: Tulpa
*Album: Unhealed
*Year: 2019
*Genre: D-Beat/Black Metal
*Country: Italy
*Format: mp3@CBR320kbps
*Size: 97MB

Tracklist:
1. Meet Us Where The Daylight Dies 05:17
2. Unhealed 02:38
3. Fear of Fades 04:31
4. The Melatonist 06:29
5. We Drown 03:22
6. Vultures Wait For Me To Die 03:38
7. Tulpa 03:57
8. Inner Kyosaku 01:37
9. Clinomaniac 02:21
10. S.O.U.R (Feat. L. Lokhraed) 03:40
11. Except One 04:44
******************************
Total playing time: 42:14



[more=Extended info]Andrea Artusi - Bass (Domina Noctis, Fog, Dunkel Nacht, Whiskey Ritual)
Kyoo Nam Rossi - Drums (Domina Noctis, Forgotten Tomb, Whiskey Ritual, Willow at Moon, Dunkel Nacht)
Alessandro Coletta - Vocals, Guitars (Exhaustus, Morbid Upheaval, Uncreation)
Matteo Cordani - Guitars (Mother Augusta, Surge Assault, Satan Imperii)[/more]

[more=Technical info]
Input File: 1 - Meet Us Where the Daylight Dies.mp3
Channels : 2
Sample Rate : 44100
Precision : 16-bit
Duration : 00:05:17.27 = 13991783 samples = 23795.5 CDDA sectors
File Size : 12.8M
Bit Rate : 322k
Sample Encoding: MPEG audio (layer I, II or III)
Comments :
Title=Meet Us Where the Daylight Dies
Artist=Tulpa
Album=Unhealed
Tracknumber=1
Year=2019
Genre=Metal
Discnumber=1

[/more]

Register
(16) 666kolobok666, artscald, atavist, BandR75, Foneg, infiltrator, lestllk, marilin, Olethros, Ostinato, robertho777, Rosen, VALERY, vasiljev_sergej, Волос, Герб,
Sep 30 2019, 16:33:07 Tulpa - Unhealed (2019)


*Artist: Tulpa
*Album: Unhealed
*Year: 2019
*Genre: D-Pabeat/Black Metal
*Country: Italy
*Format: mp3@CBR320kbps
*Size: 97MB

Tracklist:
1. Meet Us Where The Daylight Dies 05:17
2. Unhealed 02:38
3. Fear of Fades 04:31
4. The Melatonist 06:29
5. We Drown 03:22
6. Vultures Wait For Me To Die 03:38
7. Tulpa 03:57
8. Inner Kyosaku 01:37
9. Clinomaniac 02:21
10. S.O.U.R (Feat. L. Lokhraed) 03:40
11. Except One 04:44
******************************
Total playing time: 42:14



[more=Extended info]Andrea Artusi - Bass (Domina Noctis, Fog, Dunkel Nacht, Whiskey Ritual)
Kyoo Nam Rossi - Drums (Domina Noctis, Forgotten Tomb, Whiskey Ritual, Willow at Moon, Dunkel Nacht)
Alessandro Coletta - Vocals, Guitars (Exhaustus, Morbid Upheaval, Uncreation)
Matteo Cordani - Guitars (Mother Augusta, Surge Assault, Satan Imperii)[/more]

[more=Technical info]
Input File: 1 - Meet Us Where the Daylight Dies.mp3
Channels : 2
Sample Rate : 44100
Precision : 16-bit
Duration : 00:05:17.27 = 13991783 samples = 23795.5 CDDA sectors
File Size : 12.8M
Bit Rate : 322k
Sample Encoding: MPEG audio (layer I, II or III)
Comments :
Title=Meet Us Where the Daylight Dies
Artist=Tulpa
Album=Unhealed
Tracknumber=1
Year=2019
Genre=Metal
Discnumber=1

[/more]

Register
(1) artscald,
Sep 29 2019, 18:08:23 Ühtceare - Untitled Tape [compilation] (2019)
Не блэк. Электронщина.

Reworkings and remixes of unused electronic and noise tracks spawning all the way back to 2017
(1) thenecromancer,
Sep 28 2019, 20:09:37 Вампырь - Nightcurse [demo] (2019)


*Artist: Вампырь
*Album: Nightcurse [demo]
*Year: 2019
*Genre: Raw Black Metal
*Country: Ukraine
*Format: mp3@CBR320kbps
*Size: 73MB

Tracklist:
1. Fullmoon Asphyxia 05:06
2. Rotten Night 04:02
3. Black Plague Wings 05:27
4. Nightcurse 06:37
5. Burial (Outro) 03:20
6. Black As Lead And Death (Muliilation Cover) 05:23
******************************
Total playing time: 29:55



[more=Extended info]Personal purchase.

Raw Vampyric Black Metal from the UKRAINE.

Limited to 50 on red shell cassettes.
KV041[/more]

[more=Technical info]
Input File: ВАМПЫРЬ - Nightcurse - 01 FULLMOON ASPHYXIA.mp3
Channels : 2
Sample Rate : 44100
Precision : 16-bit
Duration : 00:05:06.20 = 13503332 samples = 22964.9 CDDA sectors
File Size : 12.4M
Bit Rate : 324k
Sample Encoding: MPEG audio (layer I, II or III)
Comments :
Title=FULLMOON ASPHYXIA
Artist=ВАМПЫРЬ
Album=Nightcurse
Tracknumber=1
Year=2019

[/more]

Register
(20) 1968_janeart, artscald, FUDEDOR, garmonbozia, infiltrator, kim666, Moonshtook, Olethros, randumbum, Razorbladeswaltz, Rosen, satanist666, sethurius, SilentNidhogg, terron, thenecromancer, varlam4, vasiljev_sergej, Velmi, wreak,
Sep 27 2019, 16:45:06 Renounced - Beauty Is A Destructive Angel (2019)


*Artist: Renounced
*Album: Beauty Is A Destructive Angel
*Year: 2019
*Genre: Metalcore
*Country: United Kingdom
*Format: mp3@CBR320kbps
*Size: 107MB

Tracklist:
1. Ghosts 01:45
2. Self Inflicted 04:22
3. In A Years Turning 04:28
4. Saltation 04:01
5. Calloused 03:13
6. Calculated Risk 05:14
7. The Rico Conspiracy 04:38
8. Torchbearer 03:33
9. General Population 04:39
10. Beauty Is A Destructive Angel 04:42
11. In A Statue Of Frozen Glass 05:21
******************************
Total playing time: 45:56



[more=Technical info]
Input File: 1 - Ghosts.mp3
Channels : 2
Sample Rate : 44100
Precision : 16-bit
Duration : 00:01:45.31 = 4643951 samples = 7897.88 CDDA sectors
File Size : 4.40M
Bit Rate : 334k
Sample Encoding: MPEG audio (layer I, II or III)
Comments :
Title=Ghosts
Artist=Renounced
Album=Beauty is a Destructive Angel
Tracknumber=1
Year=2019
Genre=Rock;Hard Rock;Metal
Discnumber=1

[/more]

Register
(8) artscald, Cheshire, chipsgott, DenisKov, Olethros, Rosen, wreak, zhol,
Sep 27 2019, 16:03:40 Maladie - ...Symptoms II... [ep] (2019)


*Artist: Maladie
*Album: ...Symptoms II... [ep]
*Year: 2019
*Genre: Progressive Black Metal
*Country: Germany
*Format: mp3@CBR320kbps
*Size: 80MB

Tracklist:
1. Vulnus - Drowning in Lethal Wounds 11:00
2. Abicere - Bleeding Scars 04:36
3. Discidium - The Return of Nothingness 14:43
4. 40 - rev. 1979 04:25
******************************
Total playing time: 34:44



[more=Extended info]Our new EP will be released on September 27th, 2019. You will find 4 songs. Once more very personal and emotional stuff. I don't want to leave too many words as the material will speak for itself. You will hear.

Total playing time about 34 minutes. This time we have a very special guest: Sophie Laporte – NeskÄ (After Life). She gives the Maladie a beautiful new ingredient. Be prepared![/more]

[more=Technical info]
Input File: 1 - Vulnus - Drowning in Lethal Wounds.mp3
Channels : 2
Sample Rate : 44100
Precision : 16-bit
Duration : 00:11:00.28 = 29118392 samples = 49521.1 CDDA sectors
File Size : 26.5M
Bit Rate : 321k
Sample Encoding: MPEG audio (layer I, II or III)
Comments :
Title=Vulnus - Drowning in Lethal Wounds
Artist=Maladie
Album=Symptoms II
Tracknumber=1
Year=2019
Genre=Metal
Discnumber=1

[/more]

Register
(16) 1968_janeart, AHBAnep, ahp, artscald, BandR75, cist, kimkayoung, lestllk, Morgoth, Olethros, robertho777, Rosen, VALERY, vasiljev_sergej, wreak, yuratroll,
Sep 27 2019, 07:38:56 Black Earth - Gnarled Ritual Of Self Annihilation (2019)


*Artist: Black Earth
*Album: Gnarled Ritual Of Self Annihilation
*Year: 2019
*Genre: Black Metal/Ritual Ambient/Drone
*Country: Spain
*Format: mp3@CBR320kbps
*Size: 102MB

Tracklist:
1. Doctrines of Disassociation 06:05
2. Abject Practices Beyond the Threshold 04:36
3. Behold the Serpent 06:37
4. The Sharp Blade That Mutilates the Void 04:09
5. Drowned Under Seas of Coagulation 10:27
6. Lurking Hounds Stagger in the Deep 09:01
7. The Mourning Waters Where Fire Never Dwells 04:07
******************************
Total playing time: 45:02



[more=Extended info]Spanish ritualistic horror industrial sorcerers Black Earth return with "Gnarled Ritual of Self Annihilation" - a sophomore full-length LP and third release overall of unreal cinematic sonic disembodiment, conceived with the aim of turning the listener into a sacrificial centerpiece to a surreal ritual nightmare. Following in the steps of their debut LP "A Cryptic Howl of Morbid Truth" and of their followup mini-album "Diagrams of a Hidden Order", on "Gnarled Ritual of Self Annihilation" Black Earth further refine and sharpen their horrific sonic blade, slicing through shadows and darkness with more skill and mastery than ever before to reveal a dimension beyond of incomprehensible ritual abandon. As Black Earth first weave and then slice and dissect their impenetrable veil, a sonic ritual of abject disfigurement begins to take shape before the listener, as the strokes and gashes of black metal, industrial, noise and ritual drone intersect erratically and hypnotically, painting an hallucinatory arabesque of absolute dread and deformity. As the album's wicked spires envelops them like a fog of snakes, the listener finds themselves immersed into an hallucinating aural delirium of complete disembodiment and self-implosion, in which they feel simultaneously out of body and helplessly trapped and crushed within themselves at the same time.

BLACK EARTH IS THE TRINITY OF
Alejandro Durán: analog noise, chains, screams.
Miguel A. García: electronics, keyboards, sound manipulations.
Alejandro Tedín: guitars, bass, synth, voices.

IN CONSPIRACY WITH
Unai Arrese: drums.
Txemi Artigas: bass.
Marta Sáinz: voices.
Miguel Souto: guitars, keyboards.
Mikel Vega: guitars.

ORCHESTRA
Jon Ázpiri: Strings.
Alexander Bruck: Viola.
Inazio Escudero: Strings.
Nick Hoffman: Voices.
Álvaro Matilla: Ravel.
Myriam Petralanda: Analog synth.
Alejandro Rojas: Harpsichord.
Fernando Ulzión: Alto sax.[/more]

[more=Technical info]
Input File: 1 - Doctrines of Dissociation.mp3
Channels : 2
Sample Rate : 44100
Precision : 16-bit
Duration : 00:06:05.71 = 16127723 samples = 27428.1 CDDA sectors
File Size : 14.7M
Bit Rate : 322k
Sample Encoding: MPEG audio (layer I, II or III)
Comments :
Title=Doctrines of Dissociation
Artist=Black Earth
Album=Gnarled Ritual of Self Annihilation
Tracknumber=1
Year=2019
Genre=Electro
Discnumber=1

[/more]

Register
(16) 0x13, 1968_janeart, ahp, artscald, Haunting, lestllk, Occultas, Olethros, Pinhead666, robertho777, Rosen, SilentNidhogg, stub888, Tyrone, vasiljev_sergej, wreak,
Sep 23 2019, 17:11:37 Olhava - Olhava (2019)


*Artist: Olhava
*Album: Olhava
*Year: 2019
*Genre: Post Black Metal
*Country: Russian Federation
*Format: mp3@CBR320kbps
*Size: 89MB

Tracklist:
1. Loyalty 15:19
2. Hope 25:12
******************************
Total playing time: 40:31



[more=Extended info]The album was recorded in several weeks over a period of two years between 2017 and 2019.[/more]

[more=Technical info]
Input File: Olhava - Olhava - 01 Loyalty.mp3
Channels : 2
Sample Rate : 44100
Precision : 16-bit
Duration : 00:15:19.82 = 40564194 samples = 68986.7 CDDA sectors
File Size : 32.0M
Bit Rate : 278k
Sample Encoding: MPEG audio (layer I, II or III)
Comments :
Title=Loyalty
Artist=Olhava
Album=Olhava
Tracknumber=1
Year=2019

[/more]

Register
(17) 1968_janeart, ahp, artscald, Aynekko, Druidir, infiltrator, kim666, Korpse, kryuger, Kwaad, lucifix, murian, Olethros, Rosen, satanist666, vasiljev_sergej, wreak,
Sep 20 2019, 21:00:32 Unfurl - The Waking Void (2019)


*Artist: Unfurl
*Album: The Waking Void
*Year: 2019
*Genre: Blackened Sludge/Post-Hardcore
*Country: United States
*Format: mp3@CBR320kbps
*Size: 112MB

Tracklist:
1. Ancestral Spirit 02:15
2. Ritual of Fire 02:56
3. Null 01:18
4. Post-Modern Prometheus 07:09
5. Void 00:23
6. Withering Aeons 03:20 video
7. Black Widow Hourglass 04:30
8. Lazarus Reflex 07:56
9. Begrudging Lucidity 07:36
10. Guest of the Cavern/Mind Altar 01:45
11. Blue Rose 08:45
******************************
Total playing time: 47:53





[more=Extended info]Recorded with Matt Very(Code Orange, Slaves BC, Heartless) “The Waking Void” is the full realization of potential within Unfurl. No longer resting on the post-metal/hardcore sludge laurels of their 2016 demo album “Deathbed”. The quartet now unleash a sound that pulls equally from the extremes of hardcore influenced grinding death metal, all to more constrained counterpoints of shoegaze, post-hardcore, and progressive psychedelic rock. The interlude sections were tracked to analog cassette tape creating a ‘silver sound’ that ties the songs together and bookends the record. Every aspect of this album was directed by the band themselves. This is Unfurl firing on all cylinders through 48 minutes of methodical, beautiful, chaos magick. Null of Time, Void of Space. Go within…[/more]

[more=Technical info]
Input File: 2 - Ritual of Fire.mp3
Channels : 2
Sample Rate : 44100
Precision : 16-bit
Duration : 00:02:56.47 = 7782151 samples = 13235 CDDA sectors
File Size : 7.24M
Bit Rate : 328k
Sample Encoding: MPEG audio (layer I, II or III)
Comments :
Title=Ritual of Fire
Artist=Unfurl
Album=The Waking Void
Tracknumber=2
Year=2019
Genre=Metal
Discnumber=1

[/more]

Register
(16) ahp, artscald, Doooomed, Hell_Is_Here, infiltrator, ingram, Kalnasra, metala, Olethros, Ostinato, Rosen, scrollbar, spiritualdecay666, uncolored, VALERY, wreak,
Sep 14 2019, 21:05:44 Ramihrdus - Midsummer's Twilight (2019)


*Artist: Ramihrdus
*Album: Midsummer's Twilight
*Year: 2019
*Genre: Atmospheric Black Metal
*Country: United States
*Format: mp3@CBR320kbps
*Size: 103MB

Tracklist:
1. Mistress Of The Frigid Night 05:22
2. The Forest Will Weep 06:41
3. Red Embers 08:11
4. Midnight In Autumn 05:26
5. Yunalesca's Moon 07:28
6. Springtime In The Valley 06:55
7. Midsummer's Twilight 04:32
******************************
Total playing time: 44:35



[more=Extended info]Recorded from February 2019 - August 2019, Midsummer's Twilight is a sorrow-laden reflection of love through the seasons and how the world treats the natural world and our ever-dwindling resources.

All songs written, performed, and mixed by Bryce Witt
Album photos taken by William Mason
Backing vocals performed by Madelyn Mason and Rick Sowl[/more]

[more=Technical info]
Input File: 02_Ramihrdus_-_The_Forest_Will_Weep.mp3
Channels : 2
Sample Rate : 44100
Precision : 16-bit
Duration : 00:06:41.33 = 17698609 samples = 30099.7 CDDA sectors
File Size : 16.3M
Bit Rate : 325k
Sample Encoding: MPEG audio (layer I, II or III)
Comments :
Title=The Forest Will Weep
Artist=Ramihrdus
Album=Midsummer's Twilight
Tracknumber=2
Year=2019

[/more]

Register
(25) 1968_janeart, alikkon, artscald, Femto, infiltrator, Kalnasra, kim666, Korpse, krotovich, metala, metalwoman, older68, Olethros, Ostinato, robertho777, Rosen, Rover, Sanctus, SilentNidhogg, stub888, TeamatSE, VALERY, vasiljev_sergej, wreak, Герб,
Sep 14 2019, 15:58:14 Flagellant & Orcivus - Split Album [split] (2019)


*Artist: Flagellant & Orcivus
*Album: Split Album [split]
*Year: 2019
*Genre: Black Metal | Black Metal
*Country: Sweden | Sweden
*Format: mp3@CBR320kbps
*Size: 86MB

Tracklist:
Flagellant:
1. Barbarous Names Of Evocation 05:03
2. Globus Cruciger 05:54
3. The Fires Are Lit 05:20
4. Ten Spheres 05:35
Orcivus:
5. Monumental Ending 03:40
6. Breaking The Seals 03:17
7. Black Sun Of Illumination 03:00
8. Tattered Beliefs 05:21
******************************
Total playing time: 37:10



[more=Extended info]Some time ago the final pieces were laid for the collaboration between Orcivus and Flagellant, resulting in a split release, that we hereby proudly present.

Following a period of silence since 2010, ORCIVUS return in force in unholy collaboration with countrymen FLAGELLANT, whom now follow up on the sophomore album Maledictum released in 2013.

This split album features four new tracks per band, with a total playtime of 37 minutes with art through the genius hands of Karmazid.[/more]

[more=Technical info]
Input File: 1 - Barbarous Names of Evocation.mp3
Channels : 2
Sample Rate : 44100
Precision : 16-bit
Duration : 00:05:03.59 = 13388099 samples = 22768.9 CDDA sectors
File Size : 12.3M
Bit Rate : 323k
Sample Encoding: MPEG audio (layer I, II or III)
Comments :
Title=Barbarous Names of Evocation
Artist=Flagellant
Album=Split Album
Tracknumber=1
Year=2019
Genre=Alternative;Indie Rock;Metal
Discnumber=1

[/more]

Register
(31) 1968_janeart, andivi, arkaik, artscald, Boozer, Dirt_ORFEY, El_Chibo, Hell_Is_Here, Ildjarn, kim666, Lanceatum, lestllk, Mortuusinfernus, murian, NachtWulf, nemx, Ostinato, Razorbladeswaltz, robertho777, Rosen, satanist666, SilentNidhogg, Sjelekval, stub888, undeadlich, VALERY, vasiljev_sergej, Vidder242, wreak, wtk.412, yuratroll,
Sep 13 2019, 16:50:41 Winterfylleth - Winterfylleth - The Siege Of Mercia: Live At Bloodstock 2017 [live] (2019)


*Artist: Winterfylleth
*Album: Winterfylleth - The Siege Of Mercia: Live At Bloodstock 2017 [live]
*Year: 2019
*Genre: Atmospheric Black/Pagan Metal
*Country: United Kingdom
*Format: mp3@CBR320kbps
*Size: 113MB

Tracklist:
1. The Solitary One Waits For Grace: The Wayfarer Pt. 1 (Live) 07:39
2. The Swart Raven (Live) 08:06 video
3. Whisper Of The Elements (Live) 07:42
4. A Valley Thick With Oaks (Live) 08:08
5. Defending The Realm (Live) 07:01
6. Children Of The Stones (Exclusive Synth Version 2019) 10:12
******************************
Total playing time: 48:48



[more=Extended info]Recorded Live at Bloodstock Festival 2017[/more]

[more=Technical info]
Input File: 1 - The Solitary One Waits For Grace (Live At Bloodstock, UK, 2017 _ The Wayfarer, Pt. 1).mp3
Channels : 2
Sample Rate : 44100
Precision : 16-bit
Duration : 00:07:39.50 = 20263774 samples = 34462.2 CDDA sectors
File Size : 18.5M
Bit Rate : 323k
Sample Encoding: MPEG audio (layer I, II or III)
Comments :
Title=The Solitary One Waits For Grace (Live At Bloodstock, UK, 2017 / The Wayfarer, Pt. 1)
Artist=Winterfylleth
Album=The Siege Of Mercia: Live At Bloodstock 2017
Tracknumber=1
Year=2019
Genre=9
Discnumber=1

[/more]

Register
(18) 1968_janeart, ahp, artscald, fabriziomagno, fallen, kooongg, LEGION69, Olethros, Ostinato, Reverend, Rosen, thenecromancer, uk82, VALERY, varlam4, vasiljev_sergej, wreak, Zenial,
Sep 13 2019, 16:26:54 Kostnatění - Hrůza Zvítězí (2019)


*Artist: Kostnatění
*Album: Hrůza Zvítězí
*Year: 2019
*Genre: Black Metal
*Country: United States
*Format: mp3@CBR320kbps
*Size: 98MB

Tracklist:
1. Hrůza zvítězí 11:28
2. Jedna generace 06:34
3. Každé zranění předurčeno 06:38
4. Únik z existence 03:51
5. Donekonečna v přítomném čase 09:25
******************************
Total playing time: 37:56



[more=Extended info]Thanks to Daale.

HRŮZA ZVÍTĚZÍ ("horror will prevail") has been created as a monument to death. Not a fantastical death with promises something beyond this world, but the cessation of being which looms at the end of all lives. As I wrote the songs which became HRŮZA ZVÍTĚZÍ, I was obsessed by my own death, constantly fighting off panic attacks relating to dying, and living in a constant suffocating dread. Every section was written with the explicit goal of conveying this dread, while also pushing my own limits as an artist. Retrospectively, I believe this album to have been meditative and liberating for me: much of the anxiety that once plagued me is now enshrined here, forever.

KOSTNATĚNÍ is written, recorded, and mixed by D.L.

Abe Plaut - Trumpet on "Hrůza zvítězí"
S.H. - Noise on "Donekonečna v přítomném čase"
Jacob Buczarski - Drum programming, mixing, mastering
Frank Heiler - Artwork

Thanks to:

Andrew Lee
Markov Soroka
Mystískaos
The RIM
Serpent Column
TapeKvlt[/more]

[more=Technical info]
Input File: Kostnatění - Hrůza zvítězí - 01 Hrůza zvítězí.mp3
Channels : 2
Sample Rate : 44100
Precision : 16-bit
Duration : 00:11:28.13 = 30346489 samples = 51609.7 CDDA sectors
File Size : 27.7M
Bit Rate : 322k
Sample Encoding: MPEG audio (layer I, II or III)
Comments :
Title=Hrůza zvítězí
Artist=Kostnatění
Album=Hrůza zvítězí
Tracknumber=1
Year=2019

[/more]

Register
(35) 1968_janeart, ahp, alikkon, artscald, atavist, CryptOn, dasreichss, djsema4, Dmitry1977, Doooomed, Fess, Hell_Is_Here, HviteGuden, Infidel, judaz, kim666, lestllk, luxxul, MEmethuselah, nadin85, NOMIDIMON, Olethros, Ostinato, robertho777, Rosen, Rover, SilentNidhogg, stub888, toly1917, VALERY, vasiljev_sergej, Vidder242, wreak, yuratroll, дивин,
Sep 13 2019, 05:31:40 Dold Vorde Ens Navn - Gjengangere I Hjertets Mørke [ep] (2019)


*Artist: Dold Vorde Ens Navn
*Album: Gjengangere I Hjertets Mørke [ep]
*Year: 2019
*Genre: Black Metal
*Country: Norway
*Format: mp3@CBR320kbps
*Size: 46MB

Tracklist:
01. Den Ensomme Død
02. Drukkenskapens Kirkegård
03. Vitnesbyrd
04. Blodets Hvisken
******************************
Total playing time: 20:46

Preview 1


[more=Extended info]The Oslo breed featuring Håvard Jørgensen (aka Haavard and Lemarchand, co-founding member of Satyricon and early Ulver member), Vicotnik (Dødheimsgard, Ved Buens Ende), Cerberus (ex- Dødheimsgard) and Myrvoll (Nidingr) has risen to bring forth a fresh and unique Norwegian Black Metal sound often reminding of the early nineties and its purity.[/more]

[more=Technical info]
Input File: 1 - Den Ensomme Død.mp3
Channels : 2
Sample Rate : 44100
Precision : 16-bit
Duration : 00:05:46.93 = 15299393 samples = 26019.4 CDDA sectors
File Size : 13.9M
Bit Rate : 321k
Sample Encoding: MPEG audio (layer I, II or III)
Comments :
Title=Den Ensomme Død
Artist=Dold Vorde Ens Navn
Album=Gjengangere i hjertets mørke
Tracknumber=1
Year=2019
Genre=Rock;Hard Rock;Metal
Discnumber=1

[/more]

Register
(33) artscald, cancer1974, DarkHorde, doomTemplar, dromord, garml2, garmonbozia, Hell_Is_Here, Kazoth, nsk2008, obituarydark, Olethros, Ostinato, peppuzzo, robertho777, Rosen, RUSP73, Shadechaser, SilentNidhogg, SortVokter, stub888, SyncestrA, Taragorm, targonium, thenecromancer, tim47, undeadlich, VALERY, vasiljev_sergej, wreak, yuratroll, ZA670, Нигилист,
Sep 12 2019, 16:45:34 Sur Austru - Meteahna Timpurilor (2019)


*Artist: Sur Austru
*Album: Meteahna Timpurilor
*Year: 2019
*Genre: Atmospheric Folk/Black Metal
*Country: Romania
*Format: mp3@CBR320kbps
*Size: 121MB

Tracklist:
1. De dincolo de munte 05:59
2. Puhoaielor 06:40
3. Mistuind 05:29
4. Bradul cerbului 06:09
5. Jale 03:29
6. Dor Austru 11:14
7. In timp vernal 05:34
8. Jabracie 07:34
******************************
Total playing time: 52:08



[more=Extended info]Personal purchase.

Ovidiu Corodan Bass
See also: Grimegod, ex-Negură Bunget
Nadaban Sergiu Drums
Ionut Cadariu Flute
Mihai Florea Guitars
See also: Grimegod, Wisdom's Funeral
Petrică Ionuţescu Traditional Instruments
See also: ex-Negură Bunget, ex-Din Brad (live)
Tibor Kati Vocals, Guitars, Keyboards
See also: Grimegod, Indefiance, ex-Negură Bunget, Feralia, ex-Din Brad (live)
Stefan Zaharescu Vocals, Percussion, Toacă
See also: MG42, ex-Clitgore, ex-DinUmbră, ex-Kistvaen, ex-Sincarnate, ex-Negură Bunget[/more]

[more=Technical info]
Input File: Sur Austru - Meteahna Timpurilor - 01 De Dincolo de munte.mp3
Channels : 2
Sample Rate : 44100
Precision : 16-bit
Duration : 00:05:59.10 = 15836266 samples = 26932.4 CDDA sectors
File Size : 14.5M
Bit Rate : 323k
Sample Encoding: MPEG audio (layer I, II or III)
Comments :
Title=De Dincolo de munte
Artist=Sur Austru
Album=Meteahna Timpurilor
Tracknumber=1
Year=2019

[/more]

Register
(32) 1968_janeart, alikkon, artscald, blacky66, Cartman223, craP_cillA, DerWaldganger, Doomchild, Druidir, garml2, Ildjarn, infiltrator, Irimias, metalwoman, Mogozoz, Morgoth, NappyRob, nikolay81, Old Vyaine, oldvarg, Olethros, Rosen, RUDACHUR, Samaritianin, sarcophagus, Shadechaser, squall8fr, Thiarnan, VALERY, vasiljev_sergej, wreak, yuratroll,
Sep 10 2019, 19:30:57 The Ember, The Ash - Consciousness Torn From The Void (2019)
FLAC 420Mb
Register
(3) gav-gafi, infiltrator, Wizard_in_Black,

9 Pages V   1 2 3 > » 
- Lo-Fi Version Support form
Copyrights and abuse reports form
Time is now: 20th October 2019 - 02:32:02