Welcome Guest ( Log In | Register )

История благодарностей участнику rewa ::: Спасибо сказали: 2771 раз(а)
Дата поста: В теме: За сообщение: Спасибо сказали:
Today, 10:32:07 Kêres - Ice, Vapor And Crooked Arrows (2019)


*Artist: Kêres
*Album: Ice, Vapor And Crooked Arrows
*Year: 2019
*Genre: Black Metal
*Country: Finland
*Format: mp3@CBR320kbps
*Size: 102MB

Tracklist:
1. Dream of Clouds 06:16
2. The Sleeping Master 03:16
3. At the Arch of Victories 06:03
4. Grail Dance 04:33
5. Into the Underworld 05:31
6. Moon Guide 05:25
7. instrumental 02:32
8. The Tall Ones 03:46
9. Sleepers Below 04:57
******************************
Total playing time: 42:19



[more=Technical info]
Input File: 01 Dream of Clouds.mp3
Channels : 2
Sample Rate : 44100
Precision : 16-bit
Duration : 00:06:16.08 = 16585216 samples = 28206.1 CDDA sectors
File Size : 15.9M
Bit Rate : 338k
Sample Encoding: MPEG audio (layer I, II or III)
Comments :
Title=Dream of Clouds
Artist=KERES
Album=Ice, Vapor and Crooked Arrows
Tracknumber=1
Year=2019
Genre=Black Metal

[/more]

Register
(19) acerbus, ambre, Brann, Forest Silence, FUDEDOR, gena, infiltrator, judaz, kim666, lucifix, mondblut, Moonshtook, Ostinato, Skog1349, stub888, tim47, Winter Funeral, xska, Абигор,
Aug 20 2019, 09:32:37 Blosse - Loin [ep] (2019)


*Artist: Blosse
*Album: Loin [ep]
*Year: 2019
*Genre: Atmospheric Black Metal
*Country: Canada
*Format: mp3@CBR320kbps
*Size: 94MB

Tracklist:
1. Chapitre I 15:26
2. Chapitre II 04:22
3. Chapitre III 19:55
******************************
Total playing time: 39:43



[more=Extended info]Personal purchase[/more]

[more=Technical info]
Input File: BLOSSE - Loin -EP- - 01 Chapitre I.mp3
Channels : 2
Sample Rate : 44100
Precision : 16-bit
Duration : 00:15:26.12 = 40841804 samples = 69458.9 CDDA sectors
File Size : 37.1M
Bit Rate : 320k
Sample Encoding: MPEG audio (layer I, II or III)
Comments :
Title=Chapitre I
Artist=BLOSSE
Album=Loin [EP]
Tracknumber=1
Year=2019

[/more]

Register
(12) 1968_janeart, artscald, Doooomed, Evilded, kim666, Olethros, Ostinato, robertho777, Rosen, stub888, VALERY, vasiljev_sergej,
Aug 17 2019, 21:10:58 Pijn & Conjurer - Curse These Metal Hands [collaboration] (2019)


*Artist: Pijn & Conjurer
*Album: Curse These Metal Hands [collaboration]
*Year: 2019
*Genre: Atmospheric Sludge/Post Metal | Atmospheric Sludge/Post Metal
*Country: United Kingdom | United Kingdom
*Format: mp3@CBR320kbps
*Size: 71MB

Tracklist:
1. High Spirits 09:12
2. The Pall 08:52
3. Endeavour 02:21
4. Sunday 10:16
******************************
Total playing time: 30:41



[more=Technical info]
Input File: 1 - High Spirits.mp3
Channels : 2
Sample Rate : 44100
Precision : 16-bit
Duration : 00:09:13.04 = 24389152 samples = 41478.1 CDDA sectors
File Size : 22.2M
Bit Rate : 321k
Sample Encoding: MPEG audio (layer I, II or III)
Comments :
Title=High Spirits
Artist=Pijn;Conjurer
Album=Curse These Metal Hands
Tracknumber=1
Year=2019
Genre=Metal
Discnumber=1

[/more]

Register
(6) artscald, gena, infiltrator, Olethros, Ostinato, Rosen,
Aug 15 2019, 21:59:08 Deadspace - The Grand Disillusionment (2019)
Продолжение Dirge. То есть вроде и норм, а на деле отвратительно, если любить ранние релизы. Да тот же миник Libido Dominandi за этот год круче данного полноформата
(1) sok,
Aug 10 2019, 15:11:54 Eclipse - Demo 1 [demo] (1993)


*Artist: Eclipse
*Album: Demo 1 [demo]
*Year: 1993
*Genre: Raw Black Metal
*Country: Netherlands
*Format: mp3@CBR320kbps
*Size: 69MB

Tracklist:
1. Ode to autumn winds 04:17
2. Awaiting the downfall 07:09
3. Equinox 04:47
4. Gloria Inferni 03:30
5. A fullmoon confession of hate 05:29
6. Untitled 04:05
******************************
Total playing time: 29:17



[more=Extended info]Recorded in august '93 on a 4 track recorded by Maurice (Gnaw Their Tongues, Cloak of Altering, De Magia Veterum, Golden Ashes). Digitised from a warbly tape august 2019. All drums and keyboard sounds are from a cheap GEM keyboard which had drum pads. Its all pretty rough en sloppy. These are more ideas and sketches than actual songs. Much of these ideas later on became ASTRAL songs. Nice little tape from the archives. Very nineties sounding imo.[/more]

[more=Technical info]
Input File: Eclipse - demo 1 \'93 - 01 Ode to autumn winds.mp3
Channels : 2
Sample Rate : 44100
Precision : 16-bit
Duration : 00:04:17.58 = 11359322 samples = 19318.6 CDDA sectors
File Size : 10.4M
Bit Rate : 323k
Sample Encoding: MPEG audio (layer I, II or III)
Comments :
Title=Ode to autumn winds
Artist=Eclipse
Album=demo 1 '93
Tracknumber=1
Year=2019

[/more]

Register
(15) 1968_janeart, Aparo, artscald, craP_cillA, FUDEDOR, kim666, Olethros, Ostinato, Rosen, SilentNidhogg, stub888, stumpheavyrock, Svafrlami, thenecromancer, vasiljev_sergej,
Aug 9 2019, 18:14:12 Iku-Turso - Storm Over Isengard [ep] (2019)
Personal purchase
MP3CBR(320) 54Mb
Register
(8) ahp, infiltrator, laTERNentrager, Oath19, Razorbladeswaltz, stub888, Velmi, Сварог Барг,
Aug 9 2019, 18:06:57 Oneiric Eclipse - Oneiric Eclipse (2019)


*Artist: Oneiric Eclipse
*Album: Oneiric Eclipse
*Year: 2019
*Genre: Atmospheric Black Metal
*Country: United States
*Format: mp3@CBR320kbps
*Size: 86MB

Tracklist:
1. Amongst The Tombs Of The Ethereal 12:29
2. Beholding The Flame Of Ancestral Antiquity 07:04
3. A Venture Better Left Untold And Unknown 11:50
4. Marching Through The Ornate Halls Of The Baleful Manor 06:12
******************************
Total playing time: 37:35



[more=Extended info]Personal purchase.[/more]

[more=Technical info]
Input File: Oneiric Eclipse - Oneiric Eclipse - 01 Amongst The Tombs Of The Ethereal.mp3
Channels : 2
Sample Rate : 44100
Precision : 16-bit
Duration : 00:12:29.36 = 33046908 samples = 56202.2 CDDA sectors
File Size : 30.1M
Bit Rate : 321k
Sample Encoding: MPEG audio (layer I, II or III)
Comments :
Title=Amongst The Tombs Of The Ethereal
Artist=Oneiric Eclipse
Album=Oneiric Eclipse
Tracknumber=1
Year=2019

[/more]

Register
(19) ahp, alexxxandrougs, artscald, blacky66, Doooomed, infiltrator, kim666, Krosis, murian, Olethros, Ostinato, robertho777, Rosen, SilentNidhogg, stub888, TAKATAEL, tim47, VALERY, vasiljev_sergej,
Aug 8 2019, 10:08:03 Useless - Fall Into Extinction (2019)


*Artist: Useless
*Album: Fall Into Extinction
*Year: 2019
*Genre: Black Metal
*Country: Poland
*Format: mp3@CBR320kbps
*Size: 90MB

Tracklist:
1. Endless Torment 03:03
2. Fall into Extinction 12:35
3. Chalice of Tears 06:45
4. Descend into Oblivion 07:11
5. Howls of Despair 08:33
******************************
Total playing time: 38:07




[more=Technical info]
Input File: 02. Fall into Extinction.mp3
Channels : 2
Sample Rate : 44100
Precision : 16-bit
Duration : 00:12:34.75 = 33284255 samples = 56605.9 CDDA sectors
File Size : 30.7M
Bit Rate : 326k
Sample Encoding: MPEG audio (layer I, II or III)
Comments :
Title=Fall into Extinction
Artist=Useless
Album=Fall into Extinction
Tracknumber=02
Year=2019

[/more]

Register
(24) 1968_janeart, Antizeoi, artscald, atavist, Hefir, infiltrator, judaz, Kehl05, kim666, Krosis, MMMMM, Olethros, Ostinato, robertho777, Rosen, sandr666, scorpionmk, sethurius, SilentNidhogg, Tarkron, VALERY, vasiljev_sergej, wtk.412, Волос,
Aug 4 2019, 10:50:15 Dayum - Ghost Of Sparta (2019)


*Artist: Dayum
*Album: Ghost Of Sparta
*Year: 2019
*Genre: Deathcore/Technical Death Metal
*Country: Austria
*Format: mp3@CBR320kbps
*Size: 98MB

Tracklist:
1. Introduction 02:59
2. Ghost of Sparta 04:23
3. Pegasus 04:04
4. Downfall of Gaia 01:07
5. Icarus 05:42
6. Challenge of Poseidon 04:08
7. Desert of Lost Souls 05:08
8. Hermes 04:38
9. Prometheus 06:34
10. Challenge of Poseidon 8bit 03:34
******************************
Total playing time: 42:17



[more=Technical info]
Input File: 1 - Introduction.mp3
Channels : 2
Sample Rate : 44100
Precision : 16-bit
Duration : 00:02:59.26 = 7905454 samples = 13444.6 CDDA sectors
File Size : 7.31M
Bit Rate : 326k
Sample Encoding: MPEG audio (layer I, II or III)
Comments :
Title=Introduction
Artist=DAYUM
Album=Ghost of Sparta
Tracknumber=1
Year=2019
Genre=Alternative
Discnumber=1

[/more]

Register
(21) andreylogan, artscald, atavist, BapeHuk, caro, cenzored, dalek, Druidir, infiltrator, Korpse, Metalass, older68, Olethros, Ostinato, Rosen, Strid, toly1917, Typhoid, VALERY, vyacheslav, Луч,
Aug 3 2019, 05:33:14 Fallen Forest - Demo II [demo] (2019)


*Artist: Fallen Forest
*Album: Demo II [demo]
*Year: 2019
*Genre: Raw Black Metal
*Country: Finland
*Format: mp3@CBR320kbps
*Size: 39MB

Tracklist:
1. Hymn of Medieval Storms 01:20
2. Stars in the Sky 04:50
3. Calling To the Wind 05:46
4. Spirit of Medieval Storms 03:41
******************************
Total playing time: 15:37



[more=Extended info]Lost Armor Records[/more]

[more=Technical info]
Input File: Fallen Forest - Demo II - 01 Hymn of Medieval Storms.mp3
Channels : 2
Sample Rate : 44100
Precision : 16-bit
Duration : 00:01:20.33 = 3542553 samples = 6024.75 CDDA sectors
File Size : 3.40M
Bit Rate : 339k
Sample Encoding: MPEG audio (layer I, II or III)
Comments :
Title=Hymn of Medieval Storms
Artist=Fallen Forest
Album=Demo II
Tracknumber=1
Year=2019

[/more]

Register
(13) 1968_janeart, artscald, Evilded, infiltrator, kim666, nemx, Olethros, Ostinato, rimfrost, Rosen, SilentNidhogg, stub888, vasiljev_sergej,
Aug 2 2019, 11:39:05 Mylingar - Döda Själar (2019)


*Artist: Mylingar
*Album: Döda Själar
*Year: 2019
*Genre: Black/Death Metal
*Country: Sweden
*Format: mp3@CBR320kbps
*Size: 98MB

Tracklist:
1. Obalansen 04:55
2. Nedstigningen 05:08
3. Offret 04:44
4. Bländningen 05:36
5. Mållösheten 04:37
6. Giftet 05:15
7. Förlusten 10:15
******************************
Total playing time: 40:30



[more=Technical info]
Input File: Mylingar - Döda Själar - 01 Obalansen.mp3
Channels : 2
Sample Rate : 44100
Precision : 16-bit
Duration : 00:04:56.04 = 13055144 samples = 22202.6 CDDA sectors
File Size : 12.0M
Bit Rate : 325k
Sample Encoding: MPEG audio (layer I, II or III)
Comments :
Title=Obalansen
Artist=Mylingar
Album=Döda Själar
Tracknumber=1
Year=2019

[/more]

Register
(32) artscald, atavist, Beazth, Bolitho, BrutalAsFuck, cesar, cist, dalek, Dmitry1977, laTERNentrager, lestllk, marilin, Marshall, MMMMM, nemx, nord6666, Occultas, Olethros, Ostinato, ripper33, Rosen, SilentNidhogg, skeletron215, stumpheavyrock, tim47, Tino, VALERY, vasiljev_sergej, vyacheslav, Wizard_in_Black, xska, zhol,
Jul 25 2019, 04:40:42 Curse Of Denial - Coming For Your Soul (2019)
По воспоминаниям их первый полноформат был крутым. Но техникала ни там, ни здесь нет. Блэкенед-дэт - да.
(1) Foneg,
Jul 14 2019, 01:10:11 Kapala - Termination Apex [ep] (2019)


*Artist: Kapala
*Album: Termination Apex [ep]
*Year: 2019
*Genre: Death/Black Metal
*Country: India
*Format: mp3@CBR320kbps
*Size: 55MB

Tracklist:
1. The Beating Heart Of War (Intro) 02:39
2. Martial Dominance 04:32
3. Moral Attrition 04:45
4. Paths Of Ash 05:29
5. Vomit The Phosphorus 05:26
6. Unto Ash (Outro) 02:10
******************************
Total playing time: 25:01



[more=Extended info]DUNKELHEIT PRODUKTIONEN is proud to present the highly anticipated second EP from Indian warfare noise terrorists KAPALA, Termination Apex, on CD, 12" vinyl, and cassette tape formats.

Formed in the depths of Kolkata, KAPALA have had one - and only one - objective since its formation: to play the most intense and bestial musick and annihilate the cesspool. Inspired by such legends such as Goatpenis, Revenge, Black Witchery, Blasphemy, Conqueror, and many other violent entities, KAPALA seek to wage total sonic warfare with a strong obsession for the concept of "Survival of the Fittest." And indeed, they accomplished that in a swift 'n' decisive 20 minutes comprising their first public recording, Infest Cesspool, which was released in 2017 by DUNKELHEIT to worldwide shock & awe.

Now, with the aptly titled Termination Apex, KAPALA eclipse that feat with an even-more-savage and challenging onslaught that spans a densely uncompromising 26 minutes. Like its equally swift predecessor, Termination Apex displays the power-trio of KAPALA more as a three-man war machine: indeed, their aim is to crush, kill, and destroy all in their path with overwhelming violence and totally OTT intensity. Their arsenal of shredded decibels is even more bountiful here, as each riff and drum hit becomes its own weapon, stockpiled with nuclear power before unleashing wave after wave after unmitigatedly annihilating wave.

If anything, the most striking difference between Infest Cesspool and Termination Apex is that KAPALA here take a decisive detour from their influences and blast deeply into (and below) the most fetid depths of old-school grindcore, noisecore, and even gabber-leaning goregrind. Each instrument is seemingly mangled beyond recognition, stripped of humanity and anything resembling "normality" - stripped so far beyond the barest essentials, rawness pushed well past the red - that a perversely avant-garde element arises. However, linger under no assumption that such is softening KAPALA's characteristically savage identity: this is still its own blown-out, charred-beyond-redemption landscape, unforgiving and unrelenting and unforgettably so, arguably more than ever.

If KAPALA left nothing but scorched earth and eviscerated eardrums after the Infest Cesspool was wiped clean, then surely their Termination Apex scatters the ashes across the anticosmos - and far beyond![/more]

[more=Technical info]
Input File: 01 - kapala - the beating heart of war (intro).mp3
Channels : 2
Sample Rate : 44100
Precision : 16-bit
Duration : 00:02:39.23 = 7021955 samples = 11942.1 CDDA sectors
File Size : 6.53M
Bit Rate : 328k
Sample Encoding: MPEG audio (layer I, II or III)
Comments :
Title=The Beating Heart of War (Intro)
Artist=Kapala
Album=Termination Apex
Tracknumber=01
Year=2019
Genre=Black Metal

[/more]

Register
(13) ahp, artscald, Boozer, cielakk, Hell_Is_Here, Olethros, Rosen, Sickrites, SilentNidhogg, VALERY, vasiljev_sergej, wreak, wtk.412,
Jul 13 2019, 16:20:46 Törzburg - Dracula's Castle [demo] (2019)


*Artist: Törzburg
*Album: Dracula's Castle [demo]
*Year: 2019
*Genre: Black Metal
*Country: Finland
*Format: mp3@CBR320kbps
*Size: 39MB

Tracklist:
1. Dracula's Castle 04:05
2. Triumph of Blood 04:16
3. Evil Countess 04:01
4. Winter Melancholy 04:06
******************************
Total playing time: 16:28



[more=Extended info]Iron Bonehead Productions

Personal purchase.[/more]

[more=Technical info]
Input File: Iron Bonehead Productions - Törzburg - Dracula\'s Castle - 01 Dracula\'s Castle.mp3
Channels : 2
Sample Rate : 44100
Precision : 16-bit
Duration : 00:04:05.72 = 10836428 samples = 18429.3 CDDA sectors
File Size : 9.97M
Bit Rate : 325k
Sample Encoding: MPEG audio (layer I, II or III)
Comments :
Title=Dracula's Castle
Artist=Törzburg
Album=Törzburg - Dracula's Castle
Tracknumber=1
Year=2019

[/more]

Register
(21) 1968_janeart, artscald, dermarsoran, desekrator, fuoco, GorAtheist, Ildjarn, kim666, lestllk, murian, Olethros, Ostinato, rimfrost, robertho777, Rosen, SilentNidhogg, smysl, stub888, VALERY, vasiljev_sergej, wreak,
Jul 11 2019, 12:34:55 Unknown Artist - Untitled [demo] (2019)


*Artist: Unknown Artist
*Album: Untitled [demo]
*Year: 2019
*Genre: Raw Black Metal
*Country: Unknown
*Format: mp3@CBR320kbps
*Size: 50MB

Tracklist:
1. Untitled 03:22
2. Untitled 03:08
3. Untitled 03:10
4. Untitled 04:47
5. Untitled 05:58
******************************
Total playing time: 20:25

[more=Extended info]Perverse Homage[/more]

[more=Technical info]
Input File: 01. Untitled.mp3
Channels : 2
Sample Rate : 48000
Precision : 16-bit
Duration : 00:03:22.25 = 9707904 samples ~ 15168.6 CDDA sectors
File Size : 8.09M
Bit Rate : 320k
Sample Encoding: MPEG audio (layer I, II or III)
Comments :
Title=Untitled
Artist=Unknown Artist
Album=Untitled
Tracknumber=1/5
Year=2019
Genre=Black Metal

[/more]

Register
(16) 1968_janeart, artscald, craP_cillA, FUDEDOR, judaz, kauyumari, kim666, Olethros, Ostinato, Pinhead666, Rosen, sacrut, SilentNidhogg, stub888, VALERY, wreak,
Jul 11 2019, 12:07:42 Abigor - Four Keys To A Foul Reich [compilation] (2019)


*Artist: Abigor
*Album: Four Keys To A Foul Reich [compilation]
*Year: 2019
*Genre: Black Metal
*Country: Austria
*Format: mp3@CBR320kbps
*Size: 180MB

Tracklist:
1. Supreme and Immortal 05:54
2. Soil of Souls 04:42
3. Kingdom of Darkness 08:29
4. Severance 02:54
5. Celestial 02:33
6. Eerie Constellation 05:18
7. Black Icarus 04:29
8. Metamorphosis 02:11
9. Satan in Me (instrumental) 05:14
10. Supreme Immortal Art (instrumental) 06:04
11. Blood and Soil (instrumental) 04:42
12. Magic Glass Monument (instrumental) 05:49
13. The Spirit of Venus (instrumental) 05:58
14. Eclipse My heart, Crown Me (instrumental) 04:36
15. Soil of Souls (instrumental) 04:12
16. Exhausted Remnants (instrumental) 04:43
******************************
Total playing time: 1:17:48



[more=Extended info]Four Keys To A Foul Reich
(songs of pestilence, darkness and death)
This release features for the first time on CD format a compilation of vinyl-only releases dated from 2013 to 2018[/more]

[more=Technical info]
Input File: Abigor - Four Keys To A Foul Reich - 01 Supreme and Immortal.mp3
Channels : 2
Sample Rate : 44100
Precision : 16-bit
Duration : 00:05:54.08 = 15615060 samples = 26556.2 CDDA sectors
File Size : 14.3M
Bit Rate : 323k
Sample Encoding: MPEG audio (layer I, II or III)
Comments :
Title=Supreme and Immortal
Artist=Abigor
Album=Four Keys To A Foul Reich
Tracknumber=1
Year=2019

[/more]

Register
(42) acerbus, artscald, Beazth, cancer1974, comradEnemy, Femto, Forest Silence, garml2, Hell_Is_Here, kim666, kluval, Koscheyushka, Legacy100, lestllk, lordbathor, Metalass, metalwoman, milosdjor, nikolay81, Occultas, Olethros, Ostinato, pedrohell, recber, RENыч, Reverend, ripper33, robertho777, Rosen, sacrut, SadistikSlayer, SilentNidhogg, stub888, supremo, VALERY, Vidder242, Vitald, Wail, wreak, wtk.412, xska, yuratroll,
Jul 1 2019, 15:55:57 A Pregnant Light - Broken Play (2019)


*Artist: A Pregnant Light
*Album: Broken Play
*Year: 2019
*Genre: Post Black Metal
*Country: United States
*Format: mp3@CBR320kbps
*Size: 94MB

Tracklist:
1. My Last Song 05:17
2. Broken Play 05:47
3. Babychain 05:56
4. I Am The Man of Your Dreams 03:26
5. Holy Death Candle 05:33
6. Future Panther 05:53
7. Purple Light (Part Two) 03:59
8. L.I.G.H.T. 05:07
******************************
Total playing time: 40:58



[more=Technical info]
Input File: 1 - My Last Song.mp3
Channels : 2
Sample Rate : 44100
Precision : 16-bit
Duration : 00:05:17.95 = 14021727 samples = 23846.5 CDDA sectors
File Size : 12.8M
Bit Rate : 322k
Sample Encoding: MPEG audio (layer I, II or III)
Comments :
Title=My Last Song
Artist=A Pregnant Light
Album=Broken Play
Tracknumber=1
Year=2019
Genre=Metal
Discnumber=1

[/more]

Register
(23) 1968_janeart, BandR75, Emhyr var Emreis, Groundzerocorpse1990, Hey_You, infiltrator, JantoHadez, kimkayoung, lestllk, Ludwig Hagen, Magged, MMMMM, Olethros, Ostinato, robertho777, Rosen, stub888, TAKATAEL, tOmV, Tyrone, VALERY, vasiljev_sergej, wreak,
Jun 27 2019, 18:03:08 Aeon Winds - Stormveiled (2019)


*Artist: Aeon Winds
*Album: Stormveiled
*Year: 2019
*Genre: Atmospheric Black Metal
*Country: Slovakia
*Format: mp3@CBR320kbps
*Size: 114MB

Tracklist:
1. Of Times Forgotten... 04:39
2. A Cosmic Sky Ablaze 05:48
3. Beyond All Empty Places 05:54
4. Dawn of the Untamed Moon 04:57
5. It is Beneath Where the Mountains Sing 03:09
6. Legacy of the Unconquered Sun 07:00
7. Stormveiled 05:52
8. Dying Star Remembrance 03:14
9. To Embrace the Void 06:05
10. ...And Woods Forlorn 02:30
******************************
Total playing time: 49:08



[more=Extended info]Personal purchase[/more]

[more=Technical info]
Input File: Aeon Winds - Stormveiled - 01 Of Times Forgotten....mp3
Channels : 2
Sample Rate : 44100
Precision : 16-bit
Duration : 00:04:39.76 = 12337416 samples = 20982 CDDA sectors
File Size : 11.3M
Bit Rate : 323k
Sample Encoding: MPEG audio (layer I, II or III)
Comments :
Title=Of Times Forgotten...
Artist=Aeon Winds
Album=Stormveiled
Tracknumber=1
Year=2019

[/more]

Register
(46) 1968_janeart, ahp, alikkon, andivi, avather, cist, demonosz, Doooomed, Dr.Grind Oim, Druidir, Evgen79, Evjenne, GorAtheist, Ildjarn, infernallord, infiltrator, Kazoth, kim666, Lamby90, lestllk, metala, nsmetalhead, oldvarg, Olethros, Orkkh, Ostinato, pedrohell, randumbum, Reverend, robertho777, Rosen, sacrut, Samaritianin, Shadechaser, SilentNidhogg, sok, TeamatSE, VALERY, vasiljev_sergej, Wilk666, wreak, zargonath, Абигор, Авел, Козлотролль, Нигилист,
Jun 24 2019, 19:06:54 Monarque - Jusqu'à La Mort [ep] (2019)


*Artist: Monarque
*Album: Jusqu'à La Mort [ep]
*Year: 2019
*Genre: Black Metal
*Country: Canada
*Format: mp3@CBR320kbps
*Size: 53MB

Tracklist:
1. Jusqu'à la Mort 06:58
2. Le Serment Prononcé 05:05
3. Le Grand Deuil 10:28
******************************
Total playing time: 22:31



[more=Extended info]Personal purchase.

Six years have gone by already since Lys Noir, and at last Monarque breaks the silence. While the work on his new full-length continues, Jusqu’à la Mort offers a taste of things to come, and proves beyond any doubt that the sovereign of Québec Black Metal has lost none of his luster. As soon as the first notes hit, this is unmistakably Monarque, soaring to new levels of his very own brooding, emotional breed of Black Metal. A Grand return…[/more]

[more=Technical info]
Input File: Monarque - Jusqu\'à la Mort - 01 Jusqu\'à la Mort.mp3
Channels : 2
Sample Rate : 44100
Precision : 16-bit
Duration : 00:06:58.48 = 18454880 samples = 31385.9 CDDA sectors
File Size : 16.9M
Bit Rate : 323k
Sample Encoding: MPEG audio (layer I, II or III)
Comments :
Title=Jusqu'à la Mort
Artist=Monarque
Album=Jusqu'à la Mort
Tracknumber=1
Year=2019

[/more]

Register
(64) -=Hass=-, 1968_janeart, 666days, acerbus, ahp, aleon, andivi, Beazth, beherit1972, canadaspaceman, CelticSPB, Coroner, d0zer, Daale, Dmitry1977, Evgen79, Evilded, Femto, Fryz, hellbibber, Hell_Is_Here, helvetesrike, igore2911, Ildjarn, Kazoth, kim666, Lamby90, Lanceatum, LEGION69, lestllk, Mortuusinfernus, morve, murian, NachtWulf, nadin85, Olethros, Onirica_vento, Ostinato, peppuzzo, Radek, rammmirez, Razorbladeswaltz, RENыч, Reverend, rimfrost, robertho777, Rosen, RUSP73, sethurius, SilentNidhogg, squall8fr, Strygaldwir, stub888, syntexid, system36, thenecromancer, VALERY, vasiljev_sergej, Vraithee, Wotanwatch, wreak, wtk.412, Волос, Хеймдалль,
Jun 21 2019, 17:42:56 Entardecer - Fomalhaut [ep] (2019)


*Artist: Entardecer
*Album: Fomalhaut [ep]
*Year: 2019
*Genre: Atmospheric Black Metal
*Country: Brazil
*Format: mp3@CBR320kbps
*Size: 59MB

Tracklist:
1. So Empty 02:23
2. Fomalhaut 03:15
3. Forgive Me 05:58
4. Worthless 03:40
5. Reasons 03:27
6. Wasted Time 04:13
******************************
Total playing time: 22:56



[more=Extended info]Personal purchase.[/more]

[more=Technical info]
Input File: Entardecer - Fomalhaut - 01 So Empty.mp3
Channels : 2
Sample Rate : 44100
Precision : 16-bit
Duration : 00:02:24.02 = 6351326 samples = 10801.6 CDDA sectors
File Size : 5.98M
Bit Rate : 332k
Sample Encoding: MPEG audio (layer I, II or III)
Comments :
Title=So Empty
Artist=Entardecer
Album=Fomalhaut
Tracknumber=1
Year=2018

[/more]

Register
(18) 1968_janeart, ahp, GorAtheist, infiltrator, kim666, lestllk, Rosen, Shadechaser, SilentNidhogg, singrad, supremo, TAKATAEL, VALERY, Vargnorth, vasiljev_sergej, wreak, Козлотролль, Сварог Барг,
Jun 21 2019, 14:02:43 Lament & As Bright As The Stars - Presence In Absence [split] (2019)


*Artist: Lament & As Bright As The Stars
*Album: Presence In Absence [split]
*Year: 2019
*Genre: Post-Black Metal | Post-Black Metal
*Country: Indonesia | Indonesia
*Format: mp3@CBR320kbps
*Size: 77MB

Tracklist:
Lament:
1. Away 07:05
2. Memoir 08:14
As Bright As The Stars:
3. Journey 05:55
4. Lost 05:45
5. Hope 06:25
******************************
Total playing time: 33:24



[more=Extended info]Personal purchase.[/more]

[more=Technical info]
Input File: Lament - Presence in Absence - 01 Away.mp3
Channels : 2
Sample Rate : 44100
Precision : 16-bit
Duration : 00:07:05.48 = 18763624 samples = 31910.9 CDDA sectors
File Size : 17.1M
Bit Rate : 321k
Sample Encoding: MPEG audio (layer I, II or III)
Comments :
Title=Away
Artist=Lament
Album=Presence in Absence
Tracknumber=1
Year=2019

[/more]

Register
(12) 1968_janeart, ahp, GorAtheist, kim666, Olethros, robertho777, Rosen, SilentNidhogg, singrad, TAKATAEL, vasiljev_sergej, wreak,
Jun 19 2019, 18:03:55 Jose Andrëa Uróboros - Bienvenidos Al Medievo (2019)


*Artist: Jose Andrëa Uróboros
*Album: Bienvenidos Al Medievo
*Year: 2019
*Genre: Heavy/Folk Metal
*Country: Spain
*Format: mp3@CBR320kbps
*Size: 158MB

Tracklist:
1. Matar Al Rey 4:40
2. Una Fábula de Mi y Yo 3:35
3. Allá Donde Estés Tu 4:52
4. Huir Hacia Adelante 3:43
5. Sonata N. 1 (Piano) 1:37
6. Ocaso 6:56
7. Malaestrella 5:31
8. Luna Negra 10:49
9. La canción de los Deseos 5:32
10. Alba 4:18
11. Bienvenidos Al Medievo 4:08
12. Agua y Fuego 3:16
13. El Último Jincho 5:06
14. Pequeña Balada Folk (Tal Vez la Próxima Vez) 4:31
******************************
Total playing time: 1:08:34

[more=Extended info]Jose Andrëa - ex-vocalist Mägo De Oz[/more]

[more=Technical info]
Input File: 1 - Matar al Rey.mp3
Channels : 2
Sample Rate : 44100
Precision : 16-bit
Duration : 00:04:39.76 = 12337416 samples = 20982 CDDA sectors
File Size : 11.3M
Bit Rate : 324k
Sample Encoding: MPEG audio (layer I, II or III)
Comments :
Title=Matar al Rey
Artist=Jose Andrea & Uróboros;Uroboros
Album=Bienvenidos al Medievo
Tracknumber=1
Year=2019
Genre=Rock;Hard Rock;Metal
Discnumber=1

[/more]

Register
(6) Cartman223, gwar, Rosen, Rover, talismanFS, wreak,
Jun 19 2019, 17:45:10 José Andrëa Y Uróboros - Resurrección (2015)


*Artist: José Andrëa Y Uróboros
*Album: Resurrección
*Year: 2015
*Genre: Heavy Metal/Hard Rock
*Country: Spain
*Format: mp3@CBR320kbps
*Size: 144MB

Tracklist:
1. Resurrección 5:07
2. La Mujer Lobo 4:00
3. Para Que Nunca Amanezca 4:06
4. Sobreviviendo 4:56
5. En Mi Barrio Nadie Quiere Dormir 4:06
6. La Torre De Cristal 5:16
7. Redención Bafda 5:47
8. Dímelo 4:28
9. ¡Vive! 3:45
10. La Salida Del Averno 10:46
11. Te Aullaré 4:34
12. Jeckyll y Hyde 5:34
******************************
Total playing time: 1:02:25

[more=Extended info]Jose Andrëa - ex-vocalist Mägo de Oz[/more]

[more=Technical info]
Input File: 1 - Resurrección.mp3
Channels : 2
Sample Rate : 44100
Precision : 16-bit
Duration : 00:05:07.35 = 13554003 samples = 23051 CDDA sectors
File Size : 12.5M
Bit Rate : 325k
Sample Encoding: MPEG audio (layer I, II or III)
Comments :
Title=Resurrección
Artist=José Andrëa y Uróboros
Album=Resurrección
Tracknumber=1
Year=2015
Genre=Rock;Hard Rock
Discnumber=1

[/more]

Register
(5) gwar, Rosen, Rover, talismanFS, wreak,
Jun 18 2019, 12:22:08 Echushkya - Dust And Ethers [ep] (2019)


*Artist: Echushkya
*Album: Dust And Ethers [ep]
*Year: 2019
*Genre: Atmospheric Black Metal
*Country: United States
*Format: mp3@CBR320kbps
*Size: 61MB

Tracklist:
1. Ara I: The Moss-Grown Pillar 01:19
2. Early Star 05:16
3. Boreal Apparition 08:40
4. Imbalance 08:06
******************************
Total playing time: 23:21



[more=Extended info]Personal purchase[/more]

[more=Technical info]
Input File: Echushkya - Dust and Ethers - 01 Ara I- The Moss-Grown Pillar.mp3
Channels : 2
Sample Rate : 44100
Precision : 16-bit
Duration : 00:01:19.08 = 3487296 samples = 5930.78 CDDA sectors
File Size : 3.21M
Bit Rate : 325k
Sample Encoding: MPEG audio (layer I, II or III)
Comments :
Title=Ara I: The Moss-Grown Pillar
Artist=Echushkya
Album=Dust and Ethers
Tracknumber=1
Year=2019

[/more]

Register
(15) 1968_janeart, ahp, Doooomed, FuneralWolf, GorAtheist, infiltrator, kim666, Olethros, robertho777, Rosen, SilentNidhogg, stub888, VALERY, vasiljev_sergej, wreak,
Jun 14 2019, 20:20:49 Врѣмѧ - Масниця (2019)


*Artist: Врѣмѧ
*Album: Масниця
*Year: 2019
*Genre: Pagan Black Metal
*Country: Germany
*Format: mp3@CBR320kbps
*Size: 97MB

Tracklist:
1. Смерть зими I - Awakening 01:08
2. Смерть зими II - Frost 03:33
3. Смерть зими III - Cloudburst 01:41
4. Смерть зими IV - Forlornness 04:25
5. Смерть зими V - Cruelty 07:43
6. Смерть зими VI - Mourning 01:18
7. Смерть зими VII - Murk 03:01
8. Смерть зими VIII - Apathy 05:20
9. Смерть зими IX - Confusion 00:44
10. Смерть зими X - Sempiternity 05:31
11. Смерть зими XI - Fog 01:54
12. Смерть зими XII - Molten 03:40
******************************
Total playing time: 39:58



[more=Extended info]Personal purchase

This is the first album of the Slavic Pagan Black Metal band Врѣмѧ.
The original artwork 'Awakening of Spring' was made by the polish painter Anna Berent.[/more]

[more=Technical info]
Input File: Врѣмѧ - Масниця - 01 Смерть змии I - Awakening.mp3
Channels : 2
Sample Rate : 44100
Precision : 16-bit
Duration : 00:01:08.91 = 3039107 samples = 5168.55 CDDA sectors
File Size : 2.95M
Bit Rate : 342k
Sample Encoding: MPEG audio (layer I, II or III)
Comments :
Title=Смерть змии I - Awakening
Artist=Врѣмѧ
Album=Масниця
Tracknumber=1
Year=2019

[/more]

Register
(18) 1968_janeart, ahp, alikkon, Aresson, GorAtheist, infiltrator, kim666, legion01, robertho777, Rosen, SilentNidhogg, stone88, stub888, Surt, VALERY, vasiljev_sergej, wreak, Сварог Барг,

7 Pages V   1 2 3 > » 
- Lo-Fi Version Support form
Copyrights and abuse reports form
Time is now: 22nd August 2019 - 15:26:56