Welcome Guest ( Log In | Register )

История благодарностей участнику elsunga ::: Спасибо сказали: 593 раз(а)
Дата поста: В теме: За сообщение: Спасибо сказали:
Oct 29 2020, 13:36:16 Flail - Dying Embers To Coldening Coals (2020)
I know that making all these transcodes may be a bit tedious, but it's not Frail but FLAIL.
(5) andivi, foreverisforgotten, goxther, infiltrator, mondblut,
Sep 11 2020, 16:13:07 Новости Black-направления
New Valhalla Bound out now

(2) Daale, infiltrator,
Aug 27 2020, 08:57:57 Новости Black-направления
out now

Whoredom Rife - Ride the Final Tide 7"

(7) Daale, gena, infiltrator, Occultas, rimfrost, sabr, thenecromancer,
Aug 10 2020, 19:22:42 Новости Black-направления

OLDOWAN GASH : Hubris Unchained





(2) acerbus, infiltrator,
Aug 3 2020, 17:46:21 Новости Black-направления
Last Ifernach finally on his bandcamp

(3) acerbus, Daale, infiltrator,
Jul 12 2020, 20:00:52 Новости Black-направления
Wagner Ödegård - Hymblaswärdh

Raw mix, unmastered track from upcoming "Om kosmos tolv" album.

[youtube]https://www.youtube.com/watch?v=TgDyp9HLjqs&feature=emb_logo[/youtube]
(2) infiltrator, Premature_Devotion,
Jul 2 2020, 18:36:47 Новости Black-направления
(1) yuratroll,
Apr 17 2020, 23:09:59 Новости Black-направления
not a blackmetal but realy nice track

new single Manes - Young Skeleton

[youtube]https://www.youtube.com/watch?v=xu83nkxE_jo&[/youtube]
(2) infiltrator, yuratroll,
Apr 15 2020, 08:12:44 Новости Black-направления


Hädanfärd - Trauma/Faces of Evil ep

bonus from 5LP discography compilation available in digital at




(2) acerbus, infiltrator,
Mar 25 2020, 18:53:36 Новости Black-направления


Grifteskymfning - Hämndlystan


(4) acerbus, infiltrator, NOMIDIMON, thenecromancer,
Mar 25 2020, 05:56:14 Новости Black-направления
Karhunvartijan Tyhjiö - Our Cosmic Voyage Towards Isolation




(3) infiltrator, rimfrost, thenecromancer,
Mar 7 2020, 07:02:15 Circle Of Ouroborus - Viimeinen Juoksu (2020)
(1) Premature_Devotion,
Mar 6 2020, 14:34:18 Новости Black-направления
Adaestuo - Manalan Virrat out now



(5) Antichrist, Infidel, infiltrator, Occultas, yuratroll,
Feb 28 2020, 03:21:57 Castrum Doloris - I Shall Become [ep] (2011)
(1) dermarsoran,
Feb 27 2020, 01:53:43 Новости Black-направления

Armanenschaft - Psychedelic Winter

This raw bm classic is finally available via bandcamp


(1) Occultas,
Feb 27 2020, 01:50:46 Armanenschaft - Psychedelic Winter (2008)
(1) dermarsoran,
Feb 21 2020, 07:44:25 Dughpa - III (2020)


*Artist: Dughpa
*Album: III
*Year: 2020
*Genre: Ambient
*Country: Sweden
*Format: mp3@CBR320kbps
*Size: 90MB

Tracklist:
1. Large Observation windows in the stalactite towers 19:35
2. The swimming Projector of black plasmid oval screen 19:31
******************************
Total playing time: 39:06



[more=Extended info]Bandcamp purchase[/more]

[more=Technical info]
Input File: 01. Large Observation Windows In The Stalactite Towers.mp3
Channels : 2
Sample Rate : 44100
Precision : 16-bit
Duration : 00:19:35.13 = 51823409 samples = 88135 CDDA sectors
File Size : 47.2M
Bit Rate : 321k
Sample Encoding: MPEG audio (layer I, II or III)
Comments :
Title=Large Observation Windows In The Stalactite Towers
Artist=Dughpa
Album=III
Tracknumber=1/2
Year=2020
Discnumber=1/1

[/more]

Register
(7) ambre, Angry_Chair, Daale, Der_Hexer, infiltrator, pain, Velmi,
Feb 19 2020, 02:17:12 Новости Black-направления
Invunche - Sacrificio


(2) acerbus, infiltrator,
Feb 18 2020, 11:35:05 Новости Black-направления
Two new albums by Grifteskymfning



(10) abob, acerbus, Antiscum, Daale, dsp, infiltrator, Qliphoth, snorr, suseka, Valdmaar,
Jan 1 2020, 23:43:46 Новости Black-направления
Drave - Terroir (EP, 2019)

Monarque + Forteresse




(2) Daale, infiltrator,
Dec 31 2019, 14:38:39 Новости Black-направления
Absolute Key - The Lost Gesture



(2) infiltrator, Occultas,
Dec 27 2019, 17:27:46 Новости Black-направления

Nadsvest - Kolo ognja i železa (EP, 2019)


(2) infiltrator, vovenom,
Dec 20 2019, 11:39:24 Новости Black-направления
QUOTE(Daale @ Dec 20 2019, 11:23:18) *
Have this one. PTF don't send Full-Length (Nordarikets Strid)


Hope he will put it on Ancient Records bandcamp.
(2) Daale, infiltrator,
Dec 20 2019, 08:33:45 Новости Black-направления
Another Ancient Records related releases


Greve - Nordarikets Strid (LP, 2019)
Greve - Nidingsdåd utav det uråldriga (EP 2019)

(Swartadauþuz + Lik)


[youtube]https://www.youtube.com/watch?v=QJFn4UchGcQ[/youtube]
(4) acerbus, infiltrator, Nattensengel, thenecromancer,
Dec 18 2019, 20:41:39 Новости Black-направления
Jordslået EP III (2019)




(3) infiltrator, Leshiy666, Occultas,

6 Pages V  < 1 2 3 4 > » 
- Lo-Fi Version Support form
Copyrights and abuse reports form
Time is now: 22nd May 2022 - 14:37:37