Welcome Guest ( Log In | Register )

История благодарностей участнику Oath19 ::: Спасибо сказали: 4740 раз(а)
Дата поста: В теме: За сообщение: Спасибо сказали:
May 20 2021, 12:28:30 Amorphis - Live At Helsinki Ice Hall [live] (2021)
Трек-лист отличный, но мне не понравилась запись, какая-то жиденькая.
(1) Metalass,
May 10 2021, 11:48:50 Morokh - All The Darkness Looks Alive (2021)


*Artist: Morokh
*Album: All The Darkness Looks Alive
*Year: 2021
*Genre: Sludge/Black Metal/Hardcore
*Country: Russian Federation
*Format: mp3@CBR320kbps
*Size: 100MB

Tracklist:
01. Revenant (03:47)
02. The Imprisoned (03:40)
03. Nightmare (03:38)
04. Witch (04:15)
05. Denial (05:53)
06. Solitude Song (03:56)
07. Helix (03:36)
08. The Cursed (04:19)
09. Out of the Darkness (03:40)
10. Faces of Death (05:10)
******************************
Total playing time: 41:54




[more=Technical info]
Input File: 04 Witch.mp3
Channels : 2
Sample Rate : 44100
Precision : 16-bit
Duration : 00:04:14.74 = 11233902 samples = 19105.3 CDDA sectors
File Size : 10.6M
Bit Rate : 333k
Sample Encoding: MPEG audio (layer I, II or III)
Comments :
Title=Witch
Artist=Morokh
Album=All the Darkness Looks Alive
Tracknumber=4/10
Year=2021
Genre=Black Metal
Discnumber=1/1

[/more]

Register
(8) caro, Golodomor, infiltrator, kazulapka, Olethros, Ostinato, varlam4, wreak,
Apr 29 2021, 19:51:10 Inferno - Paradeigma (Phosphenes Of Aphotic Eternity) (2021)
Муть полная.
(1) FlammenTod666,
Apr 3 2021, 18:04:31 Новости Black-направления
Новый альбом финнов Goats of Doom "SHIVA" выйдет поздней весной
https://www.youtube.com/watch?v=y_uBdysw_ro
(2) infiltrator, rimfrost,
Feb 2 2021, 20:11:44 Human Serpent - Heirlooms Eternal (2021)
Безвкусная унылая жвачка.
(1) judaz,
Dec 28 2020, 20:37:41 Antti Martikainen - Sonic Savior (2021)


*Artist: Antti Martikainen
*Album: Sonic Savior
*Year: 2021
*Genre: Symphonic Metal
*Country: Finland
*Format: mp3@CBR320kbps
*Size: 180MB

Tracklist:
01. Edenfall (06:49)
02. Maverick (06:12)
03. The Cure for Weakness (07:30)
04. Neogenesis (06:35)
05. Sonic Savior (05:53)
06. Etherity (06:32)
07. World of Hurt (04:24)
08. Ascension Gate (07:31)
09. Iconoclast (05:27)
10. Limitless (06:03)
11. Quantum Exodus (06:11)
12. Ashes of Decadence (09:40)
******************************
Total playing time: 1:18:47



[more=Technical info]
Input File: 02 - Maverick.mp3
Channels : 2
Sample Rate : 44100
Precision : 16-bit
Duration : 00:06:12.77 = 16438937 samples = 27957.4 CDDA sectors
File Size : 14.9M
Bit Rate : 320k
Sample Encoding: MPEG audio (layer I, II or III)
Comments :
Title=Maverick
Artist=Antti Martikainen
Album=Sonic Savior
Tracknumber=2
Year=2020
Genre=Symphonic Metal
Discnumber=1/1

[/more]

Register
(3) Herrant, vdolghi, скептик,
Nov 27 2020, 17:27:37 Ondskapt - Grimoire Ordo Devus (2020)
Как говорится, лучше редко, но метко. Отличный, размеренный, в меру злой, медитативный и мелодичный альбом. Хороший звук, атмосфера на месте. Не стали придумывать велосипеды, за что и спасибо.
(2) Chasm, infiltrator,
Nov 27 2020, 17:23:18 Lord Belial - Wrath Of Belial [compilation] (2020)


*Artist: Lord Belial
*Album: Wrath Of Belial [compilation]
*Year: 2020
*Genre: Black/Death Metal
*Country: Sweden
*Format: mp3@CBR320kbps
*Size: 105MB

Tracklist:
01. Bleed on the Cross
02. Hellspawn
03. Grace of God
04. The Art of Dying
05. Jesus Fails
06. Malevolently Reversed
07. Maniac Madness
08. Lilith - Demonic Queen of the Black Light
09. Into the Frozen Shadows
10. Mad Redeemer
11. Satan Divine
12. The Ancient Slumber
******************************
Total playing time: 45:03



[more=Extended info]Compilation containing "The Art of Dying" (01-07) and "Into the Frozen Shadows" (08-12) demos.[/more]

[more=Technical info]
Input File: 02 - Hellspawn.mp3
Channels : 2
Sample Rate : 44100
Precision : 16-bit
Duration : 00:03:32.00 = 9349200 samples = 15900 CDDA sectors
File Size : 8.66M
Bit Rate : 327k
Sample Encoding: MPEG audio (layer I, II or III)
Comments :
Title=Hellspawn
Artist=Lord Belial
Album=Wrath of Belial
Tracknumber=2
Year=2020-27-11
Genre=Black/Death Metal
Discnumber=1

[/more]

Register
(13) Bzth, cancer1974, hellbibber, infiltrator, kimkayoung, metalfanatic666, Occultas, older68, Paganini, stumpheavyrock, troll_swamp, Wail, wanderer73,
Nov 20 2020, 13:35:31 Inquisition - Black Mass For A Mass Grave (2020)
Слабый альбом, очень слабый. Ноль интересных и запоминающихся моментов. Альбом по сути большая нарезка самоплагиата с небольшими новыми темами, которые увы не спасают тонущий корабль, да и вокал претерпел не лучшие изменения. Нет убийственной гнетущей атмосферы что была ранее. Нет хуковых разящих наповал риффов. Да и звучание крайне плохое. В общем - хайповая пустышка.
(5) Bitchkiller, Burzevil, infiltrator, Metalass, vosmidesijatye,
Nov 18 2020, 18:05:31 Odiosior - Syvyyksistä (2020)


*Artist: Odiosior
*Album: Syvyyksistä
*Year: 2020
*Genre: Black Metal
*Country: Finland
*Format: mp3@CBR320kbps
*Size: 90MB

Tracklist:
1. Viha Minussa
2. Takaisin Kaaokseen
3. Laulu Pimeydessä
4. Syvyyksistä
5. Kaipaus
6. Olen Myrkkyä
7. Sotaan
******************************
Total playing time: 41:35



[more=Technical info]
Input File: 03 Laulu Pimeydessä.mp3
Channels : 2
Sample Rate : 44100
Precision : 16-bit
Duration : 00:05:25.74 = 14365222 samples = 24430.6 CDDA sectors
File Size : 13.1M
Bit Rate : 321k
Sample Encoding: MPEG audio (layer I, II or III)
Comments :
Title=Laulu Pimeydessä
Artist=Odiosior
Album=Syvyyksistä
Tracknumber=3
Year=2020
Genre=Black Metal

[/more]

Register
(33) 1968_janeart, andivi, El_Chibo, Ildjarn, infiltrator, judaz, kim666, Korpse, Marek, maxxxy, Moonshtook, Morgoth, multizwilling, murian, nemx, Olethros, Ostinato, peppuzzo, randumbum, rimfrost, robertho777, Rosen, sabr, SadistikSlayer, satanist666, SilentNidhogg, stub888, Surt, Tino, VALERY, varlam4, vasiljev_sergej, wreak,
Nov 16 2020, 21:23:18 Slowly Building Weapons - Echos (2020)


*Artist: Slowly Building Weapons
*Album: Echos
*Year: 2020
*Genre: Doomgaze/Experimental
*Country: Australia
*Format: mp3@CBR320kbps
*Size: 101MB

Tracklist:
01. Armada of Ghosts (03:59)
02. Foal to Mare (04:05)
03. We Are All Animals (02:29)
04. Acid Gold Sun (04:44)
05. Dissolving (05:15)
06. Heaven Collapse (04:27)
07. Disc of Shadows (02:53)
08. Echo From Hill (06:14)
09. The Final Vehicle (03:35)
10. Omega (05:39)
******************************
Total playing time: 43:20



[more=Technical info]
Input File: 02 - Foal to Mare.mp3
Channels : 2
Sample Rate : 44100
Precision : 16-bit
Duration : 00:04:05.00 = 10804500 samples = 18375 CDDA sectors
File Size : 9.99M
Bit Rate : 326k
Sample Encoding: MPEG audio (layer I, II or III)
Comments :
Title=Foal to Mare
Artist=Slowly Building Weapons
Album=ECHOS
Tracknumber=2
Year=2020-23-10
Genre=Doom Metal
Discnumber=1

[/more]

Register
(12) A.L.Rapsod, as71, craP_cillA, ENDSMOUTH, gena, infiltrator, marilin, Olethros, Ostinato, randumbum, varlam4, Zenial,
Nov 16 2020, 19:42:16 Young And In The Way - Ride Off And Die (2020)


*Artist: Young And In The Way
*Album: Ride Off And Die
*Year: 2020
*Genre: Black Metal/Crust
*Country: United States
*Format: mp3@CBR320kbps
*Size: 78MB

Tracklist:
1. The Razor 02:40
2. Suffering Dawn 03:41
3. We Bring You Hell 03:07
4. There Is No God, Only Me 03:21
5. Endless Night 03:13
6. The Truth 04:19
7. Ready To Explore 02:49
8. R.O.A.D. 02:23
9. Chaos Is Law 01:32
10. You Can't Kill Me 07:14
******************************
Total playing time: 34:19



[more=Technical info]
Input File: 02 - Suffering Dawn.mp3
Channels : 2
Sample Rate : 44100
Precision : 16-bit
Duration : 00:03:41.51 = 9768459 samples = 16613 CDDA sectors
File Size : 8.88M
Bit Rate : 321k
Sample Encoding: MPEG audio (layer I, II or III)
Comments :
Title=Suffering Dawn
Artist=Young And In The Way
Album=Ride Off And Die
Tracknumber=2
Year=2020
Genre=Black Metal/Crust
Discnumber=1/1

[/more]

Register
(23) 1968_janeart, comradEnemy, EvgeniusLongus, fishish, frituz3, infiltrator, metala, oldvarg, Olethros, Ostinato, pahail, recber, Rikardo90, Rosen, satanist666, SilentNidhogg, sludge666, varlam4, vasiljev_sergej, Wail, wreak, Zenial, Озабоченный,
Oct 19 2020, 18:42:42 Vagina Witchcraft - Vagina Witchcraft (2020)


*Artist: Vagina Witchcraft
*Album: Vagina Witchcraft
*Year: 2020
*Genre: Doom Metal
*Country: Canada
*Format: mp3@CBR320kbps
*Size: 90MB

Tracklist:
01. Intro (04:23)
02. Mercury (06:53)
03. Pyro (04:54)
04. Starting Over (06:06)
05. No Sinners (08:22)
06. Alvvays (08:39)
******************************
Total playing time: 39:17



[more=Technical info]
Input File: 02 - Mercury.mp3
Channels : 2
Sample Rate : 44100
Precision : 16-bit
Duration : 00:06:52.00 = 18169200 samples = 30900 CDDA sectors
File Size : 16.6M
Bit Rate : 323k
Sample Encoding: MPEG audio (layer I, II or III)
Comments :
Title=Mercury
Artist=Vagina Witchcraft
Album=Vagina Witchcraft
Tracknumber=2
Year=2020-20-10
Genre=Doom Metal
Discnumber=1

[/more]

Register
(21) cesar, chipsgott, frituz3, HMHamster, Ice Gnoll, infiltrator, LEGION69, metala, Mogozoz, multizwilling, nsk2008, Olethros, pahail, randumbum, Rosen, sergsazan, stub888, thenecromancer, VALERY, wreak, zhol,
Oct 7 2020, 15:49:28 Slowly Building Weapons - Nausicaä (2007)


*Artist: Slowly Building Weapons
*Album: Nausicaä
*Year: 2007
*Genre: Black Metal/Doom Metal/Experimental
*Country: Australia
*Format: mp3@CBR320kbps
*Size: 97MB

Tracklist:
1. Star Swallower 01:52
2. Opening And Sucking On Windows Of Your Fuselage 03:25
3. Rotating Gears Out Of The Ghost Womb 04:40
4. Codex Vaticus 02:27
5. Mechatronic 02:47
6. Intravenous Snog 03:47
7. Harvest Home 02:14
8. Turn Into Steers 06:31
9. Steady Mr. Pitt 02:50
10. Birth 04:31
11. Rising Of The Larks 04:35
******************************
Total playing time: 39:39

[more=Technical info]
Input File: Slowly Building Weapons - Nausicaä - 03 Rotating Gears Out Of The Ghost Womb.mp3
Channels : 2
Sample Rate : 44100
Precision : 16-bit
Duration : 00:04:40.54 = 12371990 samples = 21040.8 CDDA sectors
File Size : 11.5M
Bit Rate : 328k
Sample Encoding: MPEG audio (layer I, II or III)
Comments :
Title=Rotating Gears Out Of The Ghost Womb
Artist=Slowly Building Weapons
Album=Nausicaä
Tracknumber=3
Year=2007

[/more]

Register
(11) craP_cillA, infiltrator, metala, Olethros, randumbum, Rosen, sludge666, VALERY, varlam4, vasiljev_sergej, wreak,
Oct 7 2020, 15:47:49 Slowly Building Weapons - Sunbirds (2017)


*Artist: Slowly Building Weapons
*Album: Sunbirds
*Year: 2017
*Genre: Black Metal/Doom Metal/Experimental
*Country: Australia
*Format: mp3@CBR320kbps
*Size: 90MB

Tracklist:
1. Throne 03:34
2. Lyre Birds 03:22
3. Zoltar 04:12
4. Sunforest 06:40
5. Editing the Desert 01:45
6. Sunbirds 04:00
7. The Vulture Hovers 02:45
8. Horses 04:11
9. Izep 03:07
10. Purist 05:45
******************************
Total playing time: 39:21



[more=Technical info]
Input File: 07 - The Vulture Hovers.mp3
Channels : 2
Sample Rate : 44100
Precision : 16-bit
Duration : 00:02:45.44 = 7295860 samples = 12407.9 CDDA sectors
File Size : 6.73M
Bit Rate : 325k
Sample Encoding: MPEG audio (layer I, II or III)
Comments :
Title=The Vulture Hovers
Artist=Slowly Building Weapons
Album=Sunbirds
Tracknumber=7/10
Year=2017

[/more]

Register
(11) balazshorvat, craP_cillA, infiltrator, Olethros, randumbum, Rosen, sludge666, VALERY, varlam4, vasiljev_sergej, wreak,
Sep 18 2020, 17:38:12 Aran - Veden Varjoista (2020)


*Artist: Aran
*Album: Veden Varjoista
*Year: 2020
*Genre: Atmospheric Black Metal
*Country: Finland
*Format: mp3@CBR320kbps
*Size: 87MB

Tracklist:
1. Melankolia
2. Ikuisuus
3. Elävä
4. Viimeinen Vaeltaja
******************************
Total playing time: 42:02



[more=Technical info]
Input File: 02 - Ikuisuus.mp3
Channels : 2
Sample Rate : 44100
Precision : 16-bit
Duration : 00:08:23.68 = 22212200 samples = 37775.9 CDDA sectors
File Size : 20.2M
Bit Rate : 321k
Sample Encoding: MPEG audio (layer I, II or III)
Comments :
Title=Ikuisuus
Artist=Aran
Album=Veden Varjoista
Tracknumber=2/4
Year=2020-30-08
Genre=Atmospheric Black Metal

[/more]

Register
(32) 1968_janeart, aleon, AlexSmith, alikkon, blacky66, demonosz, djsema4, EvilPiet, fallen, grimoir, infiltrator, kim666, Lukittaz, Maximvs, metalfaze, Moonshtook, Olethros, Olrak, Ostinato, randumbum, robertho777, Rosen, satanist666, sergsazan, SilentNidhogg, smes, stub888, system36, VALERY, varlam4, vasiljev_sergej, wreak,
Sep 16 2020, 13:23:25 Kalmankantaja - Viimeinen Virsi Ii: Sairaan Sielun Sanat (2020)


*Artist: Kalmankantaja
*Album: Viimeinen Virsi Ii: Sairaan Sielun Sanat
*Year: 2020
*Genre: Atmospheric Black Metal
*Country: Finland
*Format: mp3@CBR320kbps
*Size: 88MB

Tracklist:
1. Musta Viha Sielussani 15:34
2. Minun On Valta Ja Voima 14:01
3. Lopussa On Vain Kuolema 09:03
******************************
Total playing time: 38:38



[more=Technical info]
Input File: 02 Minun On Valta Ja Voima.mp3
Channels : 2
Sample Rate : 44100
Precision : 16-bit
Duration : 00:14:01.89 = 37127393 samples = 63141.8 CDDA sectors
File Size : 33.7M
Bit Rate : 320k
Sample Encoding: MPEG audio (layer I, II or III)
Comments :
Title=Minun On Valta Ja Voima
Artist=Kalmankantaja
Album=Viimeinen Virsi II: Sairaan Sielun Sanat
Tracknumber=2
Year=2020
Genre=Atmospheric Black Metal

[/more]

Register
(42) 1968_janeart, alikkon, andivi, BERZERK, Boozer, d0zer, Femto, frituz3, GuldenDraak, Hell_Is_Here, Ildjarn, infiltrator, kim666, kimkayoung, kolar666, Lanceatum, lucifix, Lucju, nikolay81, oldvarg, Ostinato, peppuzzo, rammstein888, randumbum, Relicario, Rikardo90, robertho777, Rosen, satanist666, Shadechaser, SilentNidhogg, smes, SSWolf88, Surt, Tyrone, VALERY, varlam4, vasiljev_sergej, Victim of fate, wreak, ZA670, Zenial,
Aug 17 2020, 19:50:54 Three Thirteen - Dawn Of The Shred (2016)
320
Register
(3) boby9052, isvili, varlam4,
Aug 17 2020, 19:49:56 Three Thirteen - Overdrive Alive (2013)


*Artist: Three Thirteen
*Album: Overdrive Alive
*Year: 2013
*Genre: Thrash Metal
*Country: United States
*Format: mp3@CBR320kbps
*Size: 116MB

Tracklist:
1. In Heavy We Trust 04:05
2. Among Dead Eyes 03:40
3. Welcome to Delirium 04:37
4. Overdrive Alive 04:03
5. Spaced 04:00
6. Exo-Arachno 03:54
7. Happy Ending 02:56
8. Thicker than Blood 04:13
9. Damaged Down 03:45
10. Los Angeles Burns 03:39
11. Foxy (Intro) 02:37
12. Light 'Em Up 01:21
13. Electric City 01:40
14. Captain Amazing Man 02:20
15. Dark Fly 01:48
16. Foxy (Outro) 02:20
******************************
Total playing time: 50:58

[more=Technical info]
Input File: 07 Happy Ending.mp3
Channels : 2
Sample Rate : 48000
Precision : 16-bit
Duration : 00:02:56.76 = 8484624 samples ~ 13257.2 CDDA sectors
File Size : 7.07M
Bit Rate : 320k
Sample Encoding: MPEG audio (layer I, II or III)
Comments :
Title=Happy Ending
Artist=Three Thirteen
Album=Overdrive Alive
Tracknumber=7/16
Year=2013
Genre=Thrash Metal
Discnumber=1/1

[/more]

Register
(15) after21allD, andreikun, boby9052, caro, chipsgott, gwar, infiltrator, Lukittaz, Mares, Mogozoz, Olethros, Rosen, sergsazan, varlam4, wreak,
Aug 17 2020, 19:47:56 Three Thirteen - Full Tilt (2011)


*Artist: Three Thirteen
*Album: Full Tilt
*Year: 2011
*Genre: Thrash Metal
*Country: United States
*Format: mp3@CBR320kbps
*Size: 88MB

Tracklist:
1. Blaster 03:36
2. One for the Road 04:33
3. Full Tilt 03:58
4. Skool Daze 04:20
5. City of Devils 04:58
6. The Dark of Yesterday 03:40
7. Watch It Go! 04:29
8. Living in Stereo 04:49
9. Death's Head 04:24
******************************
Total playing time: 38:47

[more=Technical info]
Input File: 03 Full Tilt.mp3
Channels : 2
Sample Rate : 48000
Precision : 16-bit
Duration : 00:03:58.20 = 11433744 samples ~ 17865.2 CDDA sectors
File Size : 9.53M
Bit Rate : 320k
Sample Encoding: MPEG audio (layer I, II or III)
Comments :
Title=Full Tilt
Artist=Three Thirteen
Album=Full Tilt
Tracknumber=3/9
Year=2011
Genre=Thrash Metal
Discnumber=1/1

[/more]

Register
(14) after21allD, boby9052, caro, chipsgott, gwar, infiltrator, Mares, Mogozoz, Olethros, Rosen, sergsazan, stumpheavyrock, varlam4, wreak,
Aug 17 2020, 19:46:00 Three Thirteen - Devil Music [ep] (2011)


*Artist: Three Thirteen
*Album: Devil Music [ep]
*Year: 2011
*Genre: Thrash Metal
*Country: United States
*Format: mp3@CBR320kbps
*Size: 61MB

Tracklist:
1. Devil Music Intro 00:27
2. It's a Long Way to the Top (If You Wanna Rock n Roll) 04:40
3. Rocket Ride 04:13
4. Beer Drinkers and Hell Raisers 03:19
5. Caught in a Mosh 05:06
6. Ramble On 04:39
7. We're Not Gonna Take It 03:16
8. Devil Music Outro 01:09
******************************
Total playing time: 26:49

[more=Technical info]
Input File: 02 It\'s a Long Way to the Top (If Yo.mp3
Channels : 2
Sample Rate : 48000
Precision : 16-bit
Duration : 00:04:39.60 = 13420944 samples ~ 20970.2 CDDA sectors
File Size : 11.2M
Bit Rate : 320k
Sample Encoding: MPEG audio (layer I, II or III)
Comments :
Title=It's a Long Way to the Top (If You Wanna Rock N Roll)
Artist=Three Thirteen
Album=Devil Music (EP)
Tracknumber=2/8
Year=2011
Genre=Thrash Metal
Discnumber=1/1

[/more]

Register
(15) after21allD, boby9052, caro, chipsgott, gwar, infiltrator, Mares, METALHUNTER, Mogozoz, Olethros, Rosen, sergsazan, stumpheavyrock, varlam4, wreak,
Aug 16 2020, 08:25:19 Mercury Circle - The Dawn Of Vitriol [ep] (2020)
Jaska Raatikainen - Drums (eх-Children of Bodom)
(1) krotovich,
Aug 14 2020, 14:05:20 Terminal Nation - Holocene Extinction (2020)
Альбом пушка, заслушиваюсь! pray.gif
(1) Occultas,
Aug 7 2020, 20:25:53 Oathean - The Eyes Of Tremendous Sorrow (1998)


*Artist: Oathean
*Album: The Eyes Of Tremendous Sorrow
*Year: 1998
*Genre: Melodic Black Metal
*Country: South Korea
*Format: mp3@CBR320kbps
*Size: 89MB

Tracklist:
1. Intro
2. The Last Elegy for My Sad Soul
3. Transparent Blue Light, So Too Much Tearful
4. In Fear with Shiver
5. Frigid Space
6. The Eyes of Tremendous Sorrow
7. The Rotten Egg Smell Stuck on My Belly
8. Punishment of Being Alone, Its Cruel Strength Breaks Me Away
******************************
Total playing time: 39:35



[more=Technical info]
Input File: 02. The Last Elegy For My Sad Soul.mp3
Channels : 2
Sample Rate : 44100
Precision : 16-bit
Duration : 00:06:35.94 = 17460778 samples = 29695.2 CDDA sectors
File Size : 15.8M
Bit Rate : 320k
Sample Encoding: MPEG audio (layer I, II or III)
Comments :
Title=The Last Elegy For My Sad Soul
Artist=Oathean
Album=The Eyes Of Tremendeous Sorrow
Tracknumber=02
Year=1998
Genre=Melodic Black Metal

[/more]

Register
(25) 1968_janeart, BugEyes, demonosz, DenisKov, DiegoMassakre, djsema4, Ildjarn, infiltrator, krotovich, legion01, lestllk, metala, Mogozoz, nospeedlimit, Olethros, randumbum, Rosen, sergsazan, SilentNidhogg, Svafrlami, VALERY, varlam4, vasiljev_sergej, zhol, Сварог Барг,
Jul 25 2020, 21:34:31 Väki - Kuolleen Maan Omaksi (2020)


*Artist: Väki
*Album: Kuolleen Maan Omaksi
*Year: 2020
*Genre: Black Metal
*Country: Finland
*Format: flac
*Size: 698MB

Tracklist:
1. Vaisto
2. Kuihtuvan maan puoliso
3. Ennustus
4. Ikiuni
5. Painajaisten syleilyssä
6. Ikuisen kuoleman alttarille
7. Kylmyyden ytimessä
******************************
Total playing time: 52:43




[more=Extended info]Flac + 320[/more]

Register
(19) AndreFrancis, Boozer, infiltrator, Korpse, Krosis, lestllk, Mares, multizwilling, NachtWulf, Olethros, Rosen, sabr, satanist666, sok, thenecromancer, tim47, varlam4, vasiljev_sergej, wreak,

18 Pages V   1 2 3 > » 
- Lo-Fi Version Support form
Copyrights and abuse reports form
Time is now: 18th June 2021 - 06:10:51