Welcome Guest ( Log In | Register )

История благодарностей участнику Oath19 ::: Спасибо сказали: 4889 раз(а)
Дата поста: В теме: За сообщение: Спасибо сказали:
Jan 12 2022, 19:30:46 Resurgence - Native Soil Sings [ep] (2021)
Название релиза неверное. Правильное название - Nocturnal Sorcery in Mournful Dusk.
(1) Occultas,
Nov 25 2021, 21:58:27 Hypocrisy - Worship (2021)
ЦИТАТА(zyklon @ Nov 26 2021, 01:03:55) *
Откровений не найдено, НО! с 2002, это действительно лучший альбом. Хотя бы слушать можно, по сравнению со сраным шлаком 20009 и 2013 года и не плеваться

A Taste of Extreme Divinity мощнейший альбом, ты че.
(1) BleedingSun,
Nov 25 2021, 12:00:54 Olio Tähtien Takana - Spectral Katharsis (2021)


*Artist: Olio Tähtien Takana
*Album: Spectral Katharsis
*Year: 2021
*Genre: Atmospheric Black Metal
*Country: Finland
*Format: mp3@CBR320kbps
*Size: 123MB

Tracklist:
1. Intro - Enter the Maw of Souls 01:55
2. Towards the Dying Moon 05:16
3. Excrucior 04:43
4. A Sorcery Written in Stars 04:51
5. Prophecies of Pandemonium 04:31
6. Veri Kirotussa Yössä 03:47
7. The Servant's Heart 04:57
8. Journey to the Most High 04:13
9. The Labyrinth of Sleepless Dead 03:54
10. Spectral Katharsis 08:10
11. Ego Aeternum 03:50
12. Outro - Into the Everlasting Shadow 03:49
******************************
Total playing time: 53:56




[more=Technical info]
Input File: 02 Towards the Dying Moon.mp3
Channels : 2
Sample Rate : 44100
Precision : 16-bit
Duration : 00:05:16.11 = 13940539 samples = 23708.4 CDDA sectors
File Size : 12.7M
Bit Rate : 320k
Sample Encoding: MPEG audio (layer I, II or III)
Comments :
Title=Towards the Dying Moon
Artist=Olio Tähtien Takana
Album=Spectral Katharsis
Tracknumber=2/12
Year=2021
Genre=Black Metal

[/more]

Register
(31) AlexSmith, artscald, Boozer, caro, Forest Silence, Grzechu, Ildjarn, julianotidre, Ludwig Hagen, madera, Marek, metala, nemx, Occultas, oldvarg, Olethros, Ostinato, randumbum, rimfrost, robertho777, sabr, sergsazan, Shadechaser, Storky, supremo, VALERY, varlam4, vasiljev_sergej, wreak, Zoloft, Сварог Барг,
Nov 23 2021, 21:51:41 Ömheten - Själv (2015)


*Artist: Ömheten
*Album: Själv
*Year: 2015
*Genre: Depressive Black Metal
*Country: Sweden
*Format: mp3@CBR320kbps
*Size: 84MB

Tracklist:
1. Det Som Släcker Mig
2. Själv
3. Stäng Av Mig
4. Apati, Är Du Min Älskling?
5. Självmedicineringens Experter
6. Evig Semester Från Mig Själv
******************************
Total playing time: 36:37



[more=Technical info]
Input File: 04 - Apati, är du min älskling.mp3
Channels : 2
Sample Rate : 44100
Precision : 16-bit
Duration : 00:06:06.16 = 16147436 samples = 27461.6 CDDA sectors
File Size : 14.6M
Bit Rate : 320k
Sample Encoding: MPEG audio (layer I, II or III)
Comments :
Title=Apati, är du min älskling?
Artist=Ömheten
Album=Själv
Tracknumber=04
Year=2015
Genre=Depressive Black Metal

[/more]

Register
(18) aleon, AlexSmith, artscald, caro, julianotidre, kim666, libertine, metala, NachtWulf, Olethros, randumbum, stormhatt, supremo, VALERY, varlam4, vasiljev_sergej, vlad74, wreak,
Sep 22 2021, 13:31:25 Huoripukki - Ikuinen Kamppailu (2021)


*Artist: Huoripukki
*Album: Ikuinen Kamppailu
*Year: 2021
*Genre: Black/Death Metal
*Country: Finland
*Format: mp3@CBR320kbps
*Size: 75MB

Tracklist:
01. Voima on Oikeutta
02. Rauta-aika
03. Kutsu Pimeydesta
04. Valkyriain Hylkaama
05. Verikaste
06. Antropomorfia
07. Kuvainraastaja
08. Kuolinnaamio
******************************
Total playing time: 32:13




[more=Technical info]
Input File: 07. Kuvainraastaja.mp3
Channels : 2
Sample Rate : 44100
Precision : 16-bit
Duration : 00:03:33.19 = 9401767 samples = 15989.4 CDDA sectors
File Size : 8.53M
Bit Rate : 320k
Sample Encoding: MPEG audio (layer I, II or III)
Comments :
Title=Kuvainraastaja
Artist=Huoripukki
Album=Ikuinen Kamppailu
Tracknumber=07
Year=2021

[/more]

Register
(34) AlexSmith, caro, cesar, coresh, dcatagua, dermarsoran, Dr.Grind Oim, EndlessDrone, Fater_Hu, fuoco, grimoir, Hell_Is_Here, judaz, julianotidre, kim666, Mencae77, Metalass, MMMMM, Moonshtook, Olethros, Penetralia, rimfrost, sabr, sacrut, smes, supremo, Taakeferd, Tino, VALERY, varlam4, vasiljev_sergej, wreak, дивин, Сварог Барг,
Sep 21 2021, 14:46:08 Watch Them Die - Bastard Son (2005)
320
Register
(1) wreak,
Sep 17 2021, 13:36:48 Meshuggah - The Violent Sleep Of Reason (2016)
320
Register
(1) wreak,
Jul 10 2021, 20:06:43 Musta Risti - Musta Risti (2018)


*Artist: Musta Risti
*Album: Musta Risti
*Year: 2018
*Genre: Heavy/Doom Metal
*Country: Finland
*Format: mp3@CBR320kbps
*Size: 92MB

Tracklist:
1. Peto 03:28
2. Kelmeät silmät 05:21
3. Tuhkaviitta 03:56
4. Laivue 06:12
5. Kaaoksen lapset 08:27
6. Moottoriritari 04:55
7. Tule esiin tuho 05:07
******************************
Total playing time: 37:26



[more=Technical info]
Input File: 03 Tuhkaviitta.mp3
Channels : 2
Sample Rate : 44100
Precision : 16-bit
Duration : 00:03:56.19 = 10415935 samples = 17714.2 CDDA sectors
File Size : 10.3M
Bit Rate : 349k
Sample Encoding: MPEG audio (layer I, II or III)
Comments :
Title=Tuhkaviitta
Artist=Musta Risti
Album=Musta Risti
Tracknumber=3/7
Year=2018
Genre=Rock
Discnumber=1/1

[/more]

Register
(11) after21allD, andreikun, bOOLty, caro, marilin, Mogozoz, Olethros, Rover, sergsazan, VALERY, wreak,
Jul 10 2021, 20:01:50 Odious Devotion - Ilmestys (2021)


*Artist: Odious Devotion
*Album: Ilmestys
*Year: 2021
*Genre: Atmospheric Black Metal
*Country: Finland
*Format: mp3@CBR320kbps
*Size: 70MB

Tracklist:
01.Tämän Maailman Tuhkasta
02.Impulssi - Näyt Näkymättömästä
03.Uudelleensyntymä
04. Perintö
******************************
Total playing time: 30:29




[more=Technical info]
Input File: 01. Tämän Maailman Tuhkasta.mp3
Channels : 2
Sample Rate : 44100
Precision : 16-bit
Duration : 00:13:08.16 = 34757900 samples = 59112.1 CDDA sectors
File Size : 31.8M
Bit Rate : 323k
Sample Encoding: MPEG audio (layer I, II or III)
Comments :
Title=Tämän Maailman Tuhkasta
Artist=Odious Devotion
Album=Ilmestys
Tracknumber=01
Year=2021
Genre=Atmospheric Black Metal

[/more]

Register
(12) Anarchead, deadterror, demonosz, infiltrator, kim666, murian, nemx, Olethros, sabr, squall8fr, vasiljev_sergej, Wail,
Jul 1 2021, 14:18:40 At The Gates - The Nightmare Of Being (2021)
Как были с первого альбома второсортным шлаком, так и остались. 22.gif Если бы не присутствие Линдберга, то и слушать даже не стал бы.
(1) Nattfodd,
Jun 20 2021, 07:30:10 Korgonthurus - XX [ep] (2021)
Убийственный материал. Особенно третья и четвертая песни. pray.gif Не пониманию, как кому-то это могло не понравится, видимо сопли привыкли слушать. bye.gif
(2) judaz, rimfrost,
May 20 2021, 12:28:30 Amorphis - Live At Helsinki Ice Hall [live] (2021)
Трек-лист отличный, но мне не понравилась запись, какая-то жиденькая.
(1) Metalass,
May 10 2021, 11:48:50 Morokh - All The Darkness Looks Alive (2021)


*Artist: Morokh
*Album: All The Darkness Looks Alive
*Year: 2021
*Genre: Sludge/Black Metal/Hardcore
*Country: Russian Federation
*Format: mp3@CBR320kbps
*Size: 100MB

Tracklist:
01. Revenant (03:47)
02. The Imprisoned (03:40)
03. Nightmare (03:38)
04. Witch (04:15)
05. Denial (05:53)
06. Solitude Song (03:56)
07. Helix (03:36)
08. The Cursed (04:19)
09. Out of the Darkness (03:40)
10. Faces of Death (05:10)
******************************
Total playing time: 41:54




[more=Technical info]
Input File: 04 Witch.mp3
Channels : 2
Sample Rate : 44100
Precision : 16-bit
Duration : 00:04:14.74 = 11233902 samples = 19105.3 CDDA sectors
File Size : 10.6M
Bit Rate : 333k
Sample Encoding: MPEG audio (layer I, II or III)
Comments :
Title=Witch
Artist=Morokh
Album=All the Darkness Looks Alive
Tracknumber=4/10
Year=2021
Genre=Black Metal
Discnumber=1/1

[/more]

Register
(9) caro, Golodomor, infiltrator, kazulapka, Olethros, Ostinato, varlam4, Wail, wreak,
Apr 29 2021, 19:51:10 Inferno - Paradeigma (Phosphenes Of Aphotic Eternity) (2021)
Муть полная.
(1) FlammenTod666,
Apr 5 2021, 20:00:43 Lamb Of God - Lamb Of God (2020)
Переиздание 2021 года 2 CD (FLAC-Rip)
Register

(1) Spritznkarli,
Apr 3 2021, 18:04:31 Новости Black-направления
Новый альбом финнов Goats of Doom "SHIVA" выйдет поздней весной
https://www.youtube.com/watch?v=y_uBdysw_ro
(2) infiltrator, rimfrost,
Feb 2 2021, 20:11:44 Human Serpent - Heirlooms Eternal (2021)
Безвкусная унылая жвачка.
(1) judaz,
Dec 28 2020, 20:37:41 Antti Martikainen - Sonic Savior (2021)


*Artist: Antti Martikainen
*Album: Sonic Savior
*Year: 2021
*Genre: Symphonic Metal
*Country: Finland
*Format: mp3@CBR320kbps
*Size: 180MB

Tracklist:
01. Edenfall (06:49)
02. Maverick (06:12)
03. The Cure for Weakness (07:30)
04. Neogenesis (06:35)
05. Sonic Savior (05:53)
06. Etherity (06:32)
07. World of Hurt (04:24)
08. Ascension Gate (07:31)
09. Iconoclast (05:27)
10. Limitless (06:03)
11. Quantum Exodus (06:11)
12. Ashes of Decadence (09:40)
******************************
Total playing time: 1:18:47



[more=Technical info]
Input File: 02 - Maverick.mp3
Channels : 2
Sample Rate : 44100
Precision : 16-bit
Duration : 00:06:12.77 = 16438937 samples = 27957.4 CDDA sectors
File Size : 14.9M
Bit Rate : 320k
Sample Encoding: MPEG audio (layer I, II or III)
Comments :
Title=Maverick
Artist=Antti Martikainen
Album=Sonic Savior
Tracknumber=2
Year=2020
Genre=Symphonic Metal
Discnumber=1/1

[/more]

Register
(3) Herrant, vdolghi, скептик,
Nov 27 2020, 17:27:37 Ondskapt - Grimoire Ordo Devus (2020)
Как говорится, лучше редко, но метко. Отличный, размеренный, в меру злой, медитативный и мелодичный альбом. Хороший звук, атмосфера на месте. Не стали придумывать велосипеды, за что и спасибо.
(2) Chasm, infiltrator,
Nov 27 2020, 17:23:18 Lord Belial - Wrath Of Belial [compilation] (2020)


*Artist: Lord Belial
*Album: Wrath Of Belial [compilation]
*Year: 2020
*Genre: Black/Death Metal
*Country: Sweden
*Format: mp3@CBR320kbps
*Size: 105MB

Tracklist:
01. Bleed on the Cross
02. Hellspawn
03. Grace of God
04. The Art of Dying
05. Jesus Fails
06. Malevolently Reversed
07. Maniac Madness
08. Lilith - Demonic Queen of the Black Light
09. Into the Frozen Shadows
10. Mad Redeemer
11. Satan Divine
12. The Ancient Slumber
******************************
Total playing time: 45:03



[more=Extended info]Compilation containing "The Art of Dying" (01-07) and "Into the Frozen Shadows" (08-12) demos.[/more]

[more=Technical info]
Input File: 02 - Hellspawn.mp3
Channels : 2
Sample Rate : 44100
Precision : 16-bit
Duration : 00:03:32.00 = 9349200 samples = 15900 CDDA sectors
File Size : 8.66M
Bit Rate : 327k
Sample Encoding: MPEG audio (layer I, II or III)
Comments :
Title=Hellspawn
Artist=Lord Belial
Album=Wrath of Belial
Tracknumber=2
Year=2020-27-11
Genre=Black/Death Metal
Discnumber=1

[/more]

Register
(13) Bzth, cancer1974, hellbibber, infiltrator, kimkayoung, metalfanatic666, Occultas, older68, Paganini, stumpheavyrock, troll_swamp, Wail, wanderer73,
Nov 20 2020, 13:35:31 Inquisition - Black Mass For A Mass Grave (2020)
Слабый альбом, очень слабый. Ноль интересных и запоминающихся моментов. Альбом по сути большая нарезка самоплагиата с небольшими новыми темами, которые увы не спасают тонущий корабль, да и вокал претерпел не лучшие изменения. Нет убийственной гнетущей атмосферы что была ранее. Нет хуковых разящих наповал риффов. Да и звучание крайне плохое. В общем - хайповая пустышка.
(5) Bitchkiller, Burzevil, infiltrator, Metalass, vosmidesijatye,
Nov 18 2020, 18:05:31 Odiosior - Syvyyksistä (2020)


*Artist: Odiosior
*Album: Syvyyksistä
*Year: 2020
*Genre: Black Metal
*Country: Finland
*Format: mp3@CBR320kbps
*Size: 90MB

Tracklist:
1. Viha Minussa
2. Takaisin Kaaokseen
3. Laulu Pimeydessä
4. Syvyyksistä
5. Kaipaus
6. Olen Myrkkyä
7. Sotaan
******************************
Total playing time: 41:35



[more=Technical info]
Input File: 03 Laulu Pimeydessä.mp3
Channels : 2
Sample Rate : 44100
Precision : 16-bit
Duration : 00:05:25.74 = 14365222 samples = 24430.6 CDDA sectors
File Size : 13.1M
Bit Rate : 321k
Sample Encoding: MPEG audio (layer I, II or III)
Comments :
Title=Laulu Pimeydessä
Artist=Odiosior
Album=Syvyyksistä
Tracknumber=3
Year=2020
Genre=Black Metal

[/more]

Register
(33) 1968_janeart, andivi, El_Chibo, Ildjarn, infiltrator, judaz, kim666, Korpse, Marek, maxxxy, Moonshtook, Morgoth, multizwilling, murian, nemx, Olethros, Ostinato, peppuzzo, randumbum, rimfrost, robertho777, Rosen, sabr, SadistikSlayer, satanist666, SilentNidhogg, stub888, Surt, Tino, VALERY, varlam4, vasiljev_sergej, wreak,
Nov 16 2020, 21:23:18 Slowly Building Weapons - Echos (2020)


*Artist: Slowly Building Weapons
*Album: Echos
*Year: 2020
*Genre: Doomgaze/Experimental
*Country: Australia
*Format: mp3@CBR320kbps
*Size: 101MB

Tracklist:
01. Armada of Ghosts (03:59)
02. Foal to Mare (04:05)
03. We Are All Animals (02:29)
04. Acid Gold Sun (04:44)
05. Dissolving (05:15)
06. Heaven Collapse (04:27)
07. Disc of Shadows (02:53)
08. Echo From Hill (06:14)
09. The Final Vehicle (03:35)
10. Omega (05:39)
******************************
Total playing time: 43:20



[more=Technical info]
Input File: 02 - Foal to Mare.mp3
Channels : 2
Sample Rate : 44100
Precision : 16-bit
Duration : 00:04:05.00 = 10804500 samples = 18375 CDDA sectors
File Size : 9.99M
Bit Rate : 326k
Sample Encoding: MPEG audio (layer I, II or III)
Comments :
Title=Foal to Mare
Artist=Slowly Building Weapons
Album=ECHOS
Tracknumber=2
Year=2020-23-10
Genre=Doom Metal
Discnumber=1

[/more]

Register
(12) A.L.Rapsod, as71, Carcharoth, ENDSMOUTH, gena, infiltrator, marilin, Olethros, Ostinato, randumbum, varlam4, Zenial,
Nov 16 2020, 19:42:16 Young And In The Way - Ride Off And Die (2020)


*Artist: Young And In The Way
*Album: Ride Off And Die
*Year: 2020
*Genre: Black Metal/Crust
*Country: United States
*Format: mp3@CBR320kbps
*Size: 78MB

Tracklist:
1. The Razor 02:40
2. Suffering Dawn 03:41
3. We Bring You Hell 03:07
4. There Is No God, Only Me 03:21
5. Endless Night 03:13
6. The Truth 04:19
7. Ready To Explore 02:49
8. R.O.A.D. 02:23
9. Chaos Is Law 01:32
10. You Can't Kill Me 07:14
******************************
Total playing time: 34:19



[more=Technical info]
Input File: 02 - Suffering Dawn.mp3
Channels : 2
Sample Rate : 44100
Precision : 16-bit
Duration : 00:03:41.51 = 9768459 samples = 16613 CDDA sectors
File Size : 8.88M
Bit Rate : 321k
Sample Encoding: MPEG audio (layer I, II or III)
Comments :
Title=Suffering Dawn
Artist=Young And In The Way
Album=Ride Off And Die
Tracknumber=2
Year=2020
Genre=Black Metal/Crust
Discnumber=1/1

[/more]

Register
(23) 1968_janeart, comradEnemy, EvgeniusLongus, fishish, frituz3, infiltrator, metala, oldvarg, Olethros, Ostinato, pahail, recber, Rikardo90, Rosen, satanist666, SilentNidhogg, sludge666, varlam4, vasiljev_sergej, Wail, wreak, Zenial, Озабоченный,
Oct 19 2020, 18:42:42 Vagina Witchcraft - Vagina Witchcraft (2020)


*Artist: Vagina Witchcraft
*Album: Vagina Witchcraft
*Year: 2020
*Genre: Doom Metal
*Country: Canada
*Format: mp3@CBR320kbps
*Size: 90MB

Tracklist:
01. Intro (04:23)
02. Mercury (06:53)
03. Pyro (04:54)
04. Starting Over (06:06)
05. No Sinners (08:22)
06. Alvvays (08:39)
******************************
Total playing time: 39:17



[more=Technical info]
Input File: 02 - Mercury.mp3
Channels : 2
Sample Rate : 44100
Precision : 16-bit
Duration : 00:06:52.00 = 18169200 samples = 30900 CDDA sectors
File Size : 16.6M
Bit Rate : 323k
Sample Encoding: MPEG audio (layer I, II or III)
Comments :
Title=Mercury
Artist=Vagina Witchcraft
Album=Vagina Witchcraft
Tracknumber=2
Year=2020-20-10
Genre=Doom Metal
Discnumber=1

[/more]

Register
(21) cesar, chipsgott, frituz3, HMHamster, Ice Gnoll, infiltrator, LEGION69, metala, Mogozoz, multizwilling, nsk2008, Olethros, pahail, randumbum, Rosen, sergsazan, stub888, thenecromancer, VALERY, wreak, zhol,

19 Pages V   1 2 3 > » 
- Lo-Fi Version Support form
Copyrights and abuse reports form
Time is now: 25th January 2022 - 17:41:44