Welcome Guest ( Log In | Register )

История благодарностей участнику fylopaloma ::: Спасибо сказали: 2458 раз(а)
Дата поста: В теме: За сообщение: Спасибо сказали:
Jul 6 2020, 15:48:32 Yob - Pickathon 2019 - Live From The Galaxy Barn [live] (2020)


*Artist: Yob
*Album: Pickathon 2019 - Live From The Galaxy Barn [live]
*Year: 2020
*Genre: Stoner/Doom Metal
*Country: United States
*Format: mp3@CBR320kbps
*Size: 136MB

Tracklist:
1. Ball of Molten Lead 12:28
2. The Lie that is Sin 13:09
3. Marrow 19:22
4. Burning the Altar 14:55
******************************
Total playing time: 59:54




[more=Extended info]All proceeds will be donated to the Navajo Nation Covid Relief Fund.[/more]

[more=Technical info]
Input File: YOB - Pickathon 2019 - Live from the Galaxy Barn - 01 Ball of Molten Lead.mp3
Channels : 2
Sample Rate : 44100
Precision : 16-bit
Duration : 00:12:28.82 = 33022874 samples = 56161.4 CDDA sectors
File Size : 30.0M
Bit Rate : 321k
Sample Encoding: MPEG audio (layer I, II or III)
Comments :
Title=Ball of Molten Lead
Artist=YOB
Album=Pickathon 2019 - Live from the Galaxy Barn
Tracknumber=1
Year=2020
Genre=GetMetal.CLUB

[/more]

Register
(10) 555, ahp, gena, infiltrator, kolar666, lordbathor, Lukittaz, Olethros, ripper33, VALERY,
Jun 23 2020, 13:40:38 The Moon And The Nightspirit - Aether (2020)
Register
(5) BlackTroll, Forest, infiltrator, leks, lucifix,
May 28 2020, 14:04:37 Mrs. Piss - Self-Surgery (2020)


*Artist: Mrs. Piss
*Album: Self-Surgery
*Year: 2020
*Genre: Alternative Rock/Dark Ambient
*Country: United States
*Format: mp3@CBR320kbps
*Size: 43MB

Tracklist:
1. To Crawl Inside 00:43
2. Downer Surrounded by Uppers 02:00
3. Knelt 04:03
4. Nobody Wants to Party with Us 02:49
5. M.B.O.T.W.O. 01:22
6. You Took Everything 02:34
7. Self-Surgery 02:42
8. Mrs. Piss 02:33
******************************
Total playing time: 18:46




[more=Extended info]Mrs. Piss is a collaboration between Chelsea Wolfe and Jess Gowrie. Drawing on their collective rock, metal, and industrial influences, the project began while the two were touring around together during Wolfe’s Hiss Spun album in 2017. These songs feel more urgent and visceral than anything either of them has created before: heaviness spurred on by punk spirit.[/more]

[more=Technical info]
Input File: 4 - Nobody Wants to Party with Us.mp3
Channels : 2
Sample Rate : 44100
Precision : 16-bit
Duration : 00:02:49.78 = 7487386 samples = 12733.6 CDDA sectors
File Size : 6.81M
Bit Rate : 321k
Sample Encoding: MPEG audio (layer I, II or III)
Comments :
Title=Nobody Wants to Party with Us
Artist=Mrs. Piss
Album=Self-Surgery
Tracknumber=4
Year=2020
Genre=Metal
Discnumber=1

[/more]

Register
(13) Angry_Chair, ENDSMOUTH, FUDEDOR, infiltrator, judaz, KKK1488, lordbathor, lucifix, Olethros, rocesid, sarcophagus, vosmidesijatye, yuratroll,
May 17 2020, 17:52:55 Old Man Gloom - Seminar Viii: Light Of Meaning (2020)


*Artist: Old Man Gloom
*Album: Seminar Viii: Light Of Meaning
*Year: 2020
*Genre: Sludge/Ambient/Noise
*Country: United States
*Format: mp3@CBR320kbps
*Size: 96MB

Tracklist:
1. EMF 03:54
2. Wrath of the Weary 04:48
3. True Volcano 05:04
4. Final Defeat 11:43
5. Calling You Home 11:08
6. By Love All Is Healed 09:17
******************************
Total playing time: 45:54





[more=Technical info]
Input File: 03 True Volcano.mp3
Channels : 2
Sample Rate : 48000
Precision : 16-bit
Duration : 00:05:04.85 = 14632848 samples ~ 22863.8 CDDA sectors
File Size : 12.2M
Bit Rate : 320k
Sample Encoding: MPEG audio (layer I, II or III)
Comments :
Title=True Volcano
Artist=Old Man Gloom
Album=Light Of Meaning WAV
Tracknumber=3/6

[/more]

Register

Register
(15) 555, BERZERK, Cruor, gena, GFW, Ghostb, HMHamster, infiltrator, infozahist, J0k3r, kolar666, marilin, mirotvorets, Olethros, Ostinato,
May 1 2020, 16:55:38 Orange Goblin - Rough & Ready, Live & Loud [live] (2020)


*Artist: Orange Goblin
*Album: Rough & Ready, Live & Loud [live]
*Year: 2020
*Genre: Stoner Metal
*Country: United Kingdom
*Format: mp3@CBR320kbps
*Size: 174MB

Tracklist:
1. Sons of Salem 02:51
2. The Devil's Whip 02:20
3. Saruman's Wish 06:45
4. Made of Rats 05:16
5. The Wolf Bites Back 04:24
6. Mythical Knives 04:44
7. The Fog 06:13
8. Some You Win, Some You Lose 03:37
9. The Filty & the Few 03:03
10. Shine 07:05
11. Renegade 03:36
12. Time Travelling Blues 06:38
13. Your World Will Hate This 02:08
******************************
Total playing time: 58:40





[more=Extended info]Tracks recorded live at the following shows between 2016 and 2019:
- Saturday, August 6th, 2016 at the Sylak Open Air Festival in France
- Sunday, December 18th, 2016 at KOKO in Camden, London, UK
- Saturday, September 21st, 2019 at Fuzz Club in Athens, Greece[/more]

[more=Technical info]
Input File: Orange Goblin - Rough & Ready, Live & Loud - 06 Mythical Knives.mp3
Channels : 2
Sample Rate : 44100
Precision : 16-bit
Duration : 00:04:44.31 = 12538027 samples = 21323.2 CDDA sectors
File Size : 11.6M
Bit Rate : 326k
Sample Encoding: MPEG audio (layer I, II or III)
Comments :
Title=Mythical Knives
Artist=Orange Goblin
Album=Rough & Ready, Live & Loud
Tracknumber=6
Year=2020

[/more]

Register
(15) BERZERK, gena, HMHamster, infiltrator, LEGION69, mort, multizwilling, Olethros, p4B10, recber, Rosen, Tular, VALERY, varlam4, ZA670,
Apr 26 2020, 09:04:34 Danzig - Sings Elvis (2020)


*Artist: Danzig
*Album: Sings Elvis
*Year: 2020
*Genre: Blues Rock/Rock & Roll
*Country: United States
*Format: mp3@CBR320kbps
*Size: 90MB

Tracklist:
1. Is It So Strange 2:35
2. One Night 2:22
3. Lonely Blue Boy 3:45
4. First In Line 3:14
5. Baby Let’s Play House 3:02
6. Love Me 3:32
7. Pocket Full Of Rainbows 2:41
8. Fever 2:55
9. When It Rains It Really Pours 1:49
10. Always On My Mind 3:14
11. Loving Arms 3:02
12. Like A Baby 2:36
13. Girl Of My Best Friend 2:51
14. Young And Beautiful 2:22
******************************
Total playing time: 40:00




[more=Technical info]
Input File: 05 - Baby Let\'s Play House.mp3
Channels : 2
Sample Rate : 44100
Precision : 16-bit
Duration : 00:02:35.88 = 6874484 samples = 11691.3 CDDA sectors
File Size : 6.29M
Bit Rate : 323k
Sample Encoding: MPEG audio (layer I, II or III)
Comments :
Title=Baby Let's Play House
Artist=Danzig
Album=Sings Elvis
Tracknumber=5
Year=2020
Genre=Rock / Hard Rock / Metal
Discnumber=1

[/more]

Register
(16) Aresson, canadaspaceman, cancer1974, Drugoff, gwar, infiltrator, metaljosue, multizwilling, oldvarg, Olethros, princeshr, recber, smysl, Wail, wtk.412, Zhelezjaka,
Apr 8 2020, 16:54:49 Gli Atroci - Metal Pussy (2019)
QUOTE
Mega is not working properly right now, I think it's temporary


Now it's working
(2) infiltrator, thenecromancer,
Apr 8 2020, 10:16:12 Gli Atroci - Metal Pussy (2019)


*Artist: Gli Atroci
*Album: Metal Pussy
*Year: 2019
*Genre: Heavy Metal/Parody
*Country: Italy
*Format: mp3@CBR320kbps
*Size: 143MB

Tracklist:
1. L'Avvento (Parte IV) 1:27
2. La Birra (Tanta) 3:31
3. Borchios + 0:52
4. Rutti Mostruosi 3:36
5. Probably Risk To Die 3:33
6. Voglio Fare Il Roadie 1:19
7. Il Mio Gruppo Metal (feat. Roberto Tiranti & Michele Luppi) 5:31
8. Chitarra Coreana 3:08
9. La Vendetta Della Faraona 6:43
10. I Compositori Di Una Volta 0:26
11. Perfekt Kombination 2:58
12. Magari Morite 3:42
13. Lungo E Diritto 5:11
14. Perché Non Parli Più? 0:51
15. Pogo Pogo Pogo 5:13
16. Quando Si Fa Sera 3:35
17. Glory Hole (feat. Infernal Putrefaction) 2:35
18. I Dischi Di Papà 0:18
19. Dottore Dottore 3:09
20. Briscola 3:16
21. La Fuga (Parte IV) 2:21
******************************
Total playing time: 1:03:15




[more=Technical info]
Input File: 06 - Voglio Fare Il Roadie.mp3
Channels : 2
Sample Rate : 44100
Precision : 16-bit
Duration : 00:01:19.32 = 3497792 samples = 5948.63 CDDA sectors
File Size : 3.17M
Bit Rate : 320k
Sample Encoding: MPEG audio (layer I, II or III)
Comments :
Title=Voglio Fare Il Roadie
Artist=Gli Atroci
Album=Metal Pussy
Tracknumber=6
Year=2019
Genre=Heavy Metal

[/more]

Register
(2) infiltrator, thenecromancer,
Apr 8 2020, 10:10:34 Gli Atroci - Gli Atroci (1999)


*Artist: Gli Atroci
*Album: Gli Atroci
*Year: 1999
*Genre: Heavy Metal/Parody
*Country: Italy
*Format: mp3@CBR320kbps
*Size: 143MB

Tracklist:
1. L'Avvento 1:50
2. Arrivano Gli Untori 4:27
3. Curati La Gotta 3:21
4. Le Cavallette 0:38
5. Peppino L'Usuraio 4:43
6. Il Proclama 0:55
7. I Guerrieri Del Metallo (Parte I) 7:23
8. Quel Motel In Fondo Alla Palude 1:11
9. Voglio Vederti Morire 2:18
10. Al Bar 0:18
11. La Mamma E' Importante 5:13
12. I Guerrieri Del Metallo (Parte II) 2:04
13. A.I.M. 4:21
14. Il Muro 6:03
15. Le Malattie 5:10
16. Il Camposanto 0:26
17. I Tuoi Amici Atroci 4:48
18. La Fuga 2:09
******************************
Total playing time: 57:18




[more=Technical info]
Input File: 08 - Quel Motel In Fondo Alla Palude.mp3
Channels : 2
Sample Rate : 48000
Precision : 16-bit
Duration : 00:01:13.62 = 3533808 samples ~ 5521.57 CDDA sectors
File Size : 2.95M
Bit Rate : 320k
Sample Encoding: MPEG audio (layer I, II or III)
Comments :
Artist=Gli Atroci
Album=Gli Atroci
Tracknumber=8
Year=1999
Genre=Heavy Metal Demenziale

[/more]

Register
(1) infiltrator,
Mar 31 2020, 08:09:01 Nightwish - Hvman. :||: Natvre. (2020)


*Artist: Nightwish
*Album: Hvman. :||: Natvre.
*Year: 2020
*Genre: Symphonic Power Metal
*Country: Finland
*Format: mp3@CBR320kbps
*Size: 189MB

Tracklist:
CD 1
1. Music 07:23
2. Noise 05:40
3. Shoemaker 05:19
4. Harvest 05:13
5. Pan 05:18
6. How's the Heart? 05:02
7. Procession 05:31
8. Tribal 03:56
9. Endlessness 07:11

CD 2
1. All the Works of Nature Which Adorn the World - Vista 04:00
2. All the Works of Nature Which Adorn the World - The Blue 03:36
3. All the Works of Nature Which Adorn the World - The Green 04:42
4. All the Works of Nature Which Adorn the World - Moors 04:44
5. All the Works of Nature Which Adorn the World - Aurorae 02:08
6. All the Works of Nature Which Adorn the World - Quiet as the Show 04:05
7. All the Works of Nature Which Adorn the World - Anthropocene (Including "Hurrian Hymn to Nikkal") 03:06
8. All the Works of Nature Which Adorn the World - Ad Astra 04:42
******************************
Total playing time: 1:21:36




[more=Extended info]Emppu Vuorinen Guitars (electric, acoustic)
Tuomas Holopainen Keyboards, Piano
Marco Hietala Bass, Vocals, Guitars (acoustic)
Troy Donockley Uilleann pipes, Tin whistle, Low whistle, Guitars, Bouzouki, Bodhrán, Vocals
Floor Jansen Vocals
Kai Hahto Drums[/more]

[more=Technical info]
Input File: 03. Shoemaker.mp3
Channels : 2
Sample Rate : 44100
Precision : 16-bit
Duration : 00:05:19.11 = 14072575 samples = 23933 CDDA sectors
File Size : 12.9M
Bit Rate : 324k
Sample Encoding: MPEG audio (layer I, II or III)
Comments :
Title=Shoemaker
Artist=Nightwish
Album=HUMAN. :II: NATURE.
Tracknumber=03/09
Year=2020
Genre=Symphonic Metal
Discnumber=1/2

[/more]

Register
(78) 0x13, 6666666, ace73pq, Alpha_Prime, Appie_Thrasher, Aresson, Black Cat, blackwingtsi, Bloodn Lord, boby9052, BugEyes, cancer1974, Cartman223, cesar, chipsgott, dafya328, danilodjb, Dark Sage, djsema4, Druidir, Fatalv, Fess, finmetal, gbagrami, Glioma, Grinder777, gwar, gwynnbleid, Herrant, HMHamster, Indamage, infiltrator, JD666Hellion, John Beak, jollo, jujul, khestanow3001, kim666, kimkayoung, Konst, Lamby90, Luminous, Metalass, metaljinie, Mogozoz, multizwilling, Noctis, nospeedlimit, Old Vyaine, Olethros, Phlebotomized, rabindranad, recber, robertho777, Rover, sadmannn, senecazm, sepultura39, Sethan, Shadechaser, Shadowman, simonitro, Slam91, SlimBZ, StabWound, talismanFS, thenecromancer, tOmV, v.v.m, VadimBerkut, VALERY, varlam4, wn129aa, wreak, yuratroll, zolotoiskatel, Сварог Барг, скептик,
Mar 23 2020, 10:20:02 Old Man Gloom - Seminar IX: Darkness of Being (2020)


*Artist: Old Man Gloom
*Album: Seminar IX: Darkness of Being
*Year: 2020
*Genre: Sludge
*Country: United States
*Format: mp3@CBR320kbps
*Size: 111MB

Tracklist:
1. Procession of the Wounded 04:05
2. Heel to Toe 04:35
3. The Bleeding Sun 04:29
4. Canto de Santos 10:19
5. Death Rhymes 04:16
6. In Your Name 12:31
7. Love Is Bravery 08:00
******************************
Total playing time: 48:15





[more=Technical info]
Input File: 6 - In Your Name.mp3
Channels : 2
Sample Rate : 44100
Precision : 16-bit
Duration : 00:12:31.35 = 33134623 samples = 56351.4 CDDA sectors
File Size : 30.2M
Bit Rate : 321k
Sample Encoding: MPEG audio (layer I, II or III)
Comments :
Title=In Your Name
Artist=Old Man Gloom
Album=Seminar IX: Darkness of Being
Tracknumber=6
Year=2020
Genre=Metal
Discnumber=1

[/more]

Register
(17) BERZERK, Black Cat, dabiz, GFW, HMHamster, infiltrator, infozahist, J0k3r, marilin, nemx, Olethros, Ostinato, Regnat, stub888, stumpheavyrock, VALERY, wreak,
Mar 22 2020, 21:15:16 Mitochondrial Sun - Mitochondrial Sun (2020)


*Artist: Mitochondrial Sun
*Album: Mitochondrial Sun
*Year: 2020
*Genre: Electronic/Ambient
*Country: Sweden
*Format: mp3@CBR320kbps
*Size: 100MB

Tracklist:
01. Ur Tehom 3:24
02. Chronotopes 5:17
03. Braying Cells 4:49
04. Stars Beneath the Sea 3:42
05. Nyaga 4:18
06. Celestial Animal 7:03
07. Arkadia 3:47
08. The Void Begets (3:09
09. Entropy's Gift 2:41
10. The Great Filter 4:45
******************************
Total playing time: 42:55




[more=Extended info]Project by Niklas Sundin from Dark Tranquility[/more]

[more=Technical info]
Input File: 08. The Void Begets.mp3
Channels : 2
Sample Rate : 44100
Precision : 16-bit
Duration : 00:03:09.82 = 8371018 samples = 14236.4 CDDA sectors
File Size : 7.77M
Bit Rate : 327k
Sample Encoding: MPEG audio (layer I, II or III)
Comments :
Title=The Void Begets
Artist=Mitochondrial Sun
Album=Mitochondrial Sun
Tracknumber=8
Year=2020-02-14
Genre=Electronic
Discnumber=1

[/more]

Register
(9) 6666666, Ghostb, Infidel, infiltrator, Maestrovs, Nattfodd, oldvarg, Olethros, Sanctus,
Mar 5 2020, 19:51:33 Body Count - Carnivore (2020)


*Artist: Body Count
*Album: Carnivore
*Year: 2020
*Genre: Crossover/Groove/Thrash Metal
*Country: United States
*Format: mp3@CBR320kbps
*Size: 91MB

Tracklist:
01. Carnivore
02. Bum Rush
03. Thee Critical Beatdown
04. Ace Of Spades
05. Another Level
06. Colors
07. When I'm Gone (feat. Amy)
08. They Point The Finger
09. No Remorse
10. The Hate Is Real
11. 6 In Tha Morning - 2020 [Bonus Track] (Unreleased Demo)
******************************
Total playing time: 39:26




[more=Technical info]
Input File: 5 - Another Level.mp3
Channels : 2
Sample Rate : 44100
Precision : 16-bit
Duration : 00:04:12.15 = 11119859 samples = 18911.3 CDDA sectors
File Size : 10.2M
Bit Rate : 323k
Sample Encoding: MPEG audio (layer I, II or III)
Comments :
Title=Another Level
Artist=Body Count/Jamey Jasta
Album=Carnivore
Tracknumber=5
Year=2020
Genre=Rock / Hard Rock / Metal
Discnumber=1

[/more]

Register
(54) 6666666, akym, Aresson, as71, BERZERK, Black Cat, boby9052, Brann, cesar, chipsgott, DMIYUR, dvdfanmetal37, eugenezzzis, ForzaMinardi1977, fuoco, gorlum22, Grogro, gwar, Hovnoliaty, infiltrator, jollo, Kalnasra, kimkayoung, Kisser, Korpse, Lord Noctua, metaljosue, Necromayhem, Occultas, Old Vyaine, older68, Olethros, Pentium.Disel, Phlebotomized, Saalingurth, SaintVitus, Saldiac, skinnyboo, smes, snot, stone88, TeamatSE, thrashes, Tino, tschunioronbeer, varlam4, vyacheslav, wreak, Yanek, zerger, zyklon, Авел, Герб, Язва,
Mar 1 2020, 14:21:50 John Dolmayan - These Grey Men (2020)


*Artist: John Dolmayan
*Album: These Grey Men
*Year: 2020
*Genre: Alternative Rock/Metal
*Country: United States
*Format: mp3@CBR320kbps
*Size: 79MB

Tracklist:
1. Road To Nowhere (Originally by Talking Heads)
2. Star man (Originally by David Bowie)
3. What I Know (Originally by 2 Door Cinema Club)
4. Runaway (Originally by Del Shannon)
5. Street Spirit (Originally by Radiohead)
6. Hung Up (Originally by Madonna)
7. Beautiful Thieves (Originally by AFI)
8. Rock Bottom (Originally by Eminem)
******************************
Total playing time: 34:40




[more=Extended info]SOAD's drummer solo project.[/more]

[more=Technical info]
Input File: 05 - Street Spirit (feat. M. Shadows & Tom Morello).mp3
Channels : 2
Sample Rate : 44100
Precision : 16-bit
Duration : 00:03:42.50 = 9812250 samples = 16687.5 CDDA sectors
File Size : 8.93M
Bit Rate : 321k
Sample Encoding: MPEG audio (layer I, II or III)
Comments :
Title=Street Spirit (feat. M. Shadows & Tom Morello)
Artist=John Dolmayan/M. Shadows/Tom Morello
Album=These Grey Men
Tracknumber=5
Year=2020
Genre=Rock

[/more]

Register
(4) infiltrator, Olethros, rammmirez, zerger,
Feb 22 2020, 15:48:15 Ordo Rosarius Equilibrio - Make Love And War - The Wedlock Of Roses & Equilibrium [compilation] (2001)


*Artist: Ordo Rosarius Equilibrio
*Album: Make Love And War - The Wedlock Of Roses & Equilibrium [compilation]
*Year: 2001
*Genre: Neofolk
*Country: Sweden
*Format: mp3@CBR320kbps
*Size: 162MB

Tracklist:
1 Beloved Kitty And The Piercing Bolts Of Amor 1:23
2 Ashen Like Love And Black Like The Snow 4:12
3 Passing Eyes In Mimer's Well 4:09
4 Hunting For The Black September 5:01
5 Flowers And Moonshine In My Garden Of Eden 4:05
6 Liebe Utopia On Weaves Of Silken Carnage 5:45
7 Make Love And War 5:10
8 Never Before At The Beauty Of Spring 6:31
9 Harvesting The Crop, The Chaste Verdict Of Negligence 5:10
10 Apocalypse Kisses, Commemorating My Summer Solstice 4:50
11 Love Conquers All 4:04
12 To Tirzah 4:25
13 Erotisk Tillägnan 5:25
14 Advancement And Demoralization 2:20
15 My Felicity Of Midwinter 4:36
16 Rituals Of Love In The Passage Of Genocide, Song Of Rose 4:22
17 Ode To The Beloved And Impaired 1:52
******************************
Total playing time: 1:13:20




[more=Extended info]Originally Released by Cold Meat Industry 2000 & 2001 as Make Love And War (The Wedlock Of Roses) CMI.84 & Make Love And War (The Wedlock Of Equilibrium) CMI.94[/more]

[more=Technical info]
Input File: 06. Liebe Utopia On Weaves Of Silken Carnage.mp3
Channels : 2
Sample Rate : 44100
Precision : 16-bit
Duration : 00:05:43.11 = 15131327 samples = 25733.5 CDDA sectors
File Size : 13.8M
Bit Rate : 322k
Sample Encoding: MPEG audio (layer I, II or III)
Comments :
Title=Liebe Utopia On Weaves Of Silken Carnage
Artist=Ordo Rosarius Equilibrio
Album=Make Love, And War (The Wedlock Of Equilibrium)
Tracknumber=06/17
Year=2001
Genre=Dark Folk / Martial Industrial
Discnumber=1/1

[/more]

Register
(3) Cartman223, infiltrator, Olethros,
Feb 22 2020, 15:23:17 Ordo Rosarius Equilibrio - Four [ep] (2007)


*Artist: Ordo Rosarius Equilibrio
*Album: Four [ep]
*Year: 2007
*Genre: Neofolk
*Country: Sweden
*Format: mp3@CBR320kbps
*Size: 36MB

Tracklist:
1. Singing For The Angel Of The East [Reclaiming That Which Is Ours] 4:27
2. Which Word Confines The Truth? Dancing For Love And War 3:55
3. The Future Was Today 4:37
4. I Am The Sun [Anus Dei] 3:43
******************************
Total playing time: 16:42




[more=Technical info]
Input File: 02. Which Word Confines The Truth! Dancing For Love And War.mp3
Channels : 2
Sample Rate : 44100
Precision : 16-bit
Duration : 00:03:50.83 = 10179735 samples = 17312.5 CDDA sectors
File Size : 9.33M
Bit Rate : 323k
Sample Encoding: MPEG audio (layer I, II or III)
Comments :
Title=Which Word Confines The Truth? Dancing For Love And War
Artist=Ordo Rosarius Equilibrio
Album=Four
Tracknumber=02
Year=2007
Genre=Dark Folk

[/more]

Register
(3) Cartman223, Druidir, infiltrator,
Dec 20 2019, 14:29:29 Lord Mantis - NTW [ep] (2016)
Register
(2) boby9052, infiltrator,
Dec 20 2019, 14:27:57 Lord Mantis - Death Mask (2014)
Register
(2) boby9052, Moonlover,
Dec 20 2019, 14:26:38 Lord Mantis - Pervertor (2012)
Register
(2) boby9052, Moonlover,
Dec 20 2019, 14:24:26 Lord Mantis - Spawning The Nephilim (2009)
Register
(2) boby9052, Moonlover,
Oct 18 2019, 10:24:43 Year Of The Goat - Novis Orbis Terrarum Ordinis (2019)


*Artist: Year Of The Goat
*Album: Novis Orbis Terrarum Ordinis
*Year: 2019
*Genre: Psychedelic/Occult Rock
*Country: Sweden
*Format: mp3@CBR320kbps
*Size: 128MB

Tracklist:
1. Subortus 5:28
2. Acedia 4:16
3. Luxuria 4:08
4. Ira 9:40
5. Superbia 4:35
6. Gula 4:51
7. Avaritia 3:42
8. Invidia 5:20
9. Subicio 14:01
******************************
Total playing time: 56:01





[more=Technical info]
Input File: 4 - Ira.mp3
Channels : 2
Sample Rate : 44100
Precision : 16-bit
Duration : 00:09:40.13 = 25583865 samples = 43510 CDDA sectors
File Size : 23.3M
Bit Rate : 321k
Sample Encoding: MPEG audio (layer I, II or III)
Comments :
Title=Ira
Artist=Year Of The Goat
Album=Novis Orbis Terrarum Ordinis
Tracknumber=4
Year=2019
Genre=Rock
Discnumber=1

[/more]

Register
(24) avkruchinin, Black Cat, Boozer, Brann, Cruor, Fryz, gena, Infidel, Konst, Kwaad, Lyrch, marilin, Nhmrath, Noizzy_Dog_FBG, oldvarg, Olethros, sludge666, stub888, thenecromancer, tormoz, VALERY, whitebros, wolverine, yuratroll,
Oct 4 2019, 16:28:32 Alfahanne - Atomvinter (2019)


*Artist: Alfahanne
*Album: Atomvinter
*Year: 2019
*Genre: Post-Black Metal/Rock
*Country: Sweden
*Format: mp3@CBR320kbps
*Size: 91MB

Tracklist:
1. Atomvinter 4:24
2. Lovers Against The World 3:25
3. Alla Mot Alla 4:00
4. A Place To Call Home (Ärla Boogie) 5:24
5. Sluten Cirkel 4:01
6. Sakna Mig Som Om Jag Var Död 3:44
7. The Heavy Burden 5:27
8. Himlen Kan Vänta 2:58
9. En Tight Knut 6:22
******************************
Total playing time: 39:45





[more=Technical info]
Input File: 4 - A Place to Call Home (Ärla Boggie).mp3
Channels : 2
Sample Rate : 44100
Precision : 16-bit
Duration : 00:05:24.46 = 14308598 samples = 24334.4 CDDA sectors
File Size : 13.1M
Bit Rate : 322k
Sample Encoding: MPEG audio (layer I, II or III)
Comments :
Title=A Place to Call Home (Ärla Boggie)
Artist=Alfahanne
Album=Atomvinter
Tracknumber=4
Year=2019
Genre=Rock/Hard Rock
Discnumber=1

[/more]

Register
(14) 0x13, aleon, alikkon, artscald, Brann, judaz, Mortuusinfernus, murian, Olethros, Ostinato, Rosen, stone88, xska, yuratroll,
Oct 4 2019, 16:19:24 Storm{O} - Finis Terrae (2019)


*Artist: Storm{O}
*Album: Finis Terrae
*Year: 2019
*Genre: Post-Metal/Post-Hardcore
*Country: Italy
*Format: mp3@CBR320kbps
*Size: 65MB

Tracklist:
1. Trema 01:24
2. Tempi Morti 02:01
3. Movente 01:23
4. Rilievo 02:03
5. Ho Chi Minh 02:33
6. Vetro 01:38
7. Progresso 02:32
8. Metropoli 02:28
9. Respiri 01:49
10. Lascito 02:22
11. Interludio 01:03
12. Niente 05:40
******************************
Total playing time: 26:56





[more=Extended info]released October 4, 2019

Recorded, mixed and mastered at La Distilleria by Maurizio Baggio in 2019

Luca Rocco: vocals
Giacomo Rento: guitars
Federico Trimeri: bass, synth on "Progresso"
Stefano Rutolini: drums

Artwork by Matteo Castro

Released by Moment of Collapse Records (DE), Skeletal Lightning (US), To Lose La Track (IT), Shove Records (IT), Pundonor Records (ES), Left Hand Label (UK/DE), Zegema Beach Records (CAN/NZ)[/more]

[more=Technical info]
Input File: STORM{O} - FINIS TERRAE - 03 Movente.mp3
Channels : 2
Sample Rate : 44100
Precision : 16-bit
Duration : 00:01:23.99 = 3703871 samples = 6299.1 CDDA sectors
File Size : 3.47M
Bit Rate : 331k
Sample Encoding: MPEG audio (layer I, II or III)
Comments :
Title=Movente
Artist=STORM{O}
Album=FINIS TERRAE
Tracknumber=3
Year=2019

[/more]

Register
(8) 0x13, artscald, marilin, metaljosue, Olethros, Ostinato, Rosen, Tyrone,
Oct 4 2019, 16:13:35 Storm{O} - Ere (2018)


*Artist: Storm{O}
*Album: Ere
*Year: 2018
*Genre: Post-Metal/Post-Hardcore
*Country: Italy
*Format: mp3@CBR320kbps
*Size: 75MB

Tracklist:
1. Taxidermia 04:03
2. Lama 01:11
3. Porta dell'Attimo 01:53
4. Praticamente Intero 01:50
5. Preludio 00:30
6. Meteorite 01:58
7. Organismo 02:28
8. Mantra 02:47
9. Metafora del Distacco 03:28
10. Cenere 02:12
11. Stasi 02:06
12. Mimesi 01:54
13. Attacco 02:48
******************************
Total playing time: 29:08





[more=Extended info]released February 2, 2018

Written by:
Luca Rocco - Vocals
Giacomo Rento - Guitars, Bass on "Stasi"
Federico Trimeri - Bass, Noise
Gabriele Coldepin - Drums

Recorded live and mixed
at Studio73, Ravenna, by Riccardo Pasini.

Mastering by Alan Douches
at West West Side Music, New York.

Released by Moment of Collapse Records, Shove, Legno[/more]

[more=Technical info]
Input File: STORM{O} - ERE - 03 Porta dell\'Attimo.mp3
Channels : 2
Sample Rate : 44100
Precision : 16-bit
Duration : 00:01:54.06 = 5029870 samples = 8554.2 CDDA sectors
File Size : 4.72M
Bit Rate : 331k
Sample Encoding: MPEG audio (layer I, II or III)
Comments :
Title=Porta dell'Attimo
Artist=STORM{O}
Album=ERE
Tracknumber=3
Year=2018

[/more]

Register
(5) artscald, marilin, Olethros, Ostinato, Rosen,
Oct 4 2019, 16:08:58 Storm{O} - 7" [ep] (2009)


*Artist: Storm{O}
*Album: 7" [ep]
*Year: 2009
*Genre: Post-Metal/Post-Hardcore
*Country: Italy
*Format: mp3@CBR320kbps
*Size: 15MB

Tracklist:
1. Incosiderata Putrefazione 03:18
2. Abbandono La Mia Volontà 03:20
******************************
Total playing time: 6:38





[more=Extended info]Luca: Screams
Federico: Bass
Giacomo: Guitars
Simone: Drums
credits
released November 22, 2009

Produced by Cynic Lab.

Recorded and Mixed by Rizoma Produzioni Studio in October-November 2007.
Remixed and Mastered by Nick Bavero at 1Hundred B Studio in March-April 2009.[/more]

[more=Technical info]
Input File: STORM{O} - 7- - 02 Abbandono La Mia Volontà.mp3
Channels : 2
Sample Rate : 44100
Precision : 16-bit
Duration : 00:03:20.89 = 8859337 samples = 15066.9 CDDA sectors
File Size : 8.10M
Bit Rate : 323k
Sample Encoding: MPEG audio (layer I, II or III)
Comments :
Title=Abbandono La Mia Volontà
Artist=STORM{O}
Album=7"
Tracknumber=2
Year=2009

[/more]

Register
(5) artscald, marilin, Olethros, Ostinato, Rosen,

11 Pages V   1 2 3 > » 
- Lo-Fi Version Support form
Copyrights and abuse reports form
Time is now: 9th July 2020 - 19:25:47