Welcome Guest ( Log In | Register )

История благодарностей участнику fylopaloma ::: Спасибо сказали: 2938 раз(а)
Дата поста: В теме: За сообщение: Спасибо сказали:
May 1 2021, 14:08:32 Ataraxia - Quasar (2020)


*Artist: Ataraxia
*Album: Quasar
*Year: 2020
*Genre: Darkwave/Neo-Folk/Ethereal
*Country: Italy
*Format: mp3@CBR320kbps
*Size: 137MB

Tracklist:
1. Iniziazione 11:45
2. Nebula 05:33
3. Oneness 08:16
4. Sex is a prayer 07:24
5. Radiance 08:18
6. The timeless 06:24
7. Beyondness 07:38
8. Timeline collapse 4:34
******************************
Total playing time: 59:52





[more=Technical info]
Input File: 06. The Timeless.mp3
Channels : 2
Sample Rate : 44100
Precision : 16-bit
Duration : 00:06:24.83 = 16971047 samples = 28862.3 CDDA sectors
File Size : 15.4M
Bit Rate : 321k
Sample Encoding: MPEG audio (layer I, II or III)

[/more]

Register
(17) A.L.Rapsod, Cartman223, gwar, HviteGuden, infiltrator, kimkayoung, Konst, leks, Maestrovs, nadin85, Olethros, Ostinato, SileniusLegard, thenecromancer, varlam4, ZamanFu, zoog,
Mar 31 2021, 11:01:37 Godspeed You! Black Emperor - G_D's Pee At State's End! (2021)


*Artist: Godspeed You! Black Emperor
*Album: G_D's Pee At State's End!
*Year: 2021
*Genre: Post Rock
*Country: Canada
*Format: mp3@CBR320kbps
*Size: 120MB

Tracklist:
1. "A Military Alphabet (five eyes all blind) (4521.0kHz 6730.0kHz 4109.09kHz) / Job's Lament / First of the Last Glaciers / where we break how we shine (Rockets for Mary)" 20:22
2. "Fire at Static Valley" 5:58
3. ""Government Came" (9980.0kHz 3617.1kHz 4521.0 kHz) / Cliffs Gaze / cliffs' gaze at empty waters' rise / Ashes to Sea or Nearer to Thee" 19:48
4. "Our Side Has to Win (for D.H.)" 6:30
******************************
Total playing time: 52:38



Preview 3

[more=Extended info]G_d's Pee at State's End! (stylised as G_d's Pee AT STATE'S END!) is the seventh studio album by Canadian post-rock band Godspeed You! Black Emperor, scheduled for release on 2 April 2021 by Constellation Records.[/more]

[more=Technical info]
Input File: 02-Fire at Static Valley.mp3
Channels : 2
Sample Rate : 44100
Precision : 16-bit
Duration : 00:05:58.50 = 15809894 samples = 26887.6 CDDA sectors
File Size : 14.3M
Bit Rate : 320k
Sample Encoding: MPEG audio (layer I, II or III)
Comments :
Title=Fire at Static Valley
Artist=Godspeed You! Black Emperor
Album=G_d's Pee At States End!
Tracknumber=2
Year=2021
Genre=Post-Rock

[/more]

Register
(15) Black Cat, deineath, gena, infiltrator, Kwaad, natrogrii, Olethros, Ostinato, Shadechaser, ShmiT, Un4given, winterfury, xska, Zoloft, zoog,
Mar 24 2021, 10:08:07 Liquid Tension Experiment - Liquid Tension Experiment 3 (2021)


*Artist: Liquid Tension Experiment
*Album: Liquid Tension Experiment 3
*Year: 2021
*Genre: Progressive Rock/Metal
*Country: United States
*Format: mp3@CBR320kbps
*Size: 140MB

Tracklist:
1. Hypersonic 08:22
2. Beating the Odds 06:09
3. Liquid Evolution 03:23
4. The Passage of Time 07:32
5. Chris & Kevin's Amazing Odyssey 05:04
6. Rhapsody in Blue 13:16
7. Shades of Hope 04:42
8. Key to the Imagination 13:14
******************************
Total playing time: 1:01:42






[more=Extended info]LIQUID TENSION EXPERIMENT, the legendary supergroup comprised of Mike Portnoy (Transatlantic, Sons of Apollo), John Petrucci (Dream Theater), Jordan Rudess (Dream Theater), and Tony Levin (King Crimson, Peter Gabriel) recently announced their return with a new album titled ‘LTE3’, due to be released April 16th, 2021 via InsideOutMusic, twenty-two years after the bands’ last studio album.

"’The Passage of Time’ was the very first song we composed together when we reunited this past summer. It was so exciting to be back in a room creating together again after so long (22 years for all 4 of us and over 10 years for the 3 of us since being together in DT).
This serves as a great first taste for the listeners as it combines so many of the musical elements that makes LTE unique"
-Mike Portnoy

“This was the first song we worked on and when it was done, we all knew once again how amazing it was to be working together. We knew we were on to something and that this was going to be a really amazing album. Nothing about the passage of over two decades could’ve done anything to change that. To me this song truly reflects the collaborative songwriting efforts of all four of us.”
-John Petrucci

There is an undeniable chemistry that happens when the four of us are together. Entering the studio and starting work on ‘The Passage of Time’ after 22 years literally gave me a whole new perspective on these important musical (and personal) relationships and the way time is so relative. We just jumped right in, it was like no time had passed at all, and we created a song that has so many of the elements that make LTE unique. Not a day has gone by since our last release when I wasn’t asked, “When is LTE getting back together again?” Now we can finally deliver, and I can’t wait for everybody to hear our creation.”
-Jordan Rudess

“From the murky depths of the lockdown, LTE has re-emerged, galvanized, dripping with ideas, and taking no prisoners. ‘The Passage of Time’ is just the beginning.”
-Tony Levin[/more]

[more=Technical info]
Input File: 05 - Chris & Kevin\'s Amazing Odyssey.mp3
Channels : 2
Sample Rate : 44100
Precision : 16-bit
Duration : 00:05:04.27 = 13418219 samples = 22820.1 CDDA sectors
File Size : 12.4M
Bit Rate : 325k
Sample Encoding: MPEG audio (layer I, II or III)
Comments :
Title=Chris & Kevin's Amazing Odyssey
Artist=Liquid Tension Experiment
Album=LTE3
Tracknumber=5
Year=2021

[/more]

Register
(35) ace73pq, BlackTroll, BladeOvDarkness, boby9052, Dreamtale, Faust_Vulkan_16, garml2, gena, gwynnbleid, Herrant, infiltrator, loicv70, LokoMadriz, lucifix, maochen, Marek, nikolay81, nygga, Old Vyaine, oldvarg, Olethros, Orgasmik, Paradayz, Penetralia, Reverend, sabbracadabra, sadmannn, SaintVitus, Shadowman, Slam91, smes, StabWound, wreak, Нигилист, скептик,
Feb 8 2021, 11:29:45 Rome - Parlez-Vous Hate? (2021)


*Artist: Rome
*Album: Parlez-Vous Hate?
*Year: 2021
*Genre: Neofolk
*Country: Luxembourg
*Format: mp3@CBR320kbps
*Size: 95MB

Tracklist:
1. Shangri-Fa
2. Parlez-Vous Hate?
3. Born In The E.U.
4. Death From Above
5. Panzerschokolade
6. Der Adler Trägt Kein Lied
7. Toll In The Great Death
8. Feral Agents
9. You Owe Me A Whole World
10. Blood For All
11. Alesia
12. Fort Nera, Eumesville
******************************
Total playing time: 41:31




[more=Technical info]
Input File: 06. Der Adler Tragt Kein Lied.mp3
Channels : 2
Sample Rate : 44100
Precision : 16-bit
Duration : 00:03:57.84 = 10488524 samples = 17837.6 CDDA sectors
File Size : 9.55M
Bit Rate : 321k
Sample Encoding: MPEG audio (layer I, II or III)
Comments :
Title=Der Adler Tragt Kein Lied
Artist=Rome
Album=Parlez-Vous Hate?
Tracknumber=6
Year=2021
Genre=NeoFolk

[/more]

Register
(18) A.L.Rapsod, Bruce, Cartman223, Druidir, Grimmsberg, infiltrator, MAYH, mondlicht, murayne, Olethros, Sjelekval, sludge666, Strygaldwir, Torlof, varlam4, Vitald, wtk.412, xska,
Jan 24 2021, 14:42:13 Of Feather And Bone - False Healer [ep] (2014)


*Artist: Of Feather And Bone
*Album: False Healer [ep]
*Year: 2014
*Genre: Death Metal/Crust
*Country: United States
*Format: mp3@CBR320kbps
*Size: 34MB

Tracklist:
1. Pestilence 02:55
2. Burdened 01:47
3. Borrowed Existence 02:30
4. False Healer 02:23
5. Your Truth Means Nothing 02:10
6. Hollow 02:07
******************************
Total playing time: 13:52





[more=Technical info]
Input File: 03 Borrowed Existence.mp3
Channels : 2
Sample Rate : 44100
Precision : 16-bit
Duration : 00:02:30.32 = 6628936 samples = 11273.7 CDDA sectors
File Size : 6.06M
Bit Rate : 323k
Sample Encoding: MPEG audio (layer I, II or III)
Comments :
Title=Borrowed Existence
Artist=Of Feather And Bone
Album=False Healer
Tracknumber=3/6
Year=2014
Genre=9

[/more]

Register
(13) andreikun, bOOLty, Hell_Is_Here, infiltrator, Olethros, Rosen, sludge666, Taakeferd, Tino, VALERY, varlam4, vyacheslav, wreak,
Jan 21 2021, 09:37:07 Steven Wilson - The Future Bites (2021)


*Artist: Steven Wilson
*Album: The Future Bites
*Year: 2021
*Genre: Progressive Rock/Electronic/Pop
*Country: United Kingdom
*Format: mp3@CBR320kbps
*Size: 95MB

Tracklist:
1. Unself 1:05
2. Self 2:55
3. King Ghost 4:06
4. 12 Things I Forgot 4:42
5. Eminent Sleaze 3:52
6. Man of the People 4:41
7. Personal Shopper 9:49
8. Follower 4:39
9. Count of Unease 6:08
******************************
Total playing time: 41:57





[more=Technical info]
Input File: 06 - Man of the People.mp3
Channels : 2
Sample Rate : 44100
Precision : 16-bit
Duration : 00:04:42.01 = 12436641 samples = 21150.8 CDDA sectors
File Size : 11.4M
Bit Rate : 323k
Sample Encoding: MPEG audio (layer I, II or III)
Comments :
Title=Man of the People
Artist=Steven Wilson
Album=The Future Bites
Tracknumber=6
Year=2021
Genre=92

[/more]

Register
(13) A.L.Rapsod, as71, djsema4, garml2, infiltrator, marilin, MAYH, multizwilling, Olethros, smes, xska, yuratroll, Нигилист,
Dec 12 2020, 10:07:41 Ghostemane - Anti-Icon (2020)


*Artist: Ghostemane
*Album: Anti-Icon
*Year: 2020
*Genre: Industrial/Noise/Trap Metal
*Country: United States
*Format: mp3@CBR320kbps
*Size: 83MB

Tracklist:
1. Intro Destitude 1:56
2. Vagabond 1:54
3. Lazaretto 1:53
4. Sacrilege 2:22
5. A.I. 2:55
6. Fed Up 2:32
7. The Winds of Change 2:40
8. Hydrochloride 2:27
9. Hellrap – 2:11
10. Anti-Social Masochistic Rage [ASMR] 3:14
11. Melancholic 4:43
12. Calamity 2:43
13. Falling Down 4:41
******************************
Total playing time: 36:11




[more=Extended info]Ghostemane – voice, lyrics, producer
Mark Bronzino – guitars
Cayle Sain – drums
Arthur Rizk – mixing, mastering[/more]

[more=Technical info]
Input File: 07. The Winds of Change.mp3
Channels : 2
Sample Rate : 44100
Precision : 16-bit
Duration : 00:00:00.16 = 7056 samples = 12 CDDA sectors
File Size : 6.45M
Bit Rate : 323M
Sample Encoding: MPEG audio (layer I, II or III)
Comments :
Title=The Winds of Change
Artist=Ghostemane
Album=Anti-Icon
Tracknumber=7
Year=2020-21-10
Genre=19

[/more]

Register
(5) djsema4, gwar, infiltrator, Olethros, xska,
Dec 9 2020, 10:49:17 Blind Guardian - Imaginations From The Other Side Live [live] (2020)


*Artist: Blind Guardian
*Album: Imaginations From The Other Side Live [live]
*Year: 2020
*Genre: Power Metal
*Country: Germany
*Format: mp3@CBR320kbps
*Size: 122MB

Tracklist:
1. Imaginations from the Other Side 08:26
2. I’m Alive 05:40
3. A Past and Future Secret 04:13
4. The Script for My Requiem 06:32
5. Mordred’s Song 05:20
6. Born in a Mourning Hall 05:37
7. Bright Eyes 05:41
8. Another Holy War 05:02
9. And the Story Ends 07:18
******************************
Total playing time: 53:49





[more=Extended info]25th Anniversary Edition.

Recorded Live in Oberhausen 2016.[/more]

[more=Technical info]
Input File: 04. The Script for My Requiem (Live).mp3
Channels : 2
Sample Rate : 44100
Precision : 16-bit
Duration : 00:06:33.01 = 17331785 samples = 29475.8 CDDA sectors
File Size : 15.8M
Bit Rate : 321k
Sample Encoding: MPEG audio (layer I, II or III)
Comments :
Title=The Script for My Requiem (Live)
Artist=Blind Guardian
Album=Imaginations from the Other Side Live
Tracknumber=4
Year=2020
Genre=9

[/more]

Register
(20) ace73pq, Aresson, Bergthron, infiltrator, LEGION69, Marek, MAYH, Narasimha, Olethros, randumbum, recber, Reverend, Rikardo90, Rosen, Rover, stumpheavyrock, Thiarnan, varlam4, wreak, ZA670,
Dec 8 2020, 10:22:17 Blackfield - For The Music (2020)


*Artist: Blackfield
*Album: For The Music
*Year: 2020
*Genre: Progressive Rock
*Country: United Kingdom
*Format: mp3@CBR320kbps
*Size: 69MB

Tracklist:
1. For The Music
2. After All
3. Garden Of Sin
4. Under My Skin
5. The Dream Of Love (feat. Avi Buffalo)
6. Over & Over
7. Falling
8. White Nights
9. Summer’s Gone
10. It’s So Hard
******************************
Total playing time: 30:18




[more=Extended info]As with previous album ‘Blackfield V’, Aviv has once again taken a central role as producer, lyricist, composer and instrumentalist, but Steven is still very much involved, playing guitar on several tracks and singing lead vocals on 3 songs. For The Music’s ten tracks move from psyche tinged melodies to exquisite balladry; a compact and fully realised expression of modern pop.[/more]

[more=Technical info]
Input File: 04 Under My Skin.mp3
Channels : 2
Sample Rate : 44100
Precision : 16-bit
Duration : 00:03:18.78 = 8766154 samples = 14908.4 CDDA sectors
File Size : 7.95M
Bit Rate : 320k
Sample Encoding: MPEG audio (layer I, II or III)
Comments :
Title=Under My Skin
Artist=Blackfield
Album=For The Music
Year=2020
Genre=92

[/more]

Register
(8) garml2, infiltrator, MAYH, Mplast, multizwilling, Olethros, xska, Нигилист,
Dec 8 2020, 10:13:52 Lykantropi - Spirituosa (2019)


*Artist: Lykantropi
*Album: Spirituosa
*Year: 2019
*Genre: 70's Psychedelic/Occult Rock
*Country: Sweden
*Format: mp3@CBR320kbps
*Size: 100MB

Tracklist:
1. Wild Flowers 04:12
2. Vestigia 04:32
3. Darkness 04:02
4. Sunrise 04:33
5. Songbird 04:36
6. Spirituosa 04:44
7. Queen of Night 04:49
8. Seven Blue 05:24
9. Sällsamma Natt 06:42
******************************
Total playing time: 43:34




[more=Technical info]
Input File: 04 - Sunrise.mp3
Channels : 2
Sample Rate : 44100
Precision : 16-bit
Duration : 00:04:34.07 = 12086267 samples = 20554.9 CDDA sectors
File Size : 11.0M
Bit Rate : 322k
Sample Encoding: MPEG audio (layer I, II or III)
Comments :
Title=Sunrise
Artist=Lykantropi
Album=Spirituosa
Tracknumber=4
Year=2019
Genre=Rock
Discnumber=1

[/more]

Register
(9) Boozer, infiltrator, marilin, oldvarg, Olethros, SyncestrA, Wail, Xtohar, yuratroll,
Dec 8 2020, 10:04:43 Lykantropi - Lykantropi (2017)


*Artist: Lykantropi
*Album: Lykantropi
*Year: 2017
*Genre: 70's Psychedelic/Occult Rock
*Country: Sweden
*Format: mp3@CBR320kbps
*Size: 95MB

Tracklist:
1 Black Old Stone 3:57
2 Mary Jane 3:58
3 Light Night 4:39
4 Julie (Old Death Whisper) 7:32
5 Alexandra 5:47
6 Blue Eyes 4:40
7 Raven 3:53
8 Dödens Dans 6:49
******************************
Total playing time: 41:15




[more=Extended info]Debut album.[/more]

[more=Technical info]
Input File: 3 Light Night.mp3
Channels : 2
Sample Rate : 44100
Precision : 16-bit
Duration : 00:04:39.57 = 12328905 samples = 20967.5 CDDA sectors
File Size : 11.3M
Bit Rate : 323k
Sample Encoding: MPEG audio (layer I, II or III)
Comments :
Title=Light Night
Artist=Lykantropi
Album=Lykantropi
Tracknumber=3/8
Year=2017
Genre=17

[/more]

Register
(12) Boozer, gena, infiltrator, marilin, oldvarg, Olethros, SyncestrA, thenecromancer, Wail, wgs73, Xtohar, yuratroll,
Nov 28 2020, 12:22:54 Paysage D'hiver - Schnee [compilation] (2020)


*Artist: Paysage D'hiver
*Album: Schnee [compilation]
*Year: 2020
*Genre: Black Metal/Ambient
*Country: Switzerland
*Format: mp3@CBR320kbps
*Size: 155MB

Tracklist:
1. Schnee I 17:59
2. Schnee II 11:00
3. Schnee III 17:39
4. Schnee IV 21:12
******************************
Total playing time: 1:07:50




[more=Extended info]Personal BC purchase.

"Schnee" ("snow") is omnipresent in the works of Swiss black metal artist Wintherr a.​k.​a.​ Paysage D'Hiver and turned into a four-part song cycle, released piece by piece on the compilation LP "Wurzelgeister" ('Schnee II', 2002) and on split records with Vinterriket ('Schnee I', 2003), Nordlicht and Drudkh ('Schnee III' and 'Schnee IV', 2017).
All four tracks - created within a time span of almost 20 years and dealing with different facets of the frozen element - are now available together for the first time ever on CD. They have been partly remixed and wholly remastered specially for this release.[/more]

[more=Technical info]
Input File: Paysage d\'Hiver - Schnee - 03 Schnee (III).mp3
Channels : 2
Sample Rate : 44100
Precision : 16-bit
Duration : 00:17:38.44 = 46676984 samples = 79382.6 CDDA sectors
File Size : 42.4M
Bit Rate : 320k
Sample Encoding: MPEG audio (layer I, II or III)
Comments :
Title=Schnee (III)
Artist=Paysage d'Hiver
Album=Schnee
Tracknumber=3
Year=2020

[/more]

Register
(68) A.L.Rapsod, acerbus, aimtoknow, Ainar, Blast, cancer1974, Constantinus I, craP_cillA, d0zer, El_Chibo, ent404, Evilded, Faust_Vulkan_16, Femto, FUDEDOR, garml2, gena, GuldenDraak, Hell_Is_Here, Hipgnosis, igore2911, Ildjarn, infiltrator, kefka, kim666, korovakaska, Lamby90, Lanceatum, LEGION69, Leolomb, lestllk, Luminous, m00n1ight, maochen, marilin, Maximvs, maxxxy, Mist13Signifier, Moonshtook, NappyRob, Occultas, Olethros, peppuzzo, rammmirez, randumbum, recber, ripper33, robertho777, Rosen, SaintVitus, Sanctus, sarcophagus, soulskinner681, Storky, stub888, supremo, Tarkron, thenecromancer, the_cleanser, The_Hound, Tyrone, VALERY, varlam4, vasiljev_sergej, Wail, wreak, ZambuL, zuiozuio,
Oct 16 2020, 12:03:09 En Minor - When The Cold Truth Has Worn Its Miserable Welcome Out (2020)


*Artist: En Minor
*Album: When The Cold Truth Has Worn Its Miserable Welcome Out
*Year: 2020
*Genre: Southern Rock
*Country: United States
*Format: mp3@CBR320kbps
*Size: 101MB

Tracklist:
1. Mausoleums 04:56
2. Blue 05:07
3. On The Floor 05:22
4. Dead Can't Dance 02:38
5. Love Needs Love 03:38
6. Warm Sharp Bath Sleep 04:20
7. Melancholia 03:19
8. This Is Not Your Day 03:02
9. Black Mass 04:40
10. Hats Off 02:51
11. Disposable For You 04:26
******************************
Total playing time: 44:19






[more=Extended info]Philip H. Anselmo
Vocals, Guitar, Percussions
Stephen Taylor
Guitar
Kevin Bond
Guitar
Steve Bernal
Cello
Calvin Dover
Keyboards
Joiner Dover
Bass
Jimmy Bower
Drums
Paul Webb
Guitar[/more]

[more=Technical info]
Input File: 03. On the Floor.mp3
Channels : 2
Sample Rate : 44100
Precision : 16-bit
Duration : 00:00:00.32 = 14200 samples = 24.1497 CDDA sectors
File Size : 12.9M
Bit Rate : 321M
Sample Encoding: MPEG audio (layer I, II or III)
Comments :
Title=On the Floor
Artist=En Minor
Album=When the Cold Truth Has Worn Its Miserable Welcome Out
Tracknumber=3
Year=2020
Genre=Dark Folk
Discnumber=1

[/more]

Register
(5) ENDSMOUTH, grimoir, infiltrator, Olethros, xska,
Oct 16 2020, 11:58:57 En Minor - En Minor [ep] (2019)


*Artist: En Minor
*Album: En Minor [ep]
*Year: 2019
*Genre: Southern Rock
*Country: United States
*Format: mp3@CBR320kbps
*Size: 23MB

Tracklist:
1. On The Floor 05:22
2. There's A Long Way To Go 02:46
******************************
Total playing time: 8:08




[more=Extended info]7" vinyl via Housecore Records.

released August 2, 2019

On The Floor
- music by Kevin Bond
- lyrics by Philip H. Anselmo

- Kevin Bond: acoustic & electric guitar / bass
- Stephen Taylor: guitar
- Calvin Dover: keys
- Steve Bernal: cello
- Jimmy Bower: drums
- Philip H. Anselmo: vocals

There's A Long Way To Go
- music and lyrics by Philip H. Anselmo

- Philip H. Anselmo: guitars / bass / vocals
- Calvin Dover: keys
- Steve Bernal: cello
- Jimmy Bower: drums

© Housecore Records, 2019[/more]

[more=Technical info]
Input File: 01. On the Floor.mp3
Channels : 2
Sample Rate : 44100
Precision : 16-bit
Duration : 00:05:22.22 = 14209682 samples = 24166.1 CDDA sectors
File Size : 14.5M
Bit Rate : 359k
Sample Encoding: MPEG audio (layer I, II or III)
Comments :
Title=On the Floor
Artist=En Minor
Album=En Minor
Tracknumber=1
Year=2019
Genre=Rock
Discnumber=1

[/more]

Register
(3) ENDSMOUTH, infiltrator, Olethros,
Sep 23 2020, 09:35:37 The Ocean Collective - Phanerozoic Ii: Mesozoic | Cenozoic (2020)


*Artist: The Ocean Collective
*Album: Phanerozoic Ii: Mesozoic | Cenozoic
*Year: 2020
*Genre: Progressive/Atmospheric Sludge/Post-Hardcore
*Country: Germany
*Format: mp3@CBR320kbps
*Size: 112MB

Tracklist:
1. Triassic 08:31
2. Jurassic | Cretaceous 13:24
3. Palaeocene 04:00
4. Eocene 03:57
5. Oligocene 04:00
6. Miocene | Pliocene 04:40
7. Pleistocene 06:40
8. Holocene 05:47
******************************
Total playing time: 50:59





[more=Extended info]Tracked in Iceland, Spain and Germany.[/more]

[more=Technical info]
Input File: 05 Oligocene.mp3
Channels : 2
Sample Rate : 44100
Precision : 16-bit
Duration : 00:04:00.47 = 10604859 samples = 18035.5 CDDA sectors
File Size : 9.87M
Bit Rate : 328k
Sample Encoding: MPEG audio (layer I, II or III)
Comments :
Title=Oligocene
Artist=The Ocean
Album=Phanerozoic II: Mesozoic | Cenozoic
Tracknumber=5/8
Year=2020
Genre=Metal

[/more]

Register
(45) BandR75, Bloodn Lord, boby9052, bubba, DenisKov, djsema4, Femto, garml2, gena, Ghostb, Hell_Is_Here, infiltrator, insufferable, J0k3r, John Beak, Johnix, judaz, kolar666, Kostolom, laTERNentrager, Ludwig Hagen, maochen, merfo, Metalass, metaljosue, MMMMM, multizwilling, Noxius, Olethros, Ostinato, PaxYkko333, randumbum, Rosen, SAPOGi, Shadowman, sludge666, smes, sweetredka, VALERY, wreak, Xor, xska, yuratroll, Нигилист, скептик,
Sep 17 2020, 13:09:41 Sumac - May You Be Held (2020)


*Artist: Sumac
*Album: May You Be Held
*Year: 2020
*Genre: Atmospheric Sludge
*Country: Canada
*Format: mp3@CBR320kbps
*Size: 136MB

Tracklist:
1. A Prayer for Your Path 05:38
2. May You Be Held 19:52
3. The Iron Chair 08:16
4. Consumed 16:58
5. Laughter and Silence 09:00
******************************
Total playing time: 59:44




[more=Technical info]
Input File: 02 - May You Be Held.mp3
Channels : 2
Sample Rate : 44100
Precision : 16-bit
Duration : 00:19:53.08 = 52614872 samples = 89481.1 CDDA sectors
File Size : 48.2M
Bit Rate : 323k
Sample Encoding: MPEG audio (layer I, II or III)
Comments :
Title=May You Be Held
Artist=SUMAC
Album=May You Be Held
Tracknumber=2/5
Year=2020
Genre=GetMetal.CLUB

[/more]

Register
(25) AlexSmith, BandR75, BERZERK, boby9052, dabiz, dalek, gena, grimoir, infiltrator, Kuratsu, marilin, Morgoth, nemx, Niknne, Olethros, randumbum, RENыч, ripper33, robertho777, Rosen, sarcophagus, sludge666, stumpheavyrock, VALERY, wreak,
Aug 17 2020, 10:27:21 Metallica - S&m 2 [live] (2020)


*Artist: Metallica
*Album: S&m 2 [live]
*Year: 2020
*Genre: Heavy/Thrash Metal
*Country: United States
*Format: mp3@CBR320kbps
*Size: 283MB

Tracklist:
Disc 1
1. The Ecstacy of Gold (Ennio Morricone cover) 02:43
2. The Call of Ktulu 09:13
3. For Whom the Bell Tolls 04:36
4. The Day That Never Comes 08:26
5. The Memory Remains 05:42
6. Confusion 06:40
7. Moth into Flame 06:17
8. The Outlaw Torn 10:02
9. No Leaf Clover 05:29
10. Halo of Fire 08:19
Disc 2
1. Intro to "Scythian Suite" 05:16
2. Scythian Suite, Opus 20: The Enemy God and the Dance of the Dark Spirits 03:39
3. Intro to "The Iron Foundry" 01:02
4. The Iron Foundry, Opus 19 04:15
5. The Unforgiven III 08:18
6. All Within My Hands 06:13
7. (Anesthesia) – Pulling Teeth 07:27
8. Wherever I May Roam 06:32
9. One 09:23
10. Master of Puppets 08:29
11. Nothing Else Matters 06:39
12. Enter Sandman 08:47
******************************
Total playing time: 2:23:27





[more=Technical info]
Input File: 04. Mosolov The Iron Foundry, Op. 19 [Live].mp3
Channels : 2
Sample Rate : 44100
Precision : 16-bit
Duration : 00:04:15.95 = 11287395 samples = 19196.2 CDDA sectors
File Size : 10.4M
Bit Rate : 325k
Sample Encoding: MPEG audio (layer I, II or III)
Comments :
Title=Mosolov: The Iron Foundry, Op. 19 [Live]
Artist=Metallica & The San Francisco Symphony
Album=S&M2 [Live]
Tracknumber=04/12
Year=2020
Genre=Metal
Discnumber=2/2

[/more]

Register
(20) ace73pq, ahp, andy584, cancer1974, caro, Cartman223, infiltrator, kostja, LightWizard, Mihalik, multizwilling, Olethros, rammmirez, recber, Rosen, thenecromancer, VALERY, yuratroll, ZA670, zdcaixao,
Aug 11 2020, 08:55:20 Primitive Man - Immersion (2020)


*Artist: Primitive Man
*Album: Immersion
*Year: 2020
*Genre: Sludge/Doom Metal/Noise
*Country: United States
*Format: mp3@CBR320kbps
*Size: 83MB

Tracklist:
1. The Lifer 07:32
2. Entity 05:02
3. Menacing 08:01
4. ∞ 02:21
5. Foul 07:10
6. Consumption 05:50
******************************
Total playing time: 35:56





[more=Extended info]Our first album only has blues/stoner/traditional doom riffs in it so that we could convince people to listen to us. Fully knowing that we were about to just fucking shit all over that idea & play what we really wanted. Album out on Friday. Sorry.[/more]

[more=Technical info]
Input File: 04-.mp3
Channels : 2
Sample Rate : 44100
Precision : 16-bit
Duration : 00:02:21.93 = 6259289 samples = 10645 CDDA sectors
File Size : 5.88M
Bit Rate : 332k
Sample Encoding: MPEG audio (layer I, II or III)
Comments :
Title=∞
Artist=Primitive Man
Album=Immersion
Tracknumber=4
Year=2020
Genre=Sludge Metal
Discnumber=1/1

[/more]

Register
(37) 555, alikkon, boby9052, Boozer, Daale, dabiz, dalek, Femto, gena, GFW, HMHamster, infiltrator, infozahist, kimkayoung, marilin, moshama, Olethros, Ostinato, Purestenchkvlt, randumbum, Rosen, sacredserenity, SaintVitus, Scorpi, sludge666, Spunkynut, stub888, stumpheavyrock, tim47, Tyrone, VALERY, valgalder, vosmidesijatye, wreak, wtk.412, yuratroll, Авел,
Jul 27 2020, 11:10:20 Deep Mountains - 平衡世界的意志2 | Will Of A Balanced World Volume Ii (2019)


*Artist: Deep Mountains
*Album: 平衡世界的意志2 | Will Of A Balanced World Volume Ii
*Year: 2019
*Genre: Post-Rock/Shoegaze
*Country: China
*Format: mp3@CBR320kbps
*Size: 105MB

Tracklist:
1. 我无法眼看着世界坠落却无动于衷 / I Can't Be Indifferent When I See the World Falling 04:20
2. 伟大时代的晚上 / Dark Side of a Great Epoch 06:12
3. 酒狂 / Methomania 08:26
4. 祖国之歌 / My Motherland 00:04
5. 秋水长天 / Autumn Stream and Vast Sky 07:47
6. 不要为我的死而悲伤 / Don't Grieve for My Death 05:49
7. 送别2018 / Farewell 2018 03:15
8. 一半火焰一半海水 / Half Ocean, Half Blaze 10:40
******************************
Total playing time: 46:33




[more=Technical info]
Input File: 03 - 酒狂 Methomania.mp3
Channels : 2
Sample Rate : 44100
Precision : 16-bit
Duration : 00:08:26.52 = 22337488 samples = 37988.9 CDDA sectors
File Size : 20.3M
Bit Rate : 320k
Sample Encoding: MPEG audio (layer I, II or III)
Comments :
Title=酒狂 | Methomania
Artist=Deep Mountains (深山)
Album=Will of a Balanced World Volume Ⅱ (平衡世界的意志2)
Tracknumber=3
Year=2019
Genre=Rock

[/more]

Register
(4) infiltrator, murayne, Olethros, satanist666,
Jul 27 2020, 11:08:05 Deep Mountains - 平衡世界的意志1/Will Of A Balanced World Volume I (2019)


*Artist: Deep Mountains
*Album: 平衡世界的意志1/Will Of A Balanced World Volume I
*Year: 2019
*Genre: Post-Rock/Shoegaze
*Country: China
*Format: mp3@CBR320kbps
*Size: 116MB

Tracklist:
1. 后腰之王 / King of Hot Rock 06:02
2. 刺破地平线 2019 / Penetrate the Horizon 2019 08:16
3. 昨日重重 / Yesterday Story 05:22
4. 山海经 / The Classic of Mountains and Seas 07:42
5. 彩虹曲 / Rainbow 03:58
6. 泰安199X / Tai’an in the 1990's 05:49
7. 直到世界将你忘记 / Until the World No Longer Remembers 05:02
8. 胖次之歌 / Solo from Leo's Dog 00:48
9. 朋克万万岁 / Long Live Punk 07:42
******************************
Total playing time: 50:41




[more=Technical info]
Input File: 03 - 昨日重重 Yesterday Story.mp3
Channels : 2
Sample Rate : 44100
Precision : 16-bit
Duration : 00:05:23.05 = 14246549 samples = 24228.8 CDDA sectors
File Size : 12.9M
Bit Rate : 320k
Sample Encoding: MPEG audio (layer I, II or III)
Comments :
Title=昨日重重 | Yesterday Story
Artist=Deep Mountains (深山)
Album=Will of a Balanced World Volume I (平衡世界的意志1)
Tracknumber=3
Year=2019
Genre=Rock

[/more]

Register
(6) infiltrator, murayne, Olethros, satanist666, ShmiT, thenecromancer,
Jul 17 2020, 15:00:00 Deep Mountains - 平衡世界的意志2 | Will Of A Balanced World Volume Ii (2019)


*Artist: Deep Mountains
*Album: 平衡世界的意志2 | Will Of A Balanced World Volume Ii
*Year: 2019
*Genre: Post-Rock/Shoegaze
*Country: China
*Format: mp3@CBR320kbps
*Size: 105MB

Tracklist:
1. 我无法眼看着世界坠落却无动于衷 / I Can't Be Indifferent When I See the World Falling 04:20
2. 伟大时代的晚上 / Dark Side of a Great Epoch 06:12
3. 酒狂 / Methomania 08:26
4. 祖国之歌 / My Motherland 00:04
5. 秋水长天 / Autumn Stream and Vast Sky 07:47
6. 不要为我的死而悲伤 / Don't Grieve for My Death 05:49
7. 送别2018 / Farewell 2018 03:15
8. 一半火焰一半海水 / Half Ocean, Half Blaze 10:40
******************************
Total playing time: 46:33




[more=Technical info]
Input File: 03 - 酒狂 Methomania.mp3
Channels : 2
Sample Rate : 44100
Precision : 16-bit
Duration : 00:08:26.52 = 22337488 samples = 37988.9 CDDA sectors
File Size : 20.3M
Bit Rate : 320k
Sample Encoding: MPEG audio (layer I, II or III)
Comments :
Title=酒狂 | Methomania
Artist=Deep Mountains (深山)
Album=Will of a Balanced World Volume Ⅱ (平衡世界的意志2)
Tracknumber=3
Year=2019
Genre=Rock

[/more]

Register
(2) kimkayoung, thenecromancer,
Jul 17 2020, 14:55:48 Deep Mountains - 平衡世界的意志1/Will Of A Balanced World Volume I (2019)


*Artist: Deep Mountains
*Album: 平衡世界的意志1/Will Of A Balanced World Volume I
*Year: 2019
*Genre: Post-Rock/Shoegaze
*Country: China
*Format: mp3@CBR320kbps
*Size: 116MB

Tracklist:
1. 后腰之王 / King of Hot Rock 06:02
2. 刺破地平线 2019 / Penetrate the Horizon 2019 08:16
3. 昨日重重 / Yesterday Story 05:22
4. 山海经 / The Classic of Mountains and Seas 07:42
5. 彩虹曲 / Rainbow 03:58
6. 泰安199X / Tai’an in the 1990's 05:49
7. 直到世界将你忘记 / Until the World No Longer Remembers 05:02
8. 胖次之歌 / Solo from Leo's Dog 00:48
9. 朋克万万岁 / Long Live Punk 07:42
******************************
Total playing time: 50:41




[more=Technical info]
Input File: 05 - 彩虹曲 Rainbow.mp3
Channels : 2
Sample Rate : 44100
Precision : 16-bit
Duration : 00:03:58.17 = 10503473 samples = 17863 CDDA sectors
File Size : 9.53M
Bit Rate : 320k
Sample Encoding: MPEG audio (layer I, II or III)
Comments :
Title=彩虹曲 | Rainbow
Artist=Deep Mountains (深山)
Album=Will of a Balanced World Volume I (平衡世界的意志1)
Tracknumber=5
Year=2019
Genre=Rock

[/more]

Register
(1) kimkayoung,
Jul 17 2020, 14:51:27 Deep Mountains - Perforate The Horizons [ep] (2019)


*Artist: Deep Mountains
*Album: Perforate The Horizons [ep]
*Year: 2019
*Genre: Post-Rock/Shoegaze
*Country: China
*Format: mp3@CBR128kbps
*Size: 29MB

Tracklist:
1. 序曲·星光 | Prologue - Starlight 03:36
2. 刺破地平線 | Perforate the Horizon 08:06
3. 結束曲·雨洗夜秋傷城 | Seattle Blues 03:39
4. 噩夢 | The Chinese Nightmare 07:49
5. 刺破地平線 (器樂版) | Perforate the Horizon 08:07
******************************
Total playing time: 31:17




[more=Technical info]
Input File: 03.DEEP MOUNTAINS - 結束曲·雨洗夜秋傷城 _ Seattle Blues.mp3
Channels : 2
Sample Rate : 44100
Precision : 16-bit
Duration : 00:03:40.00 = 9701868 samples = 16499.8 CDDA sectors
File Size : 3.52M
Bit Rate : 128k
Sample Encoding: MPEG audio (layer I, II or III)

[/more]

Register
(1) satanist666,
Jul 6 2020, 15:48:32 Yob - Pickathon 2019 - Live From The Galaxy Barn [live] (2020)


*Artist: Yob
*Album: Pickathon 2019 - Live From The Galaxy Barn [live]
*Year: 2020
*Genre: Stoner/Doom Metal
*Country: United States
*Format: mp3@CBR320kbps
*Size: 136MB

Tracklist:
1. Ball of Molten Lead 12:28
2. The Lie that is Sin 13:09
3. Marrow 19:22
4. Burning the Altar 14:55
******************************
Total playing time: 59:54




[more=Extended info]All proceeds will be donated to the Navajo Nation Covid Relief Fund.[/more]

[more=Technical info]
Input File: YOB - Pickathon 2019 - Live from the Galaxy Barn - 01 Ball of Molten Lead.mp3
Channels : 2
Sample Rate : 44100
Precision : 16-bit
Duration : 00:12:28.82 = 33022874 samples = 56161.4 CDDA sectors
File Size : 30.0M
Bit Rate : 321k
Sample Encoding: MPEG audio (layer I, II or III)
Comments :
Title=Ball of Molten Lead
Artist=YOB
Album=Pickathon 2019 - Live from the Galaxy Barn
Tracknumber=1
Year=2020
Genre=GetMetal.CLUB

[/more]

Register
(15) 555, ahp, BERZERK, gena, infiltrator, kolar666, lordbathor, Lukittaz, Mogozoz, Olethros, ripper33, Rosen, VALERY, wreak, Yorker,
Jun 23 2020, 13:40:38 The Moon And The Nightspirit - Aether (2020)
Register
(6) BlackTroll, Forest, infiltrator, leks, lucifix, smes,

12 Pages V   1 2 3 > » 
- Lo-Fi Version Support form
Copyrights and abuse reports form
Time is now: 26th July 2021 - 06:33:08