Welcome Guest ( Log In | Register )

История благодарностей участнику RunningWild_AT ::: Спасибо сказали: 1118 раз(а)
Дата поста: В теме: За сообщение: Спасибо сказали:
Oct 6 2022, 17:47:43 Violation - Carbonized [demo] (1996)
as requested by Carcharoth and others…

Register
(4) canadaspaceman, Carcharoth, hell_armageddon, thenecromancer,
Oct 6 2022, 16:17:45 Withdraw - Rwp Hymn [ep] (2022)


*Artist: Withdraw
*Album: Rwp Hymn [ep]
*Year: 2022
*Genre: Black Metal
*Country: Austria
*Format: mp3@VBR166kbps
*Size: 23MB

Tracklist:
01. RWP Hymn (03:36)
02. RWP Hymn (Crustgrind version) (02:21)
03. RWP Hymn (Grind Version) (02:17)
04. RWP Hymn (Hardcore version) (02:05)
05. RWP Hymn (Metalcore version) (02:25)
06. RWP Hymn (NuMetal version) (02:16)
07. RWP Hymn (Power version) (01:55)
08. RWP Hymn (Punkrock version) (01:45)
******************************
Total playing time: 18:40

[more=Extended info]I´m very proud to present our Label Anthem! - Both visually and in Audio. ;P
If you need lossless or like to own it digitally, please use the download codes given here at MetalArea. Please don´t upload lossless - thanks.
• Rainer (co-owner of Running Wild Productions)[/more]

Register
(1) artscald,
Sep 7 2022, 00:41:29 Psycho Scream - Demo1996 [demo] (1996)
as requested by Carcharoth and others…

Register

(2) anonenone, thenecromancer,
Jun 17 2022, 23:55:52 Death Rising - Lovepoems & Hatetirades (2021)
Their tracks "Intro" and "Made of Ice" are featured on Austrian Metal News - Vol. 2:


(1) thenecromancer,
Jun 11 2022, 03:06:23 RUNNING WILD PRODUCTIONS
Austrian Metal News – Vol. 2 (2021)

The AMeN.V2 sampler was released recently, this time we feature genres like Heavy/Thrash/Melodic Metal.
Check it out at

(2) canadaspaceman, thenecromancer,
Dec 18 2021, 04:48:46 RUNNING WILD PRODUCTIONS
International shipping will start on Monday (Dec 20th). Get this 1€ sampler while it´s hot…

(3) canadaspaceman, Carcharoth, thenecromancer,
Dec 14 2021, 03:54:32 Vnzvcht - Kapitel 1: Der Seelische Tod Eines Kindes [ep] (2021)
Song "Sprung in den Leichenfluss" is featured as Intro/Outro on Austrian Metal News - Vol. 1
(1) thenecromancer,
Dec 3 2021, 05:00:42 RUNNING WILD PRODUCTIONS
Austrian Metal News – Vol. 1 (2021)

We are very proud to present our second release, the AMeN-V1 sampler, you will find it on pre-order here:
RWP: "Dive with us into the vast, great Austrian metal scene - we introduce 16 of the most promising, emerging Black/Death Metal acts from all regions of our country."

But hey, no empty promises, we said:
Our goal is to make this sampler AFFORDABLE for EVERY metalhead on this planet to spread it around around the WORLD (any country, any continent).

So never mind the digital release but rather buy the disc, as we offer the Limited Edition Compact Disc cased in a Digifile plus Booklet for less than ► 1 EURO ◄.
1 Euro is 83 Russian Rubels is 1,1 US dollar is 128 Yen and so on.

And that´s not all, we also provide a flat rate for shipping which is 2 EUR worldwide.
You probably never got a brand-new high-quality release that cheap, so don't hesitate for long, we expect our edition to be sold out soon.
So that´s what you get:
• 1 CD, peppered with 80 minutes of Extreme Metal by 16 Austrian bands encased in a valuable 6-panel Digifile provided with an 8-pages booklet for less then 1 Euro.

(2) canadaspaceman, Carcharoth,
Dec 3 2021, 04:28:20 RUNNING WILD PRODUCTIONS
May I introduce? → Running Wild Productions



The Mission of RWP:
Running Wild Productions is a non-profit label with the goal to support Austrian Metal bands.
We offer low-budget production services for self-releases on CD.
For this purpose, we invented LetterShipping digifile CDs, with the aim of sending them all over the world by letter mail at a low cost. (Be assured … we will prove it!)

(3) canadaspaceman, Carcharoth, thenecromancer,
May 6 2020, 11:32:26 Skylla - Mother Crataeïs [ep] (2001)


*Artist: Skylla
*Album: Mother Crataeïs [ep]
*Year: 2001
*Genre: Doom/Death Metal
*Country: Netherlands
*Format: mp3@CBR128kbps
*Size: 27MB

Tracklist:
01.  Coat of Tar  05:47
02.  Bewitched and haunted  08:12
03.  The lost Cornucopia  08:08
04.  Bleak  07:11
******************************
Total playing time: 29:18

M-A

[more=Extended info]requested[/more]

[more=Technical info]
Input File: Skylla [NLD] — 2001 — Mother Crataeïs — 02 — Bewitched and haunted.mp3
Channels : 2
Sample Rate : 44100
Precision : 16-bit
Duration : 00:08:12.13 = 21702801 samples = 36909.5 CDDA sectors
File Size : 7.88M
Bit Rate : 128k
Sample Encoding: MPEG audio (layer I, II or III)
Comments :
Title=Bewitched and haunted
Artist=Skylla [NLD]
Album=Mother Crataeïs
Tracknumber=02
Year=2001
Genre=Doom/Death Metal

[/more]

Register
(8) BlackArrow, Olethros, Rosen, sergsazan, Synthaeon, thenecromancer, VALERY, Wail,
Feb 27 2020, 01:06:09 Negligent Collateral Collapse - 28 Minutes of Silence for All Innocent Victims...And Boneses [best of/compilation] (2010)
QUOTE(Proteus_666 @ Jan 14 2020, 10:31:53) *
reupload please

re-up (vbr199):
Register

(1) Proteus_666,
Nov 5 2019, 03:28:45 Neolith - Igne Natura Renovabitur Integra (1998)
QUOTE(VLADISLAV_V_K @ Nov 2 2019, 10:35:18) *
FLAC, please ! pray.gif

I really don´t understand what´s wrong with the cbr320 posted by Borderline1991, but sure your $15K hifi-equipment will make this an extra-ordinary listening experience and not just a waste of discspace… 20.gif
So here´s (as requested) a super-duper HQ version of this excellent album, enjoy. smile3.gif

► FLAC24 (1.72 GB) - get it while it´s hot.
Register
(3) Evilded, Synthaeon, VLADISLAV_V_K,
Oct 29 2019, 01:15:16 Laceration A.D. - Start Swingin (Ask Questions Later) [demo] (2002)
FYI: Demo title is "Start Swingin (Ask Questions Later)".
Cover and slightly different track titles added to M-A
(4) canadaspaceman, Moldavite, Proteus_666, Wail,
Aug 7 2019, 02:11:07 Septicemia - Revenge On Mankind [demo] (1998)
Wow, another amazing share by you, Proteus! 9.gif
Long-time on my wishlist, I never handled to catch this demo…
pray.gif Big thanks, you rule bro!
(2) pichileon, Proteus_666,
Aug 5 2019, 13:46:34 Mortal Remains - Mortal Remains (1994)
QUOTE(Proteus_666 @ Aug 2 2019, 12:02:16) *
reupload please this one

re-up: cbr192
Register
(6) AndreFrancis, infiltrator, scorpionmk, thenecromancer, troll_swamp, Герб,
May 19 2019, 00:19:11 Demolition - Strike Force [ep] (2007)
Low bitrate but good rip (likely from mySpace), so maybe better than nothing. - Excellent technical TM (teaser) that has to be heard:
vbr120
Register

Requested by hollobollo, Genuine Thrashiac, Cal11, SpeedThrasher, Mortul.
(2) pichileon, stumpheavyrock,
May 13 2019, 03:17:04 Incarnator
QUOTE(canadaspaceman @ Apr 3 2019, 06:39:39) *
+ 2 pray.gif
I am joining the request for everything by INCARNATOR.
I have Nordic Holocaust @192

Seems to be a much sought-after demo.
More a rehearsal than a well-produced studio promo track though.

Requested by Wintherzorn, Bloodlust, hellkult, SlimBZ, thenecromancer, CanadaSpaceman and other boards.
Just uploaded, waiting for moderation… (dedicated to CanadaSpaceman) ► Incarnator - Promo [demo] (1992)

QUOTE(Bloodlust @ Oct 29 2012, 13:09:50) *
Great news! I have actually waited for this moment for years.

(2) canadaspaceman, thenecromancer,
May 13 2019, 03:08:11 Incarnator - Promo [demo] (1992)


*Artist: Incarnator
*Album: Promo [demo]
*Year: 1992
*Genre: Black Metal
*Country: Norway
*Format: mp3@CBR192kbps
*Size: 7MB

Tracklist:
01.  In nocturnal Glory  (05:04)
******************************
Total playing time: 5:04

[more=Extended info]Seems to be a much [url="https://metalarea.org/forum/index.php?showtopic=155106"]sought-after demo[/url].
More a rehearsal than a well-produced studio promo track though.[/more]

[more=Technical info]
Input File: Incarnator [NOR] — 1992 — [Promo 1992] — 01 — In nocturnal Glory.mp3
Channels : 2
Sample Rate : 44100
Precision : 16-bit
Duration : 00:05:04.20 = 13415000 samples = 22814.6 CDDA sectors
File Size : 7.29M
Bit Rate : 192k
Sample Encoding: MPEG audio (layer I, II or III)
Comments :
Title=In nocturnal Glory
Artist=Incarnator [NOR]
Album=[Promo 1992]
Tracknumber=01
Year=1992
Genre=Black Metal

[/more]

Register
(18) 1968_janeart, Antichrist, Bloodlust, Boozer, canadaspaceman, Carcharoth, dermarsoran, FUDEDOR, luxxul, MP101M, Rosen, Rudolfo_Metal, RUSP73, Sjelekval, stub888, stumpheavyrock, thenecromancer, Wail,
Apr 9 2019, 17:52:47 Julie Laughs Nomore - Julie Laughs Nomore [ep] (1996)
QUOTE(Proteus_666 @ Apr 9 2019, 10:05:03) *
reup please.

Register


(10) Carcharoth, Deni, METALHUNTER, morbidangelo, pichileon, Proteus_666, strato20, Wail, Xtohar, Z28517,
Apr 8 2019, 21:37:30 Bloodshed - Fairyland [demo] (1998)
Register
(4) thenecromancer, wgs73, Xtohar, Z28517,
Apr 5 2019, 11:54:55 Carronya - Demo [demo] (1994)
QUOTE(Borderline1991 @ Mar 29 2019, 17:57:51) *
+1

Register
(9) Alfredoelruso, BemoaningSign, Moldavite, stumpheavyrock, thenecromancer, warrr, wendigo, Xtohar, Герб,
Mar 15 2019, 02:23:39 Krabathor & Pandemia - The Rise Of Brutality/Pain [split] (1996)
QUOTE(Borderline1991 @ Mar 14 2019, 16:15:12) *
please reupload.

cbr128
Register

(2) dermarsoran, Moldavite,
Feb 12 2019, 15:44:04 On Wings - Tearing Away [demo] (1995)
I´ll stick to the given Myzuka.me share, it´s the better rip (both spek and quality).
Register
(3) elchapo, serhio, thenecromancer,
Jan 17 2019, 13:50:21 Asyndess - Illumination [demo] (1995)
Wow, thanks for the detailed statement, couldn´t say any better - it´s like out of the textbook…

Absolutely agree, usually I also try to find highest possible bitrate on re-ups without previous checking for quality issues .

QUOTE(Borderline1991 @ Jan 17 2019, 09:01:43) *
… best to buy the actual original/physical release. Nothing ever compares to that, and no digitization can replace owning original.
Another sentence out of the textbook!

Support the bands and buy the music you like.
 
(1) Moldavite,
Jan 16 2019, 03:17:17 Asyndess - Desesperances (1996)
QUOTE(thenecromancer @ Jan 14 2019, 22:26:43) *
From the web, same bitrate (cbr192)
I'm looking for the tape-rip version (just in case...): https://www.discogs.com/Asyndess-Desesperan...release/6331955

Forget about this webrip Tony!
The Bandcamp rip (cbr128) sounds way better - and furthermore provides complete tracks #3 and #12!
(1) thenecromancer,

11 Pages V   1 2 3 > » 
- Lo-Fi Version Support form
Copyrights and abuse reports form
Time is now: 27th November 2022 - 02:05:52