Welcome Guest ( Log In | Register )

История благодарностей участнику Carcharoth ::: Спасибо сказали: 1908 раз(а)
Дата поста: В теме: За сообщение: Спасибо сказали:
Jul 26 2022, 14:03:34 Feldgrau - Feuer & Blut [ep] (2021)


*Artist: Feldgrau
*Album: Feuer & Blut [ep]
*Year: 2021
*Genre: Black Metal
*Country: Germany
*Format: mp3@CBR320kbps
*Size: 43MB

Tracklist:
01. 1917 - Intro 00:57
02. The War To End All Wars 03:51
03. Bloodshed At Cape Hell 04:37
04. Im Argonnerwald 03:52
05. Tannenberg 04:59
******************************
Total playing time: 18:16



[more=Extended info]Password: metalarea.org

Enjoy!
smile1.gif[/more]

[more=Technical info]
Input File: 01_feldgrau-1917_-_intro.mp3
Channels : 2
Sample Rate : 44100
Precision : 16-bit
Duration : 00:00:57.03 = 2515067 samples = 4277.32 CDDA sectors
File Size : 2.28M
Bit Rate : 320k
Sample Encoding: MPEG audio (layer I, II or III)
Comments :
Title=1917 - Intro
Artist=Feldgrau
Album=Feuer Und Blut
Tracknumber=1/5
Year=2021
Genre=Black Metal

[/more]

Register
(13) artscald, caro, dermarsoran, kim666, Marek, Mencae77, SilentNidhogg, smysl, stormhatt, VALERY, vasiljev_sergej, Vitald, vovenom,
Jul 26 2022, 14:01:53 Feldgrau - Demo [demo] (2021)


*Artist: Feldgrau
*Album: Demo [demo]
*Year: 2021
*Genre: Black Metal
*Country: Germany
*Format: mp3@CBR320kbps
*Size: 18MB

Tracklist:
01. Dissembling Human Nature 03:57
02. Bombennacht 03:47
******************************
Total playing time: 7:44



[more=Extended info]Password: metalarea.org

Enjoy!
smile1.gif[/more]

[more=Technical info]
Input File: 01_feldgrau-dissembling_human_nature.mp3
Channels : 2
Sample Rate : 44100
Precision : 16-bit
Duration : 00:03:57.31 = 10465459 samples = 17798.4 CDDA sectors
File Size : 9.49M
Bit Rate : 320k
Sample Encoding: MPEG audio (layer I, II or III)
Comments :
Title=Dissembling Human Nature
Artist=Feldgrau
Album=Demo
Tracknumber=1/2
Year=2021
Genre=Black Metal

[/more]

Register
(10) artscald, caro, Ramcheg1981, SilentNidhogg, smysl, Storky, stormhatt, vasiljev_sergej, Vitald, vovenom,
Jul 25 2022, 12:42:47 Evil Might - Demo II [demo] (2021)


*Artist: Evil Might
*Album: Demo II [demo]
*Year: 2021
*Genre: Black Metal
*Country: Finland
*Format: mp3@CBR320kbps
*Size: 43MB

Tracklist:
01. Intro: Exitus / Tyrants Of Armageddon 05:32
02. The Crown Of Entropy 05:00
03. Serpent Thorns 07:46
******************************
Total playing time: 18:18



[more=Extended info]Password: metalarea.org

Enjoy!
smile1.gif[/more]

[more=Technical info]
Input File: 01-evil_might-intro_exitus_-_tyrants_of_armageddon.mp3
Channels : 2
Sample Rate : 48000
Precision : 16-bit
Duration : 00:05:32.22 = 15946464 samples ~ 24916.4 CDDA sectors
File Size : 13.3M
Bit Rate : 320k
Sample Encoding: MPEG audio (layer I, II or III)
Comments :
Title=Intro: Exitus / Tyrants of Armageddon
Artist=Evil Might
Album=Demo II
Tracknumber=1/3
Year=2021-00-00
Genre=Black Metal

[/more]

Register
(8) artscald, Farfarello, kim666, Occultas, Sanctus, smysl, thenecromancer, vasiljev_sergej,
Jul 23 2022, 08:04:21 Dissident - Dissident [ep] (1996)
Re-Upload (320CBR):

Register


Enjoy!
smile1.gif
(2) anonenone, hell_armageddon,
Jul 20 2022, 17:54:38 Ancestor - Hell Fuckin' Metal (2008)
Re-Upload (Same Properties):

Register


Enjoy!
smile1.gif
(3) kim666, kimkayoung, MortSathynr,
Jul 20 2022, 09:41:34 Mordor - Hogar,Dulce Hogar (1994)
Re-Upload (320CBR / 2019 Re-Release incl. 04 Tracks Of The "Entombed Alive" Demo):

Register


Enjoy!
smile1.gif
(2) hell_armageddon, thenecromancer,
Jul 19 2022, 09:41:23 Alverna Gunn - '82 Demo [demo] (1982)
Re-Upload (Same Properties):

Register


Enjoy!
smile1.gif
(2) anonenone, thenecromancer,
Jul 12 2022, 13:20:16 Elise - No Time For Masquerade (1990)
Re-Upload (320 CBR):

Register


Enjoy!
smile1.gif
(3) kimkayoung, stumpheavyrock, Xtohar,
Jul 10 2022, 23:12:50 Medicine Death - 1992-Genetic Radioactive Experiments (1992)
QUOTE(Wail @ Jul 10 2022, 06:45:27) *
Please can you reup


still online here: Medicine Death - Genetic Radioactive Experiments (1992)
(2) thenecromancer, Wail,
Jul 10 2022, 16:23:25 Mutiara Damansara - Every Soul Is A Shining Star (2015)
Re-Upload (Same Properties):

Register


Enjoy!
smile1.gif
(2) Ingvar, kim666,
Jun 30 2022, 08:19:19 Soundsurgery - Free Moving Radical (1997)


*Artist: Soundsurgery
*Album: Free Moving Radical
*Year: 1997
*Genre: Industrial/Thrash Metal
*Country: Australia
*Format: mp3@VBR236kbps
*Size: 93MB

Tracklist:
01. New Clear Incision 04:05
02. Cease To Exist 02:36
03. Post Event Horizon 02:17
04. Test Site 03:10
05. Gun 03:25
06. Chainsaw 02:58
07. Minus Life 03:33
08. Criminal 02:32
09. Electric Claw 02:21
10. Fire 02:43
11. Haemorrhage 03:36
12. Untitled 01:34
13. Cyber Christ 02:50
14. Evil Club 02:49
15. Enemy 02:43
16. Tribes 10:59
******************************
Total playing time: 54:11

[more=Extended info]Password: metalarea.org

Enjoy!
smile1.gif[/more]

[more=Technical info]
Input File: 01-new_clear_incision-gw.mp3
Channels : 2
Sample Rate : 44100
Precision : 16-bit
Duration : 00:04:05.00 = 10804588 samples = 18375.1 CDDA sectors
File Size : 7.80M
Bit Rate : 255k
Sample Encoding: MPEG audio (layer I, II or III)
Comments :
Title=New Clear Incision
Artist=Soundsurgery
Album=Free Moving Radical
Tracknumber=1/16
Year=1997-00-00
Genre=Metal

[/more]

Register
(13) artscald, caro, CRUNCH, gwar, Hell_Is_Here, kimkayoung, metala, METALHUNTER, Olethros, stumpheavyrock, supremo, Svafrlami, wreak,
Jun 30 2022, 07:38:02 Soundsurgery - Syndustry (1995)
QUOTE(BlackEmperor @ Jun 30 2022, 07:46:35) *
Password?

metalarea.org

Mirror (VBR V2):
Register


QUOTE(t0ffik @ May 10 2012, 11:41:26) *
well it would be great if someone upload on forum second (and the last) album Free Moving Radical pray.gif pray.gif pray.gif


Done: Soundsurgery - Free Moving Radical (1997) bye.gif

Enjoy! smile1.gif
(2) kimkayoung, METALHUNTER,
Jun 28 2022, 13:07:58 Wurzelkraft - Urgrund (2022)


*Artist: Wurzelkraft
*Album: Urgrund
*Year: 2022
*Genre: Raw Black Metal
*Country: Germany
*Format: mp3@VBR256kbps
*Size: 62MB

Tracklist:
01. Prolog 01:48
02. Kämpferschar 06:31
03. Corpus Delicti 05:13
04. Des Teufels Schergen 04:20
05. Ewiges Reich 06:41
06. Flieg Adler Flieg 03:55
07. Wir Führen Krieg 04:30
******************************
Total playing time: 32:58

[more=Extended info]Password: metalarea.org

Enjoy!
smile1.gif[/more]

[more=Technical info]
Input File: 01_wurzelkraft-prolog.mp3
Channels : 2
Sample Rate : 44100
Precision : 16-bit
Duration : 00:01:48.04 = 4764652 samples = 8103.15 CDDA sectors
File Size : 3.40M
Bit Rate : 252k
Sample Encoding: MPEG audio (layer I, II or III)
Comments :
Title=Prolog
Artist=Wurzelkraft
Album=Urgrund
Tracknumber=1/7
Year=2022
Genre=Black Metal

[/more]

Register
(20) artscald, caro, dermarsoran, goat_garbage_88, Ildjarn, kim666, maringlen, Mencae77, metala, Orkkh, Ostinato, Raw1488, recber, sacrut, SilentNidhogg, stormhatt, supremo, VALERY, vasiljev_sergej, wreak,
Jun 27 2022, 18:22:31 Zørkënen - Sturm [demo] (2006)
Re-Upload (Same Properties):

Register


Enjoy!
smile1.gif
(2) kim666, thenecromancer,
Jun 27 2022, 18:20:53 Zørkënen - Donnerhorst [demo] (2007)
Re-Upload (Same Properties):

Register


Enjoy!
smile1.gif
(3) kim666, ravenous, thenecromancer,
Jun 27 2022, 09:36:44 Nubivagant - The Wheel And The Universe (2022)
Mirror (Same Properties):

Register


Enjoy!
smile1.gif
(3) El_Chibo, Occultas, vasiljev_sergej,
Jun 27 2022, 08:48:04 ...And Here I Lie - Regrets (1998)
QUOTE(thenecromancer @ Jun 27 2022, 09:25:10) *
Don't works to me (maybe because I don't use VPN ?!???)


it works without a vpn! just click on: "i already have a vpn" and then on one of the links..but it seems that they have some problems now, so i added another link! smile1.gif
(1) thenecromancer,
Jun 25 2022, 12:00:08 Afsky - I Stilhed EP (2022)


*Artist: Afsky
*Album: I Stilhed EP
*Year: 2022
*Genre: Black Metal
*Country: Denmark
*Format: mp3@CBR320kbps
*Size: 47MB

Tracklist:
01. Altid Veltilfreds Intro 03:12
02. Efterårsvind 03:25
03. Glemsomhedens Elv 01:22
04. Solityde 03:22
05. Sorte Vand Outro 01:21
06. Livets Væld Udrinder 01:56
07. Angst Outro 02:15
08. Sig Nærmer Tiden, Det Er Hvidt Herude, Drømte Mig 03:01
******************************
Total playing time: 19:54



[more=Extended info]Acoustic Album

Password: metalarea.org

Enjoy!
smile1.gif[/more]

[more=Technical info]
Input File: 01-Afsky-Altid_Veltilfreds_Intro.mp3
Channels : 2
Sample Rate : 44100
Precision : 16-bit
Duration : 00:03:11.91 = 8463187 samples = 14393.2 CDDA sectors
File Size : 7.68M
Bit Rate : 320k
Sample Encoding: MPEG audio (layer I, II or III)
Comments :
Title=Altid Veltilfreds Intro
Artist=Afsky
Album=I Stilhed EP
Tracknumber=1/8
Year=2022
Genre=Black Metal

[/more]

Register
(5) Cyrci, Ignativs, kim666, kolar666, Mencae77,
Jun 23 2022, 23:22:53 Game Over - Hatred [ep] (1990)
Re-Upload (Same Properties):

Register


Enjoy!
smile1.gif
(3) vobiscum, wreak, Xtohar,
Jun 23 2022, 16:27:29 Paganizer - 20 Years In A Terminal Grip [compilation] (2014)


*Artist: Paganizer
*Album: 20 Years In A Terminal Grip [compilation]
*Year: 2014
*Genre: Death Metal
*Country: Sweden
*Format: mp3@CBR320kbps
*Size: 313MB

Tracklist:

CD 01:
01. Nailed Forever 04:03
02. Bleed Unto Me 04:51
03. Among The Unknowing Dead 03:35
04. Scandinavian Warmachine 03:30
05. Even In Hell 03:53
06. You Call It Deviance 03:39
07. Frontier Cthulhu 04:02
08. Life Slips Away 03:52
09. Meateater 03:29
10. Colder 03:54
11. Just Here Rotting 03:31
12. Landscapes Made Of Human Skin 03:22
13. Crusader 02:35
14. On Your Knees 03:54
15. The Cadaverous 03:37
16. Beyond Redemption 05:23
17. Mass Of Parasites 03:42
18. No Divine Rapture 04:05
19. Their Skin Suits Me 03:35


CD 02:
01. Natures Bleeding 02:27
02. Religious Cancer 03:26
03. Viking Hammer 03:02
04. Blood On The Axe 02:52
05. Ode To The Horde 02:55
06. The Cyclone Empire 04:07
07. This Place Is Rot 03:08
08. Gasmask Obsession 02:06
09. Abortion Van 02:15
10. Hell Is Already Here 02:16
11. Massdeath Maniac 03:08
12. Army Of Maggots 03:05
13. Flesh Collector 02:46
14. The Morbidly Obscene 03:37
15. The Festering Of Sores 03:36
16. The Return Of Horror 03:11
17. Born To Be Buried Alive 02:23
18. Carbonized Resurrection 03:28
19. Flesh Nest 01:50
20. Vaken Mardröm 01:08
21. Nothing Really Matters 03:41
22. This Place Of Dying 02:29
23. Morbid Warfare 03:38
24. Grinded & Exiled v1.0 00:51
25. Fleshnaut v1.0 01:47
26. Buried Alive 02:25
27. NY Ripper 02:19
******************************
Total playing time: 02:26:29



[more=Extended info]Password: metalarea.org

Enjoy!
smile1.gif[/more]

[more=Technical info]
Input File: 101-paganizer-nailed_forever.mp3
Channels : 2
Sample Rate : 44100
Precision : 16-bit
Duration : 00:04:03.17 = 10723841 samples = 18237.8 CDDA sectors
File Size : 9.73M
Bit Rate : 320k
Sample Encoding: MPEG audio (layer I, II or III)
Comments :
Title=Nailed Forever
Artist=Paganizer
Album=20 Years In A Terminal Grip
Tracknumber=1/19
Year=2014
Genre=Death Metal
Discnumber=1/2

[/more]

Register
(18) artscald, Boozer, canadaspaceman, caro, Golfzilla, hell_armageddon, Hell_Is_Here, Ignativs, infozahist, kefka, Marek, pabedit, Reverend, smysl, spazm, supremo, VALERY, Wail,
Jun 22 2022, 21:54:07 ...And Here I Lie - Regrets (1998)
QUOTE(thenecromancer @ Jun 22 2022, 22:34:55) *
Need a mirror link for the FLAC version, please... 9.gif


two mirrors:
Register


bye.gif
(1) thenecromancer,
Jun 22 2022, 18:52:46 Askival - Alba [demo] (2007)
Re-Upload (Same Properties):

Register


Enjoy!
smile1.gif
(3) obituarydark, SileniusLegard, wendigo,
Jun 21 2022, 19:00:55 Lamentations Of The Ashen - In The Burden Of The Heart's Plaint (2010)
Re-Upload (Same Properties):

Register


Enjoy!
smile1.gif
(1) thenecromancer,
Jun 20 2022, 09:51:01 Katalysator - Zombie Destruction [demo] (2005)
QUOTE(Wail @ Jun 20 2022, 07:16:48) *
Please can you reup


the link in the opening post is working and contains both demos! 9.gif
(1) Wail,
Jun 18 2022, 23:01:34 Ulcus Molle - Malicious Triumph [ep] (1998)
Re-Upload (Same Properties):

Register


Enjoy!
smile1.gif
(2) cancer1974, kimkayoung,

11 Pages V   1 2 3 > » 
- Lo-Fi Version Support form
Copyrights and abuse reports form
Time is now: 11th August 2022 - 09:02:07