Welcome Guest ( Log In | Register )

История благодарностей участнику craP_cillA ::: Спасибо сказали: 1238 раз(а)
Дата поста: В теме: За сообщение: Спасибо сказали:
Jun 9 2021, 12:20:59 Thy Light - The Call Of The Dark Forest [demo] (2005)
QUOTE
The album known as The Call of the Dark Forest is not a real Thy Light release, but a never-released demo by a defunct band that founding member Paolo Bruno was a part of named Sergulath that was mislabeled on the Internet as being Thy Light material. Nonetheless, some riffs from that demo were rearranged in a couple early Thy Light songs.


9.gif
(3) NachtWulf, Occultas, thenecromancer,
May 23 2021, 15:30:52 Todesmarsch - Verschlingt Die Brut (2020)
yep...nazi bullshit!
(1) Occultas,
May 13 2021, 00:18:17 Svartheim - Black Metal Finland (2021)
that's right! smile3.gif

but anyway: thank you! smile1.gif
(2) Cramloth, infiltrator,
May 12 2021, 15:33:01 Svartheim - Black Metal Finland (2021)
PLEASE! learn to tag/number the filenames correctly (1,2,3...) it's super annoying to have to rename everything by myself. 21.gif
(6) Antichrist, infiltrator, Oath19, rickzammuto, thenecromancer, Vardlokkur,
Mar 26 2021, 02:30:44 Taake & Helheim - Henholdsvis [split] (2021) (1) Occultas,
Mar 19 2021, 02:00:28 Escumergamënt - ...Ni Degu Fazentz Escumergamënt E Mesorga... (2021) (2) infiltrator, Occultas,
Feb 6 2021, 19:55:37 Alcest - Protection Ep (Exclusive Sampler) [ep] (2019)


*Artist: Alcest
*Album: Protection Ep (Exclusive Sampler) [ep]
*Year: 2019
*Genre: Post-Black Metal/Shoegaze
*Country: France
*Format: mp3@CBR320kbps
*Size: 78MB

Tracklist:
01. Protection 05:49
02. Sapphire 04:58
03. Autre Temps 05:48
04. Oiseaux De Proie (Live) 08:04
05. Là Où Naissent Les Couleurs Nouvelles (Live) 08:49
******************************
Total playing time: 33:28

[more=Extended info]Password: metalarea.org

Enjoy!
smile1.gif [/more]

[more=Technical info]
Input File: 1-01 Protection.mp3
Channels : 2
Sample Rate : 44100
Precision : 16-bit
Duration : 00:05:49.12 = 15396280 samples = 26184.1 CDDA sectors
File Size : 14.2M
Bit Rate : 325k
Sample Encoding: MPEG audio (layer I, II or III)
Comments :
Title=Protection
Artist=Alcest
Album=Protection E.P.
Tracknumber=1/5
Year=2019
Genre=Atmospheric Black Metal/Blackgaze/Post Metal

[/more]

Register
(23) akym, BERZERK, CTPEMLEHIE, gena, infiltrator, infozahist, kluval, Lanceatum, marilin, Olethros, Ostinato, randumbum, recber, Reverend, Rosen, soulskinner681, Stutthof, Taakeferd, the_cleanser, VALERY, varlam4, vasiljev_sergej, wreak,
Feb 6 2021, 16:17:48 Kisin - Awakening Of The Forgotten (2021)
Country: Mexico
(2) infiltrator, Samaritianin,
Nov 19 2020, 11:48:16 Gjaldur - Nachtreich (2020)
QUOTE(ANGELUSARCHDAEMON @ Nov 19 2020, 11:42:35) *
Mirror please. Thanks.




free download. 9.gif
(2) infiltrator, robertho777,
Nov 18 2020, 03:26:07 Thromos - Satan (2019)


*Artist: Thromos
*Album: Satan
*Year: 2019
*Genre: Black Metal
*Country: Germany
*Format: mp3@CBR320kbps
*Size: 119MB

Tracklist:
01. Portal 05:04
02. Mein Geist Ist Frei 06:15
03. Gottlose Energien 06:51
04. Melancholiae Lux Lunae 06:06
05. Dunkle Postmortale Reflexion 06:39
06. Die Dornen Des Pentagramms 05:28
07. Lilith (Katakomben Der Nacht) 07:26
08. Satan 08:30
09. ... 00:22
******************************
Total playing time: 52:41



[more=Extended info]Password: metalarea.org

Enjoy!
smile1.gif [/more]

[more=Technical info]
Input File: 01 Portal.mp3
Channels : 2
Sample Rate : 44100
Precision : 16-bit
Duration : 00:05:04.35 = 13421659 samples = 22826 CDDA sectors
File Size : 12.9M
Bit Rate : 339k
Sample Encoding: MPEG audio (layer I, II or III)
Comments :
Title=Portal
Artist=Thromos
Album=Satan
Tracknumber=1/9
Year=2019
Genre=Black Metal

[/more]

Register
(40) 1968_janeart, alikkon, andivi, ankud26, Constantinus I, dermarsoran, dsword, El_Chibo, IncendiaryMight, infiltrator, Kalnasra, kim666, korovakaska, Kvlt, MadCarrot, Marek, Maximvs, multizwilling, obituarydark, Occultas, Olethros, randumbum, rimfrost, robertho777, Rosen, RUDACHUR, SilentNidhogg, smes, squall8fr, SSWolf88, stub888, Styx, thenecromancer, VALERY, varlam4, vasiljev_sergej, vdolghi, Velmi, Wail, wreak,
Nov 1 2020, 14:12:31 Mayhem - Death Blow (Rehearsal) [bootleg] (1990)
Re-Upload (Same Properties):

Register


Enjoy! smile1.gif
(1) rupturedsouls,
Oct 31 2020, 19:13:06 Various Artists - The Mountains Are Cold... (The Transilvanian Hunger Covers) [Bootleg Compilation] (2020)
2020 Update! 9.gif bye.gif
(1) Occultas,
Sep 25 2020, 14:06:43 Mass Murder Squad - Blood & Semen [demo] (2020)
link doesn't work! gives out a mediafire pdf file..
(2) Occultas, satanist666,
Aug 2 2020, 21:09:52 Betrayed & Karnarium - Betrayed/Karnarium [split] (2004)
Re-Upload (VBR V2):

Register


Enjoy! smile1.gif
(3) Cdub, thenecromancer, varlam4,
Jul 23 2020, 12:51:04 Anger - Miami​, ​fl (1994)
MP3 VBR V0 Version:

Register


Enjoy! smile1.gif
(4) infiltrator, kessler, Proteus_666, Svafrlami,
Jul 22 2020, 16:58:18 Darkthrone - Transilvanian Hunger (1994)
FLAC Version:

Register


Enjoy! smile1.gif
(7) audisucks, infiltrator, PatrickNM, rickzammuto, Rudolfo_Metal, Summoned_9, thenecromancer,
Jul 10 2020, 22:14:03 Odal - Zornes Heimat (Rough Mix) [demo] (2019)
QUOTE
"Ladies and Gentlemen... here we go...

To thank all you people for your support over the past 20 fucking years, we/Odal would like to give you something back!

We've got a never released freebie for you to stream or download!

This is a pre-mix of the full "Zornes Heimat" album recording that was mixed by the band before we chose to enter the Blue House Studio, back in 2008, to mix the album in a professional studio. The recording is without the basslines, because the mix is also the one that Wolfhetan got to write his Bass parts for the album.
However, I like this mix very much.
Every time I listen to this version, I feel that time (the pure and raw energy we had at that moment).
It was a great time for us, me/Taaken and Grroll. We were so much into the music and as motivated as we ever were and will be.

At this time, I was also active in many other projects and I miss this time so much.
So I'm a bit nostalgic while I'm searching for the right words for this recording.
Because we're older now and time is a thing we don't have as much of as we would like...
... Alright then, enough talking...

We'd just like to thank you all for you eternal support!

Oh fuck just listen it loud and heavy...

/Taaken"
(2) infiltrator, добрыйКот,
Jul 6 2020, 01:48:33 Coprophagist - Coprophagist [demo] (1990)
Re-Upload (VBR V2):

Register


Enjoy! smile1.gif
(4) Evilded, infiltrator, thenecromancer, Wail,
Jun 22 2020, 19:24:47 Thorybos - Monuments Of Doom Revolved (2016)
MP3 Version (VBR V0) With Tags:

Register


Enjoy! smile1.gif
(5) infiltrator, multizwilling, Occultas, sacrut, vasiljev_sergej,
Jun 14 2020, 14:48:43 Burgfried - 1631 [demo] (2020)
wrong link. please fix it! smile1.gif

thanks.
(2) infiltrator, Velmi,
May 18 2020, 21:51:49 Emskirchen Goat Kvlt - Schlachthaus Drachenschanze [demo] (2016)
Geil! 15.gif 15.gif 15.gif 15.gif
(2) infiltrator, Verhasst,
Feb 16 2020, 22:02:20 Trauerkult - Drained & Purged (2019)


*Artist: Trauerkult
*Album: Drained & Purged
*Year: 2019
*Genre: Post-Black Metal
*Country: Antarctica
*Format: mp3@CBR320kbps
*Size: 82MB

Tracklist:
01. Perception 01:52
02. Trauerkult 07:48
03. Fear, Pt. I (Crawl) 05:57
04. Delusion 03:19
05. Fear, Pt. II (Revive) 03:44
06. Rage 04:15
07. Drained & Purged 05:09
08. Clarity 02:56
******************************
Total playing time: 35:00



[more=Extended info]Password: metalarea.org

Enjoy!
smile1.gif[/more]

[more=Technical info]
Input File: 01-Trauerkult-Perception.mp3
Channels : 2
Sample Rate : 44100
Precision : 16-bit
Duration : 00:01:52.07 = 4942463 samples = 8405.55 CDDA sectors
File Size : 4.49M
Bit Rate : 320k
Sample Encoding: MPEG audio (layer I, II or III)
Comments :
Title=Perception
Artist=Trauerkult
Album=Drained & Purged
Tracknumber=1/8
Year=2019
Genre=Post-Black Metal

[/more]

Register
(22) 1968_janeart, ASkyThatBurns, exorcist1969, igorzz, infiltrator, kim666, metaljosue, Olethros, ripper33, robertho777, Romanza, Rosen, satanist666, sergsazan, Shadechaser, SilentNidhogg, tamerz, Teshub, VALERY, vasiljev_sergej, Victim of fate, wreak,
Feb 2 2020, 18:42:33 Immortal Hammer - Immortal Past [best of/compilation] (2005)
re-upload (VBR V2):

Register


enjoy! smile1.gif
(6) Alexis The Best, infiltrator, obituarydark, Soleil14, thenecromancer, varlam4,
Jan 16 2020, 17:41:28 Possessed - Demo 1985 [demo] (1985)
re-upload (same properties):

Register


enjoy! smile1.gif
(4) ALDEMARMETAL, pichileon, thenecromancer, varlam4,
Jan 11 2020, 17:53:57 Gratzug - Zeitgeist (2019)
@RADeus:

you sir, are the man!!! thank you SO much! 9.gif 9.gif 9.gif
(2) infiltrator, RADeus,

7 Pages V   1 2 3 > » 
- Lo-Fi Version Support form
Copyrights and abuse reports form
Time is now: 19th June 2021 - 09:51:56