Welcome Guest ( Log In | Register )

История благодарностей участнику Preacher ::: Спасибо сказали: 8 раз(а)
Дата поста: В теме: За сообщение: Спасибо сказали:
Oct 19 2017, 12:54:21 Мономан - Жизнь В Моно (2017)


*Artist: Мономан
*Album: Жизнь В Моно
*Year: 2017
*Genre: Stoner Rock
*Country: Russian Federation
*Format: mp3@CBR320kbps
*Size: 96MB

Tracklist:
01. Привет (из Неолита)
02. Страх
03. Заживо Погребённый
04. Колыбельная
05. Дьявольский Сон
06. Я Устал
07. Могильный Рок
08. Игрушка
09. Прощай
******************************
Total playing time: 44:03



[more=Extended info]Дебютный альбом провинциальных рокеров, сшитый из лоскутов нескольких жанров[/more]

[more=Technical info]
Input File: 01 - Привет (Из Неолита).mp3
Channels : 2
Sample Rate : 44100
Precision : 16-bit
Duration : 00:03:52.54 = 10255058 samples = 17440.6 CDDA sectors
File Size : 9.31M
Bit Rate : 320k
Sample Encoding: MPEG audio (layer I, II or III)
Comments :
Title=Привет (Р?Р· Неолита)
Artist=Мономан
Album=Р–РёР·РЅСЊ Р’ РњРѕРЅРѕ
Tracknumber=1
Year=2017

[/more]

Register
(3) AndreFrancis, snot, VALERY,
Jun 25 2013, 11:46:31 Eternal Fear - Eternal Damnation (2013)
стонера нет, только модный хэви метал
(1) nitzebb,
Jun 20 2013, 11:59:21 Black Oath - Ov Qliphoth And Darkness (2013)
Альбом удался!
(1) vosmidesijatye,
Jun 10 2013, 11:58:18 Deep - Vol. 1 (2013)
звук гитары здесь просто отвратный
(1) BioMax,
May 30 2013, 10:51:22 Forsaken & Fall Of The Idols - Tales Of Doom And Woe [split] (2010)
Fall of the Idols никогда не прикалывали, а вот Forsaken вполне, и кавер не так уж и плохо получился, как у каких-нибудь Desire к примеру smile1.gif
May 28 2013, 14:48:25 Magister Templi - Lucifer Leviathan Logos (2013)
ни музло, ни вокал не впечатлили. блёкло всё как-то
(1) denver,

- Lo-Fi Version Support form
Copyrights and abuse reports form
Time is now: 7th July 2020 - 12:32:54