Welcome Guest ( Log In | Register )

История благодарностей участнику Kvlt ::: Спасибо сказали: 723 раз(а)
Дата поста: В теме: За сообщение: Спасибо сказали:
Apr 7 2021, 17:19:52 Mahr - Death Comes Adorned In The Sun (2021)
And another NSBM band which can't play proper BM. And as if it wouldn't be enough they're befriended with Paul Waggener and his stupid bullshit. 15.gif
(1) Storky,
Mar 23 2021, 19:32:46 Seraph In Travail - Bring Forth Death (2015)
"...fully remixed and remastered version..."


[youtube]F9w25u_O7ig[/youtube]




Register
(1) kimkayoung,
Mar 18 2021, 19:55:49 Nakkiga
Hello again. smile1.gif Wanted to ask if someone would like to upload the album "Agurraren Harkaitza" from 2018 and the split album "Oroimenean" with Nakkiga and Helde from 2019.
Thanks in advance.

https://www.metal-archives.com/albums/Nakki...arkaitza/741910
https://www.metal-archives.com/albums/Nakki...oimenean/813034
(1) vovenom,
Feb 27 2021, 21:15:39 Demonia Mundi - In Grembo Mater... (2021)
QUOTE(forgersky @ Feb 27 2021, 09:10:24) *
Can you please add another link, sampo is like dial-up


Here you got.

Register
(1) vasiljev_sergej,
Jan 27 2021, 20:52:12 Döda Havet - Tid Och Rum (2020)


*Artist: Döda Havet
*Album: Tid Och Rum
*Year: 2020
*Genre: Alternative Rock
*Country: Sweden
*Format: mp3@CBR320kbps
*Size: 84MB

Tracklist:
1. Atlantis Mitt
2. Arcana
3. 7000 Dagar
4. Avsked
5. Hjärnspöket
6. Söndag
7. Levande Eller Död
8. Bråttom
******************************
Total playing time: 34:41




[more=Technical info]
Input File: 04 - Avsked.mp3
Channels : 2
Sample Rate : 44100
Precision : 16-bit
Duration : 00:01:42.38 = 4515046 samples = 7678.65 CDDA sectors
File Size : 4.82M
Bit Rate : 377k
Sample Encoding: MPEG audio (layer I, II or III)
Comments :
Title=Avsked
Artist=Döda Havet
Album=Tid Och Rum
Year=2020

[/more]

Register
(3) Cartman223, infiltrator, Olethros,
Jan 27 2021, 20:46:17 Döda Havet - Döda Havet (2016)


*Artist: Döda Havet
*Album: Döda Havet
*Year: 2016
*Genre: Alternative Rock
*Country: Sweden
*Format: mp3@CBR320kbps
*Size: 102MB

Tracklist:
1. Elden
2. Det Sämsta Av Två Världar
3. Komatecken
4. Flykten
5. Tystlåten
6. Framför Oss
7. På Låtsas
8. Besviken
9. Som De Där
******************************
Total playing time: 44:58




[more=Technical info]
Input File: 02 - Det Sämsta Av Två Världar.mp3
Channels : 2
Sample Rate : 44100
Precision : 16-bit
Duration : 00:04:06.27 = 10860639 samples = 18470.5 CDDA sectors
File Size : 9.89M
Bit Rate : 321k
Sample Encoding: MPEG audio (layer I, II or III)
Comments :
Title=Det Sämsta Av Två Världar
Artist=Döda Havet
Album=Döda Havet
Year=2016

[/more]

Register
(3) Cartman223, infiltrator, Olethros,
Jan 18 2021, 04:31:56 The Casualties - Resistance (2012)
Re-Upload


Register
(1) hell_armageddon,
Jan 18 2021, 04:29:07 Kotzreiz - Nüchtern Unerträglich (2020)


*Artist: Kotzreiz
*Album: Nüchtern Unerträglich
*Year: 2020
*Genre: Punk
*Country: Germany
*Format: mp3@CBR320kbps
*Size: 53MB

Tracklist:
1. Dusty
2. Nüchtern unerträglich
3. Wer is wieder da
4. Toilettenstern
5. Eiskalte Ohren
6. Punkboys Don't Cry
7. Ratten im System
8. Sambuca Beach
9. Nix zu verliern
10. Ich bin ein Wrack
11. Der räudige Aal
******************************
Total playing time: 23:36




[more=Technical info]
Input File: 04 - Toilettenstern (feat. Emilie Krawall).mp3
Channels : 2
Sample Rate : 44100
Precision : 16-bit
Duration : 00:02:12.22 = 5830726 samples = 9916.2 CDDA sectors
File Size : 5.71M
Bit Rate : 345k
Sample Encoding: MPEG audio (layer I, II or III)
Comments :
Title=Toilettenstern (feat. Emilie Krawall)
Artist=Kotzreiz
Album=Nüchtern unerträglich
Year=2020

[/more]

Register
(6) Brann, gwar, hell_armageddon, infiltrator, oldvarg, Olethros,
Jan 18 2021, 04:19:59 Pestpocken - Another World Is Possible (2020)


*Artist: Pestpocken
*Album: Another World Is Possible
*Year: 2020
*Genre: Punk
*Country: Germany
*Format: mp3@CBR320kbps
*Size: 89MB

Tracklist:
1. Wir stehen wieder auf
2. Another World Is Possible
3. Battle Of Cable Street
4. Über 20 Jahre
5. A Struggle For The Whole
6. The Winner Takes It All
7. Generation Me
8. Against It
9. Treibsand
10. Die Welt steht Kopf
11. Wie ein Faustschlag
12. Welcome To Germany
13. Don't Talk 2 Police
******************************
Total playing time: 36:54




[more=Technical info]
Input File: 12 - Welcome To Germany.mp3
Channels : 2
Sample Rate : 44100
Precision : 16-bit
Duration : 00:02:46.05 = 7322629 samples = 12453.5 CDDA sectors
File Size : 7.06M
Bit Rate : 340k
Sample Encoding: MPEG audio (layer I, II or III)
Comments :
Title=Welcome To Germany
Artist=Pestpocken
Album=Another World Is Possible
Year=2020

[/more]

Register
(4) gwar, infiltrator, oldvarg, Olethros,
Jan 18 2021, 04:09:32 Wizo - Punk Gibt's Nicht Umsonst! (Teil Iii) (2014)


*Artist: Wizo
*Album: Punk Gibt's Nicht Umsonst! (Teil Iii)
*Year: 2014
*Genre: Punk
*Country: Germany
*Format: mp3@CBR320kbps
*Size: 131MB

Tracklist:
1. Seegurke
2. Scheissefresser
3. Kohlenholen
4. Ganz klar gegen Nazis
5. Scheissekotzen
6. Kriminell & asozial
7. Kein Empfang
8. Alles verschwimmt
9. Königin
10. Unpoliddisch
11. Zombiemann
12. Endzweit
13. Meine Wut
14. Pinöpel
15. Dummensch
16. Wenn ich mal sterb
17. Erwin
18. Wie solls gehen
19. Pförtner
20. Schlechte Zeit
21. Alte Herren
******************************
Total playing time: 1:05:00



[more=Technical info]
Input File: 07 - Kein Empfang.mp3
Channels : 2
Sample Rate : 44100
Precision : 16-bit
Duration : 00:03:13.75 = 8544507 samples = 14531.5 CDDA sectors
File Size : 7.78M
Bit Rate : 321k
Sample Encoding: MPEG audio (layer I, II or III)
Comments :
Title=Kein Empfang
Artist=WIZO
Album=Punk gibt's nicht umsonst! (Teil III)
Year=2014

[/more]

Register
(3) gwar, infiltrator, Olethros,
Jan 18 2021, 04:01:43 Wizo - Bleib Tapfer/Für'n Arsch (1992)


*Artist: Wizo
*Album: Bleib Tapfer/Für'n Arsch
*Year: 1992
*Genre: Punk
*Country: Germany
*Format: mp3@CBR320kbps
*Size: 179MB

Tracklist:
1. Bei dir
2. Mein Tod
3. Nice Day
4. Bleib tapfer
5. Es ist vorbei
6. &?#§$)%?
7. Geisterfahrer
8. Alte Frau
9. Nix & Niemant
10. Leichen
11. Alter Bruder
12. Diese Welt
13. I Want You To Be Ma Girl
14. Gute Freunde
15. Good Bye
16. Der Käfer
17. Kadett B
18. K.I.K. III
19. Kein Gerede
20. Walter
21. Jupp
22. Selenbrant
23. Unemployed
24. Sylvia
******************************
Total playing time: 1:08:00



[more=Technical info]
Input File: 16 - Der Käfer.mp3
Channels : 2
Sample Rate : 44100
Precision : 16-bit
Duration : 00:00:31.06 = 1369922 samples = 2329.8 CDDA sectors
File Size : 2.37M
Bit Rate : 611k
Sample Encoding: MPEG audio (layer I, II or III)
Comments :
Title=Der Käfer
Artist=WIZO
Album=Bleib tapfer - Für'n Arsch
Year=1992

[/more]

Register
(3) gwar, infiltrator, Olethros,
Jan 18 2021, 03:52:28 Adam Angst - Neintology (2018)


*Artist: Adam Angst
*Album: Neintology
*Year: 2018
*Genre: Punk Rock
*Country: Germany
*Format: mp3@CBR320kbps
*Size: 74MB

Tracklist:
1. Der Beginn von etwas ganz Großem
2. Punk
3. Alexa
4. Blase aus Beton
5. Alle sprechen Deutsch
6. Damit ich schlafen kann
7. Kriegsgebiet
8. Immer noch
9. Alphatier
10. D.I.N.N.
11. Physik
******************************
Total playing time: 32:09



[more=Technical info]
Input File: 10 - D.I.N.N..mp3
Channels : 2
Sample Rate : 44100
Precision : 16-bit
Duration : 00:02:34.60 = 6818036 samples = 11595.3 CDDA sectors
File Size : 6.29M
Bit Rate : 326k
Sample Encoding: MPEG audio (layer I, II or III)
Comments :
Title=D.I.N.N.
Artist=Adam Angst
Album=Neintology
Year=2018

[/more]

Register
(4) gwar, infiltrator, oldvarg, Olethros,
Jan 18 2021, 03:43:16 Dritte Wahl - 3D (2020)


*Artist: Dritte Wahl
*Album: 3D
*Year: 2020
*Genre: Punk Rock
*Country: Germany
*Format: mp3@CBR320kbps
*Size: 116MB

Tracklist:
1. Ikarus
2. Was zur Hölle...?!
3. Abends halb zehn
4. Brennt alles nieder
5. Warm anziehen
6. Fabelhafte Voraussetzung
7. Zur See
8. Alles nur Chemie
9. 3D
10. Schöne Frau mit Geld
11. Ohne mich
12. Elektro Merten
13. Zusammen
14. Wenn ich gross bin
******************************
Total playing time: 50:36




[more=Technical info]
Input File: 04 - Brennt alles nieder.mp3
Channels : 2
Sample Rate : 44100
Precision : 16-bit
Duration : 00:03:30.95 = 9303027 samples = 15821.5 CDDA sectors
File Size : 8.47M
Bit Rate : 321k
Sample Encoding: MPEG audio (layer I, II or III)
Comments :
Title=Brennt alles nieder
Artist=Dritte Wahl
Album=3D
Year=2020

[/more]

Register
(3) gwar, infiltrator, Olethros,
Jan 18 2021, 03:37:08 Dritte Wahl - 10 (2017)


*Artist: Dritte Wahl
*Album: 10
*Year: 2017
*Genre: Punk Rock
*Country: Germany
*Format: mp3@CBR320kbps
*Size: 99MB

Tracklist:
1. Scotty
2. Der Feind des Guten
3. Der Himmel über uns
4. Zum Licht empor
5. Wenn ihr wüsstet
6. So lange her
7. Was wirst du tun
8. Runde um Runde
9. 25 Cent
10. Vor dem Aufprall
11. Es hält nicht an
12. Schade
******************************
Total playing time: 47:43



[more=Technical info]
Input File: 05 - Wenn ihr wüsstet.mp3
Channels : 2
Sample Rate : 44100
Precision : 16-bit
Duration : 00:03:57.36 = 10467752 samples = 17802.3 CDDA sectors
File Size : 9.50M
Bit Rate : 320k
Sample Encoding: MPEG audio (layer I, II or III)
Comments :
Title=Wenn ihr wüsstet
Artist=Dritte Wahl
Album=10
Year=2017

[/more]

Register
(3) gwar, infiltrator, Olethros,
Jan 18 2021, 03:30:35 Dritte Wahl - Gib Acht! (2010)


*Artist: Dritte Wahl
*Album: Gib Acht!
*Year: 2010
*Genre: Punk Rock
*Country: Germany
*Format: mp3@CBR320kbps
*Size: 131MB

Tracklist:
1. Gib Acht!
2. Das sieht gut aus
3. Wo ist mein Preis?
4. Ich bin dafür
5. Alles wird gut
6. Keine Angst
7. Alles für den Wind
8. Fliegen
9. Mama, hol' den Hammer
10. Aufhör'n kann ich gut
11. Ich bin's
12. Morgen schon weg
13. Singles (Junge Frau zum Mitreisen gesucht)
14. Danke
15. Obacht!
16. Pro Rapid
******************************
Total playing time: 58:07



[more=Technical info]
Input File: 06 - Keine Angst.mp3
Channels : 2
Sample Rate : 44100
Precision : 16-bit
Duration : 00:03:11.30 = 8436374 samples = 14347.6 CDDA sectors
File Size : 7.66M
Bit Rate : 320k
Sample Encoding: MPEG audio (layer I, II or III)
Comments :
Title=Keine Angst
Artist=Dritte Wahl
Album=Gib Acht!
Year=2010

[/more]

Register
(3) gwar, infiltrator, Olethros,
Jan 18 2021, 03:21:28 The Prosecution - The Unfollowing (2017)


*Artist: The Prosecution
*Album: The Unfollowing
*Year: 2017
*Genre: Ska Punk
*Country: Germany
*Format: mp3@CBR320kbps
*Size: 97MB

Tracklist:
1. The State of Hate
2. Forlorn
3. Where We Belong
4. Alter Ego
5. 40 Hours
6. Angel For A Moment (Devil For A Lifetime)
7. My Silent Phone and Me
8. We Are One
9. Waiting for You
10. Lifelines
11. Ignite Our Passion
12. Melodies Of Timeless Stories
******************************
Total playing time: 45:49




[more=Technical info]
Input File: 02 - Forlorn.mp3
Channels : 2
Sample Rate : 44100
Precision : 16-bit
Duration : 00:03:27.40 = 9146340 samples = 15555 CDDA sectors
File Size : 8.51M
Bit Rate : 328k
Sample Encoding: MPEG audio (layer I, II or III)
Comments :
Title=Forlorn
Artist=The Prosecution
Album=The Unfollowing
Year=2017

[/more]

Register
(4) Buregon, gwar, infiltrator, Olethros,
Jan 18 2021, 03:15:44 The Prosecution - Words With Destiny (2015)


*Artist: The Prosecution
*Album: Words With Destiny
*Year: 2015
*Genre: Ska Punk
*Country: Germany
*Format: mp3@CBR320kbps
*Size: 99MB

Tracklist:
1. A New Sensation
2. The Last Shot
3. Words Of Peace
4. Liars
5. Broken Wings (feat. Pia Zeitzler)
6. The Big Bad White
7. Daily Death
8. Shots & Sirens
9. When Sorrows Start To Follow
10. Midnight Summer Storm
11. King Mammon's Returning
12. Two Hearts, One Chest
******************************
Total playing time: 42:44




[more=Technical info]
Input File: 05 - Broken Wings.mp3
Channels : 2
Sample Rate : 44100
Precision : 16-bit
Duration : 00:03:25.47 = 9061095 samples = 15410 CDDA sectors
File Size : 8.36M
Bit Rate : 325k
Sample Encoding: MPEG audio (layer I, II or III)
Comments :
Title=Broken Wings
Artist=The Prosecution
Album=Words With Destiny
Year=2015

[/more]

Register
(4) Buregon, gwar, infiltrator, Olethros,
Jan 18 2021, 03:07:00 Radio Havanna - Veto (2020)


*Artist: Radio Havanna
*Album: Veto
*Year: 2020
*Genre: Punk Rock
*Country: Germany
*Format: mp3@CBR320kbps
*Size: 92MB

Tracklist:
1. Krach
2. Coole Kids
3. Immer noch da
4. Herzschmerzsäufer
5. Helden
6. Ich komm klar
7. Chaoskind
8. Hungerturm
9. Simsonpunk
10. Antifaschisten
11. Hass ohne Verstand
12. Freie Radikale
13. Schatten
******************************
Total playing time: 40:11



[more=Technical info]
Input File: 11 - Hass ohne Verstand.mp3
Channels : 2
Sample Rate : 44100
Precision : 16-bit
Duration : 00:02:16.21 = 6006993 samples = 10216 CDDA sectors
File Size : 5.49M
Bit Rate : 322k
Sample Encoding: MPEG audio (layer I, II or III)
Comments :
Title=Hass ohne Verstand
Artist=Radio Havanna
Album=VETO
Year=2020

[/more]

Register
(4) gwar, infiltrator, oldvarg, Olethros,
Jan 18 2021, 03:02:04 Radio Havanna - Gossenhauer (2020)


*Artist: Radio Havanna
*Album: Gossenhauer
*Year: 2020
*Genre: Punk Rock
*Country: Germany
*Format: mp3@CBR320kbps
*Size: 70MB

Tracklist:
1. Alles nur geklaut (feat. The toten Crackhuren im Kofferraum)
2. Schöner fremder Mann (feat. Der Wahnsinn)
3. König von Deutschland (feat. Rogers)
4. Du hast den Farbfilm vergessen (feat. Dritte Wahl)
5. Alt wie ein Baum (feat. Go Go Gazelle)
6. Verdammt ich lieb dich (feat. Turbobier)
7. Major Tom (feat. Tüsn)
8. 1000 und 1 Nacht (feat. Massendefekt)
9. Kinder an die Macht (feat. Alex Mofa Gang)
10. Dein ist mein ganzes Herz (feat. Montreal)
******************************
Total playing time: 29:45



[more=Extended info]Included bonus album from the VETO album.[/more]

[more=Technical info]
Input File: 01 - Alles nur geklaut (feat. The toten Crackhuren im Kofferraum).mp3
Channels : 2
Sample Rate : 44100
Precision : 16-bit
Duration : 00:03:08.80 = 8326080 samples = 14160 CDDA sectors
File Size : 7.73M
Bit Rate : 327k
Sample Encoding: MPEG audio (layer I, II or III)
Comments :
Title=Alles nur geklaut (feat. The toten Crackhuren im Kofferraum)
Artist=Radio Havanna
Album=Gossenhauer
Year=2020

[/more]

Register
(3) gwar, infiltrator, Olethros,
Jan 18 2021, 01:00:20 Cales - KRF (2009)
MP3 320 CBR Re-Upload


Register
(1) smes,
Jan 18 2021, 00:01:44 Withania - Blütenstaub Und Weidenharz (2014)
Re-Upload


Register
(1) thenecromancer,
Jan 17 2021, 21:21:25 Mortal Intention - Abglanz (2008)
Re-Upload


Register
(1) MortSathynr,
Jan 17 2021, 21:19:28 Mortal Intention - Sic Luceat Lux (2002)
Re-Upload


Register
(2) rickzammuto, vasiljev_sergej,
Jan 17 2021, 21:18:12 Mortal Intention - Beflecket Fleisch (2000)
Re-Upload


Register
(2) rickzammuto, vasiljev_sergej,
Jan 17 2021, 21:16:27 Ad-hoC - N O N K O N F O R M (2014)
Re-Upload


Register
(1) MortSathynr,

5 Pages V   1 2 3 > » 
- Lo-Fi Version Support form
Copyrights and abuse reports form
Time is now: 21st April 2021 - 11:51:44