Welcome Guest ( Log In | Register )

История благодарностей участнику Kvlt ::: Спасибо сказали: 761 раз(а)
Дата поста: В теме: За сообщение: Спасибо сказали:
Sep 11 2021, 22:28:45 Wiking1940 - Nur: Ancient Culter Of Boes And Pyros (2021)
Vocalist Nameless also "Guest in Via dolorosa". Via Dolorosa is also a funny nazi band with a stupid "2082" theory: "2082 (about)… the end of this corrupted epoch! The purifying fire born from the end of the Kali Yuga will bring us to a new era of prosperity… billions of people will die during this phase… but what does it matter in the end? The body is only a casing to give material shape to the spirit… only the best ones will go further. If we’ll be worthy we’ll see again in the Satya Yuga."
http://greenlinefront.blogspot.com/2016/11...-nsbm-band.html
(1) Vitald,
Aug 24 2021, 18:23:43 Wheel - Resident Human (2021) (1) Ostinato,
Aug 22 2021, 20:36:40 Deafheaven - Infinite Granite (2021)
Couldn't have lesser Black Metal elements. smile1.gif But i like it, could have even none Black Metal elements for my taste.
(1) Angeldemon617,
Jun 27 2021, 14:48:31 Tronje - Zerfall (2021)
Aah the band who released the album "Deutschtum" (where on the front cover can be read "Mein Black Metal Kampf") with songs like "Deutscher Soldat" or "Auf Kameraden". Also very liked by the RAC and NSBM scene: https://rac-forum.org/forum/showthread.php?t=36063. Of course people here will say that it's not NSBM and so on. No no, this isn't a right winged band...for those who are blind on the right eye.
(2) El_Chibo, ingram,
Jun 9 2021, 14:14:39 Lantlôs
No idea if the search function here isn't working or damaged or so, but is here really not a single album from Lantlôs uploaded? This is very strange and i tried searching for Lantlos, Lantlös and Lantlôs...nothing to be found. Really?




By the way it's not the first time that the search function says nothing would be found. As i uploaded albums from Japanische Kampfhörspiele as example there were also nothing found and the uploads got rejected, while i got accused not using the search function..................
(1) Un4given,
May 30 2021, 16:07:28 Wicked Rumble - Blues Meets Metal (2019)


*Artist: Wicked Rumble
*Album: Blues Meets Metal
*Year: 2019
*Genre: Blues Metal
*Country: Russian Federation
*Format: mp3@CBR320kbps
*Size: 91MB

Tracklist:
1. Two-Wheeled Horse 05:35
2. If You Don't Start Drinkin' (I'm Gonna Leave) 04:01
3. Gold Mine 04:08
4. Alright, Okay, You Win 02:36
5. Black Velvet 04:41
6. Hit The Road Jack 03:33
7. Authentic Russian Bluesmen 04:22
8. Runaway Boogie 03:30
9. Oh, Pretty Woman 03:56
10. Leave My Woman Alone 03:13
******************************
Total playing time: 39:35






[more=Technical info]
Input File: 01 - Two-Wheeled Horse.mp3
Channels : 2
Sample Rate : 44100
Precision : 16-bit
Duration : 00:05:35.12 = 14778792 samples = 25134 CDDA sectors
File Size : 13.5M
Bit Rate : 322k
Sample Encoding: MPEG audio (layer I, II or III)
Comments :
Title=Two-Wheeled Horse
Artist=Wicked Rumble
Album=Blues Meets Metal
Year=2019

[/more]

Register
(10) after21allD, caro, cesar, chipsgott, infiltrator, METALHUNTER, Olethros, varlam4, Wail, wreak,
May 16 2021, 17:49:41 Diaboli - Awakening Of Nordic Storm (2021)
QUOTE(gattometal @ May 16 2021, 14:36:48) *
unacceptable in 2021 a poor production like this, his albums from 25 years ago were better produced! hmm.gif


From a review of the last album: "The previous albums was a good example of traditional and raw Black Metal, with lyrics about Satan, death and depression. Now Petri changed the mood, turning decisively into NSBM, both about the themes and the sound."
(3) ingram, Premature_Devotion, thenecromancer,
May 15 2021, 13:24:13 Midnight Betrothed - Dreamless (2021)
QUOTE(Ostinato @ May 15 2021, 12:52:12) *
Make a yandex account. Then you can download it past the uploader limit.


Ridiculous. Just download it from Metal Tracker if uploaders can't do it proper: https://en.metal-tracker.com/torrents/310458.html
(3) Carcharoth, infiltrator, Vardlokkur,
May 13 2021, 21:56:10 Apsis - Demonstration [demo] (2009)
Track By Track FLAC Re-Upload


Register
(1) thenecromancer,
Apr 21 2021, 20:24:46 Adalwolf - Christenfeind (2019)
QUOTE(rickzammuto @ Apr 21 2021, 17:52:41) *
Note that the song order on the Mediafire download is not the same as the header at the top of the page. The tracks are instead in alphabetical order, until you click the Modified column inside the Rar.


Re-tagged (sorted numerical and grammatically corrected) and re-uploaded:

Register
(13) Carcharoth, Constantinus I, dagger666, forgersky, infiltrator, Marek, Mencae77, Moonshtook, rickzammuto, rimfrost, sekmeth, SyncestrA, Wail,
Apr 7 2021, 17:19:52 Mahr - Death Comes Adorned In The Sun (2021)
And another NSBM band which can't play proper BM. And as if it wouldn't be enough they're befriended with Paul Waggener and his stupid bullshit. 15.gif
(1) Storky,
Mar 23 2021, 19:32:46 Seraph In Travail - Bring Forth Death (2015)
"...fully remixed and remastered version..."


[youtube]F9w25u_O7ig[/youtube]




Register
(1) kimkayoung,
Mar 18 2021, 19:55:49 Nakkiga
Hello again. smile1.gif Wanted to ask if someone would like to upload the album "Agurraren Harkaitza" from 2018 and the split album "Oroimenean" with Nakkiga and Helde from 2019.
Thanks in advance.

https://www.metal-archives.com/albums/Nakki...arkaitza/741910
https://www.metal-archives.com/albums/Nakki...oimenean/813034
(1) vovenom,
Feb 27 2021, 21:15:39 Demonia Mundi - In Grembo Mater... (2021)
QUOTE(forgersky @ Feb 27 2021, 09:10:24) *
Can you please add another link, sampo is like dial-up


Here you got.

Register
(1) vasiljev_sergej,
Jan 27 2021, 20:52:12 Döda Havet - Tid Och Rum (2020)


*Artist: Döda Havet
*Album: Tid Och Rum
*Year: 2020
*Genre: Alternative Rock
*Country: Sweden
*Format: mp3@CBR320kbps
*Size: 84MB

Tracklist:
1. Atlantis Mitt
2. Arcana
3. 7000 Dagar
4. Avsked
5. Hjärnspöket
6. Söndag
7. Levande Eller Död
8. Bråttom
******************************
Total playing time: 34:41




[more=Technical info]
Input File: 04 - Avsked.mp3
Channels : 2
Sample Rate : 44100
Precision : 16-bit
Duration : 00:01:42.38 = 4515046 samples = 7678.65 CDDA sectors
File Size : 4.82M
Bit Rate : 377k
Sample Encoding: MPEG audio (layer I, II or III)
Comments :
Title=Avsked
Artist=Döda Havet
Album=Tid Och Rum
Year=2020

[/more]

Register
(3) Cartman223, infiltrator, Olethros,
Jan 27 2021, 20:46:17 Döda Havet - Döda Havet (2016)


*Artist: Döda Havet
*Album: Döda Havet
*Year: 2016
*Genre: Alternative Rock
*Country: Sweden
*Format: mp3@CBR320kbps
*Size: 102MB

Tracklist:
1. Elden
2. Det Sämsta Av Två Världar
3. Komatecken
4. Flykten
5. Tystlåten
6. Framför Oss
7. På Låtsas
8. Besviken
9. Som De Där
******************************
Total playing time: 44:58




[more=Technical info]
Input File: 02 - Det Sämsta Av Två Världar.mp3
Channels : 2
Sample Rate : 44100
Precision : 16-bit
Duration : 00:04:06.27 = 10860639 samples = 18470.5 CDDA sectors
File Size : 9.89M
Bit Rate : 321k
Sample Encoding: MPEG audio (layer I, II or III)
Comments :
Title=Det Sämsta Av Två Världar
Artist=Döda Havet
Album=Döda Havet
Year=2016

[/more]

Register
(3) Cartman223, infiltrator, Olethros,
Jan 18 2021, 04:31:56 The Casualties - Resistance (2012)
Re-Upload


Register
(1) hell_armageddon,
Jan 18 2021, 04:29:07 Kotzreiz - Nüchtern Unerträglich (2020)


*Artist: Kotzreiz
*Album: Nüchtern Unerträglich
*Year: 2020
*Genre: Punk
*Country: Germany
*Format: mp3@CBR320kbps
*Size: 53MB

Tracklist:
1. Dusty
2. Nüchtern unerträglich
3. Wer is wieder da
4. Toilettenstern
5. Eiskalte Ohren
6. Punkboys Don't Cry
7. Ratten im System
8. Sambuca Beach
9. Nix zu verliern
10. Ich bin ein Wrack
11. Der räudige Aal
******************************
Total playing time: 23:36




[more=Technical info]
Input File: 04 - Toilettenstern (feat. Emilie Krawall).mp3
Channels : 2
Sample Rate : 44100
Precision : 16-bit
Duration : 00:02:12.22 = 5830726 samples = 9916.2 CDDA sectors
File Size : 5.71M
Bit Rate : 345k
Sample Encoding: MPEG audio (layer I, II or III)
Comments :
Title=Toilettenstern (feat. Emilie Krawall)
Artist=Kotzreiz
Album=Nüchtern unerträglich
Year=2020

[/more]

Register
(6) Brann, gwar, hell_armageddon, infiltrator, oldvarg, Olethros,
Jan 18 2021, 04:19:59 Pestpocken - Another World Is Possible (2020)


*Artist: Pestpocken
*Album: Another World Is Possible
*Year: 2020
*Genre: Punk
*Country: Germany
*Format: mp3@CBR320kbps
*Size: 89MB

Tracklist:
1. Wir stehen wieder auf
2. Another World Is Possible
3. Battle Of Cable Street
4. Über 20 Jahre
5. A Struggle For The Whole
6. The Winner Takes It All
7. Generation Me
8. Against It
9. Treibsand
10. Die Welt steht Kopf
11. Wie ein Faustschlag
12. Welcome To Germany
13. Don't Talk 2 Police
******************************
Total playing time: 36:54




[more=Technical info]
Input File: 12 - Welcome To Germany.mp3
Channels : 2
Sample Rate : 44100
Precision : 16-bit
Duration : 00:02:46.05 = 7322629 samples = 12453.5 CDDA sectors
File Size : 7.06M
Bit Rate : 340k
Sample Encoding: MPEG audio (layer I, II or III)
Comments :
Title=Welcome To Germany
Artist=Pestpocken
Album=Another World Is Possible
Year=2020

[/more]

Register
(4) gwar, infiltrator, oldvarg, Olethros,
Jan 18 2021, 04:09:32 Wizo - Punk Gibt's Nicht Umsonst! (Teil Iii) (2014)


*Artist: Wizo
*Album: Punk Gibt's Nicht Umsonst! (Teil Iii)
*Year: 2014
*Genre: Punk
*Country: Germany
*Format: mp3@CBR320kbps
*Size: 131MB

Tracklist:
1. Seegurke
2. Scheissefresser
3. Kohlenholen
4. Ganz klar gegen Nazis
5. Scheissekotzen
6. Kriminell & asozial
7. Kein Empfang
8. Alles verschwimmt
9. Königin
10. Unpoliddisch
11. Zombiemann
12. Endzweit
13. Meine Wut
14. Pinöpel
15. Dummensch
16. Wenn ich mal sterb
17. Erwin
18. Wie solls gehen
19. Pförtner
20. Schlechte Zeit
21. Alte Herren
******************************
Total playing time: 1:05:00



[more=Technical info]
Input File: 07 - Kein Empfang.mp3
Channels : 2
Sample Rate : 44100
Precision : 16-bit
Duration : 00:03:13.75 = 8544507 samples = 14531.5 CDDA sectors
File Size : 7.78M
Bit Rate : 321k
Sample Encoding: MPEG audio (layer I, II or III)
Comments :
Title=Kein Empfang
Artist=WIZO
Album=Punk gibt's nicht umsonst! (Teil III)
Year=2014

[/more]

Register
(3) gwar, infiltrator, Olethros,
Jan 18 2021, 04:01:43 Wizo - Bleib Tapfer/Für'n Arsch (1992)


*Artist: Wizo
*Album: Bleib Tapfer/Für'n Arsch
*Year: 1992
*Genre: Punk
*Country: Germany
*Format: mp3@CBR320kbps
*Size: 179MB

Tracklist:
1. Bei dir
2. Mein Tod
3. Nice Day
4. Bleib tapfer
5. Es ist vorbei
6. &?#§$)%?
7. Geisterfahrer
8. Alte Frau
9. Nix & Niemant
10. Leichen
11. Alter Bruder
12. Diese Welt
13. I Want You To Be Ma Girl
14. Gute Freunde
15. Good Bye
16. Der Käfer
17. Kadett B
18. K.I.K. III
19. Kein Gerede
20. Walter
21. Jupp
22. Selenbrant
23. Unemployed
24. Sylvia
******************************
Total playing time: 1:08:00



[more=Technical info]
Input File: 16 - Der Käfer.mp3
Channels : 2
Sample Rate : 44100
Precision : 16-bit
Duration : 00:00:31.06 = 1369922 samples = 2329.8 CDDA sectors
File Size : 2.37M
Bit Rate : 611k
Sample Encoding: MPEG audio (layer I, II or III)
Comments :
Title=Der Käfer
Artist=WIZO
Album=Bleib tapfer - Für'n Arsch
Year=1992

[/more]

Register
(3) gwar, infiltrator, Olethros,
Jan 18 2021, 03:52:28 Adam Angst - Neintology (2018)


*Artist: Adam Angst
*Album: Neintology
*Year: 2018
*Genre: Punk Rock
*Country: Germany
*Format: mp3@CBR320kbps
*Size: 74MB

Tracklist:
1. Der Beginn von etwas ganz Großem
2. Punk
3. Alexa
4. Blase aus Beton
5. Alle sprechen Deutsch
6. Damit ich schlafen kann
7. Kriegsgebiet
8. Immer noch
9. Alphatier
10. D.I.N.N.
11. Physik
******************************
Total playing time: 32:09



[more=Technical info]
Input File: 10 - D.I.N.N..mp3
Channels : 2
Sample Rate : 44100
Precision : 16-bit
Duration : 00:02:34.60 = 6818036 samples = 11595.3 CDDA sectors
File Size : 6.29M
Bit Rate : 326k
Sample Encoding: MPEG audio (layer I, II or III)
Comments :
Title=D.I.N.N.
Artist=Adam Angst
Album=Neintology
Year=2018

[/more]

Register
(4) gwar, infiltrator, oldvarg, Olethros,
Jan 18 2021, 03:43:16 Dritte Wahl - 3D (2020)


*Artist: Dritte Wahl
*Album: 3D
*Year: 2020
*Genre: Punk Rock
*Country: Germany
*Format: mp3@CBR320kbps
*Size: 116MB

Tracklist:
1. Ikarus
2. Was zur Hölle...?!
3. Abends halb zehn
4. Brennt alles nieder
5. Warm anziehen
6. Fabelhafte Voraussetzung
7. Zur See
8. Alles nur Chemie
9. 3D
10. Schöne Frau mit Geld
11. Ohne mich
12. Elektro Merten
13. Zusammen
14. Wenn ich gross bin
******************************
Total playing time: 50:36




[more=Technical info]
Input File: 04 - Brennt alles nieder.mp3
Channels : 2
Sample Rate : 44100
Precision : 16-bit
Duration : 00:03:30.95 = 9303027 samples = 15821.5 CDDA sectors
File Size : 8.47M
Bit Rate : 321k
Sample Encoding: MPEG audio (layer I, II or III)
Comments :
Title=Brennt alles nieder
Artist=Dritte Wahl
Album=3D
Year=2020

[/more]

Register
(3) gwar, infiltrator, Olethros,
Jan 18 2021, 03:37:08 Dritte Wahl - 10 (2017)


*Artist: Dritte Wahl
*Album: 10
*Year: 2017
*Genre: Punk Rock
*Country: Germany
*Format: mp3@CBR320kbps
*Size: 99MB

Tracklist:
1. Scotty
2. Der Feind des Guten
3. Der Himmel über uns
4. Zum Licht empor
5. Wenn ihr wüsstet
6. So lange her
7. Was wirst du tun
8. Runde um Runde
9. 25 Cent
10. Vor dem Aufprall
11. Es hält nicht an
12. Schade
******************************
Total playing time: 47:43



[more=Technical info]
Input File: 05 - Wenn ihr wüsstet.mp3
Channels : 2
Sample Rate : 44100
Precision : 16-bit
Duration : 00:03:57.36 = 10467752 samples = 17802.3 CDDA sectors
File Size : 9.50M
Bit Rate : 320k
Sample Encoding: MPEG audio (layer I, II or III)
Comments :
Title=Wenn ihr wüsstet
Artist=Dritte Wahl
Album=10
Year=2017

[/more]

Register
(3) gwar, infiltrator, Olethros,
Jan 18 2021, 03:30:35 Dritte Wahl - Gib Acht! (2010)


*Artist: Dritte Wahl
*Album: Gib Acht!
*Year: 2010
*Genre: Punk Rock
*Country: Germany
*Format: mp3@CBR320kbps
*Size: 131MB

Tracklist:
1. Gib Acht!
2. Das sieht gut aus
3. Wo ist mein Preis?
4. Ich bin dafür
5. Alles wird gut
6. Keine Angst
7. Alles für den Wind
8. Fliegen
9. Mama, hol' den Hammer
10. Aufhör'n kann ich gut
11. Ich bin's
12. Morgen schon weg
13. Singles (Junge Frau zum Mitreisen gesucht)
14. Danke
15. Obacht!
16. Pro Rapid
******************************
Total playing time: 58:07



[more=Technical info]
Input File: 06 - Keine Angst.mp3
Channels : 2
Sample Rate : 44100
Precision : 16-bit
Duration : 00:03:11.30 = 8436374 samples = 14347.6 CDDA sectors
File Size : 7.66M
Bit Rate : 320k
Sample Encoding: MPEG audio (layer I, II or III)
Comments :
Title=Keine Angst
Artist=Dritte Wahl
Album=Gib Acht!
Year=2010

[/more]

Register
(3) gwar, infiltrator, Olethros,

6 Pages V   1 2 3 > » 
- Lo-Fi Version Support form
Copyrights and abuse reports form
Time is now: 24th September 2021 - 03:46:15