Welcome Guest ( Log In | Register )

История благодарностей участнику wendigo ::: Спасибо сказали: 663 раз(а)
Дата поста: В теме: За сообщение: Спасибо сказали:
Aug 5 2021, 10:21:31 Wolfthorn - Towards Ipsissimus (2010)
QUOTE(kupiszcze @ Nov 13 2019, 17:43:37) *
Please reupload!

The original link still works.
(1) thenecromancer,
Aug 4 2021, 17:04:05 Pagan Rites - Rites Of The Pagan Warriors [compilation] (2003)
QUOTE(kastrup @ Aug 4 2021, 17:57:17) *
Please re-up pray.gif pray.gif

The original link still works.
(1) thenecromancer,
Jul 3 2021, 11:00:01 Therm . Eye . Flame - Solar Nebula (2002)
QUOTE(Kazoth @ Jul 2 2021, 22:54:37) *
Первый трек тут вообще хитяра!

Reup please!
(1) Occultas,
May 19 2021, 13:05:40 Бѣсъ - Чертополохъ [ep] (2021)
QUOTE(Krosis @ May 19 2021, 07:19:32) *
https://i.ibb.co/FhZpsGk/5ea3a3.jpg

p.s. теги-то где?

Tagged:
Register
(1) SilentNidhogg,
Apr 18 2021, 19:19:42 Wandar - Landlose Ufer - 2021 (2021)
QUOTE(SyncestrA @ Apr 18 2021, 20:07:03) *
За релиз спасибо! Но...
Модераторам надо отредактировать линк в шапке - там лишнее hide есть, из-за этого линк не открывается, пришлось копировать ссылку, вставлять в строку и удалять ненужное.

True!

This is the extracted link btw:
Register
(12) AndreFrancis, Constantinus I, El_Chibo, ErikGoth, infiltrator, ITNOR, khestanow3001, legion01, Marek, rammstein888, thenecromancer, vasiljev_sergej,
Mar 24 2021, 17:38:55 Sarath - Promo CDR [demo] (2005)
QUOTE(thenecromancer @ Mar 23 2021, 19:58:03) *
x 3 pray.gif

The link in OP works.
(1) thenecromancer,
Jan 15 2021, 09:39:00 Lascaille's Shroud - Interval 02: Parallel Infinities,The Abscinded Universe (2014)
QUOTE(themastergame @ Jan 15 2021, 05:35:42) *
Re-upload please!

NYP on bandcamp:
(1) kimkayoung,
Nov 2 2020, 10:46:45 Anu - Anu [ep] (2000)
QUOTE(thenecromancer @ Nov 2 2020, 09:50:23) *
Titles of those 2 bonus-tx:
- A Sorrowful Funeral Night
- Nachtmusik
https://www.discogs.com/Anu-Anu/release/4062228
If anyone still have both tracks, please re-up pray.gif

Register
(3) kim666, thenecromancer, Xron,
Sep 19 2019, 20:13:41 Hellbound - Forgotten The Past [ep] (1993)
foobar2000 v1.5 beta can do it, finally...
Here it's split and in 320 mp3:
Register
(1) FUDEDOR,
Sep 15 2019, 11:37:18 Bykürius - A Heretic Art [ep] (2019)
I'm wondering - does the band name mean "Bi-curious"? smile1.gif
(2) infiltrator, Old Vyaine,
Sep 15 2019, 11:36:06 Envious Despair - Envious Mothafukin Despair (2019)
QUOTE(AHBAnep @ Sep 15 2019, 08:06:05) *

I was thinking that I've never heard of such Super Death Metal smile1.gif
(2) infiltrator, Old Vyaine,
Aug 19 2019, 16:01:39 Aske - Once... (2015)


*Artist: Aske
*Album: Once...
*Year: 2015
*Genre: Black/Death Metal
*Country: Brazil
*Format: mp3@CBR320kbps
*Size: 129MB

Tracklist:
1. Carving The Flesh 03:43
2. God To Fire 03:23
3. Kingdom 03:55
4. Erase The Scars 03:41
5. Denied Regain 04:27
6. A Dawn To Ruin 04:43
7. Unchain The Seed Of Cognition 04:34
8. Whip The Bastard 03:55
9. Übermensch 02:53
10. Introspective Return Of Shadows 16:55
******************************
Total playing time: 52:09



[more=Technical info]
Input File: Aske - Carving the Flesh.mp3
Channels : 2
Sample Rate : 44100
Precision : 16-bit
Duration : 00:03:44.01 = 9878929 samples = 16800.9 CDDA sectors
File Size : 8.96M
Bit Rate : 320k
Sample Encoding: MPEG audio (layer I, II or III)
Comments :
Title=Carving the Flesh
Artist=Aske
Album=Once...
Tracknumber=1
Year=2015

[/more]

Register
(13) artscald, atavist, GorAtheist, infiltrator, ITNOR, Ludwig Hagen, metala, Olethros, Razorbladeswaltz, Rosen, SilentNidhogg, vasiljev_sergej, wreak,
Aug 15 2019, 21:02:07 Moonblood - Rehearsal 7 [demo] (1996)
QUOTE(thenecromancer @ Aug 15 2019, 17:20:16) *
+ 1 pray.gif
Anyone, please re-up this version: Moonblood - Rehearsal 7 [demo] (1996) [post #1914024]

Not sure if it's really the same one but it's 192 kbps as well...
Register


EDIT: nvm, the linked version was not 192kbps? Anyway, perhaps this helps, perhaps not smile1.gif
(3) canadaspaceman, thenecromancer, Wail,
Aug 15 2019, 10:18:09 Morose - Morose (2017)


*Artist: Morose
*Album: Morose
*Year: 2017
*Genre: Black Metal
*Country: United States
*Format: mp3@CBR320kbps
*Size: 76MB

Tracklist:
1. Fixation 04:20
2. Plague 01:10
3. Cosmic Collapse 04:08
4. Cold Black Void 03:06
5. Winter 02:24
6. Autumnal Respite 05:21
7. Morose 06:26
8. 4'33 (John Cage cover) 04:34
******************************
Total playing time: 31:29



[more=Extended info]https://www.metal-archives.com/bands/Morose/3540431874[/more]

[more=Technical info]
Input File: 01 - Morose - Fixation.mp3
Channels : 2
Sample Rate : 44100
Precision : 16-bit
Duration : 00:04:20.11 = 11470631 samples = 19507.9 CDDA sectors
File Size : 10.5M
Bit Rate : 324k
Sample Encoding: MPEG audio (layer I, II or III)
Comments :
Title=Fixation
Artist=Morose
Album=Morose
Tracknumber=1
Year=2017
Genre=Black Metal

[/more]

Register
(16) 1968_janeart, artscald, dermarsoran, infiltrator, kim666, Ludwig Hagen, morve, nsk2008, Olethros, Razorbladeswaltz, robertho777, SilentNidhogg, stub888, varlam4, vasiljev_sergej, wreak,
Aug 10 2019, 06:55:46 Vargariket - Demo 1996 [demo] (1996)
QUOTE(dermarsoran @ Aug 10 2019, 02:01:11) *
Please re upload it, thanks in advance

Here you go...
Register
(2) INDARKNESS, stumpheavyrock,
Jul 31 2019, 09:45:29 Psypheria - Gothic Disturbance (1998)
QUOTE(Dmitry1977 @ Jul 31 2019, 09:20:51) *
Залейте плиз!

This link seems to still work:
QUOTE(samokot @ Oct 22 2015, 09:37:30) *

(1) Dmitry1977,
May 6 2019, 14:34:52 Cynicon - Cybernetic (2003)
QUOTE(Aphotic @ May 6 2019, 13:30:55) *
re-upload? /,,/,

Here you go, 320:
Register
(3) Aphotic, avkruchinin, dermarsoran,
May 1 2019, 18:21:38 George Kollias - Invictus (2015)
QUOTE(Aphotic @ May 1 2019, 17:07:10) *
reupload, please

spasibo /,,/,

From Dark-world:
Register
(2) Adskij, Exhorder121121,
Apr 7 2019, 17:27:01 Saatana Hatiim - Véampyreik Ritualméz [single] (2012)
QUOTE(Borderline1991 @ Apr 6 2019, 15:49:27) *
please reup

Register
(4) kim666, LordHaart, Moldavite, Wotanwatch,
Mar 16 2019, 19:34:42 Geasa - Promo 2003 [demo] (2003)
QUOTE(dermarsoran @ Mar 16 2019, 19:29:26) *
please re upload it, thanks in advance

The link in the OP works.
(1) dermarsoran,
Mar 14 2019, 08:17:03 Burial - Relinquished Souls (1993)
QUOTE(PanzerDivisionMarduk @ Nov 12 2018, 05:42:17) *
Please re-upload.

From D-W:
Register
(9) Alfredoelruso, Buregon, FunZombie, lawronchik, LVXXVL, muskatnuss, ripper33, Sabbathian, satanist666,
Jan 30 2019, 09:36:22 Aetherius Obscuritas - Kínzó Harag (2005)
QUOTE(Mauricio666 @ Jan 30 2019, 01:21:35) *
Reup please ! pray.gif

From Dark-Wrorld:
Register
(4) AlexSmith, cist, dimmannius, rickzammuto,
Jan 11 2019, 08:45:37 Various Artists - Beyond The Gate Of Nanna - A Tribute To Beherit [compilation] (2002)
QUOTE(Borderline1991 @ Jan 11 2019, 08:36:52) *

Thanks, I had only a shitty 128kbps version smile1.gif
(1) Moldavite,
Jan 9 2019, 18:29:10 Asaru - From The Chasms Of Oblivion (2012)
From dark-world, VBR~285:
Register
(7) demonosz, dermarsoran, Kazoth, kim666, rimfrost, thenecromancer, varg-38ru,
Jan 3 2019, 20:01:09 Pożoga - Infernal Seeds [demo] (2014)
QUOTE(Slavas @ Jan 2 2019, 23:06:55) *
Please re-up

Via Dark-World:
Register
(3) kim666, thenecromancer, Wilczygniew Strzygoń,

9 Pages V   1 2 3 > » 
- Lo-Fi Version Support form
Copyrights and abuse reports form
Time is now: 28th September 2021 - 07:46:52